osu file format v14

[General]
AudioFilename: audio.mp3
AudioLeadIn: 0
PreviewTime: 15
Countdown: 0
SampleSet: Soft
StackLeniency: 0.7
Mode: 0
LetterboxInBreaks: 0
WidescreenStoryboard: 0

[Editor]
Bookmarks: 25141,36266,58565,86486,97732,120216,145382,153912,165267,176462,204317,209809,230441,244975,258861,272651,287365
DistanceSpacing: 0.7
BeatDivisor: 12
GridSize: 8
TimelineZoom: 2.899999

[Metadata]
Title:Stinkfist
TitleUnicode:Stinkfist
Artist:TOOL
ArtistUnicode:TOOL
Creator:WashedUp Player
Version:never satisfied
Source:
Tags:English Ænima Aenima progressive alternative rock metal danny carey paul d'amour adam jones maynard james keenan
BeatmapID:2615622
BeatmapSetID:1258271

[Difficulty]
HPDrainRate:5
CircleSize:5
OverallDifficulty:8.6
ApproachRate:9
SliderMultiplier:1.6
SliderTickRate:1

[Events]
//Background and Video events
0,0,"tool is n.jpg",0,0
//Break Periods
//Storyboard Layer 0 (Background)
//Storyboard Layer 1 (Fail)
//Storyboard Layer 2 (Pass)
//Storyboard Layer 3 (Foreground)
//Storyboard Layer 4 (Overlay)
//Storyboard Sound Samples

[TimingPoints]
188,713.241325202382,4,2,1,30,1,0
2950,-100,4,2,1,5,0,0
3040,712.166172106825,4,2,1,30,1,0
5798,-100,4,2,1,5,0,0
5888,714.285714285715,4,2,1,30,1,0
8655,-100,4,2,1,5,0,0
8745,718.562874251497,4,2,1,30,1,0
11529,-100,4,2,1,5,0,0
11619,722.891566265061,4,2,1,30,1,0
13071,715.137067938021,4,2,1,30,1,0
13071,-1000,4,2,1,30,0,0
20043,-1000,4,2,1,15,0,0
20223,731.707317073171,4,2,1,40,1,0
20223,-188.679245283019,4,2,1,40,0,0
20954,-227.272727272727,4,2,1,5,0,0
25141,731.707317073171,4,2,1,60,1,0
25781,-100,4,2,1,5,0,0
25872,-66.6666666666667,4,2,1,60,0,0
26147,-66.6666666666667,4,2,1,5,0,0
26238,-133.333333333333,4,2,1,60,0,0
26520,-133.333333333333,4,2,1,60,0,0
26604,666.666666666667,4,2,1,60,1,0
27270,705.882352941176,4,2,1,60,1,0
27270,-66.6666666666667,4,2,1,60,0,0
27534,-66.6666666666667,4,2,1,5,0,0
27622,-133.333333333333,4,2,1,60,0,0
27887,-133.333333333333,4,2,1,5,0,0
27975,705.882352941176,4,2,1,60,1,0
27975,-133.333333333333,4,2,1,60,0,0
28328,-100,4,2,1,60,0,0
28681,697.674418604651,4,2,1,60,1,0
28681,-66.6666666666667,4,2,1,60,0,0
28942,-66.6666666666667,4,2,1,5,0,0
29029,-100,4,2,1,60,0,0
29291,-100,4,2,1,5,0,0
29378,697.674418604651,4,2,1,60,1,0
29378,-100,4,2,1,60,0,0
29727,-100,4,2,1,60,0,0
30076,-66.6666666666667,4,2,1,60,0,0
30337,-66.6666666666667,4,2,1,5,0,0
30425,-133.333333333333,4,2,1,60,0,0
30686,-133.333333333333,4,2,1,5,0,0
30773,697.674418604651,4,2,1,60,1,0
30774,-133.333333333333,4,2,1,60,0,0
31122,-100,4,2,1,60,0,0
31471,689.655172413793,4,2,1,60,1,0
31471,-66.6666666666667,4,2,1,60,0,0
31729,-66.6666666666667,4,2,1,5,0,0
31815,-133.333333333333,4,2,1,60,0,0
32074,-133.333333333333,4,2,1,5,0,0
32160,689.655172413793,4,2,1,60,1,0
32160,-133.333333333333,4,2,1,60,0,0
32505,-100,4,2,1,60,0,0
32850,-66.6666666666667,4,2,1,60,0,0
33108,-66.6666666666667,4,2,1,5,0,0
33195,-133.333333333333,4,2,1,60,0,0
33453,-133.333333333333,4,2,1,5,0,0
33539,689.655172413793,4,2,1,60,1,0
33539,-133.333333333333,4,2,1,60,0,0
33884,-100,4,2,1,60,0,0
34229,670.391061452514,4,2,1,60,1,0
34229,-66.6666666666667,4,2,1,60,0,0
34480,-66.6666666666667,4,2,1,5,0,0
34564,-133.333333333333,4,2,1,60,0,0
34815,-133.333333333333,4,2,1,5,0,0
34899,670.391061452514,4,2,1,60,1,0
34899,-133.333333333333,4,2,1,60,0,0
35569,697.674418604651,4,2,1,60,1,0
35569,-50,4,2,1,60,0,0
35830,-50,4,2,1,5,0,0
35917,-50,4,2,1,45,0,0
36266,697.674418604651,4,2,1,60,1,0
36964,693.64161849711,4,2,1,45,1,0
36964,-166.666666666667,4,2,1,45,0,0
37224,-166.666666666667,4,2,1,5,0,0
37310,-111.111111111111,4,2,1,45,0,0
37570,-111.111111111111,4,2,1,5,0,0
37657,-111.111111111111,4,2,1,45,0,0
38351,689.655172413793,4,2,1,45,1,0
38351,-166.666666666667,4,2,1,45,0,0
38609,-166.666666666667,4,2,1,5,0,0
38695,-111.111111111111,4,2,1,45,0,0
38954,-111.111111111111,4,2,1,5,0,0
39040,689.655172413793,4,2,1,45,1,0
39040,-111.111111111111,4,2,1,45,0,0
39729,-166.666666666667,4,2,1,45,0,0
39988,-166.666666666667,4,2,1,5,0,0
40075,-111.111111111111,4,2,1,45,0,0
40333,-111.111111111111,4,2,1,5,0,0
40419,689.655172413793,4,2,1,45,1,0
40419,-111.111111111111,4,2,1,45,0,0
41109,697.674418604651,4,2,1,45,1,0
41109,-166.666666666667,4,2,1,45,0,0
41370,-166.666666666667,4,2,1,5,0,0
41457,-111.111111111111,4,2,1,45,0,0
41719,-111.111111111111,4,2,1,5,0,0
41806,697.674418604651,4,2,1,45,1,0
41806,-111.111111111111,4,2,1,45,0,0
42504,685.714285714286,4,2,1,45,1,0
42504,-166.666666666667,4,2,1,45,0,0
42761,-166.666666666667,4,2,1,5,0,0
42846,-111.111111111111,4,2,1,45,0,0
43104,-111.111111111111,4,2,1,5,0,0
43189,685.714285714286,4,2,1,45,1,0
43189,-111.111111111111,4,2,1,45,0,0
43875,705.882352941176,4,2,1,45,1,0
43875,-166.666666666667,4,2,1,45,0,0
44139,-166.666666666667,4,2,1,5,0,0
44227,-111.111111111111,4,2,1,45,0,0
44492,-111.111111111111,4,2,1,5,0,0
44580,705.882352941176,4,2,1,45,1,0
44580,-111.111111111111,4,2,1,45,0,0
45286,691.64265129683,4,2,1,45,1,0
45286,-166.666666666667,4,2,1,45,0,0
45545,-166.666666666667,4,2,1,5,0,0
45631,-111.111111111111,4,2,1,45,0,0
45891,-111.111111111111,4,2,1,5,0,0
45977,691.64265129683,4,2,1,45,1,0
45977,-111.111111111111,4,2,1,45,0,0
46669,695.652173913044,4,2,1,45,1,0
46669,-166.666666666667,4,2,1,45,0,0
46929,-166.666666666667,4,2,1,5,0,0
47016,-111.111111111111,4,2,1,45,0,0
47277,-111.111111111111,4,2,1,5,0,0
47364,695.652173913044,4,2,1,45,1,0
47364,-111.111111111111,4,2,1,45,0,0
48060,-166.666666666667,4,2,1,45,0,0
48321,-166.666666666667,4,2,1,5,0,0
48408,-111.111111111111,4,2,1,45,0,0
48669,-111.111111111111,4,2,1,5,0,0
48755,695.652173913044,4,2,1,45,1,0
48755,-111.111111111111,4,2,1,45,0,0
49451,731.70731707317,4,2,1,45,1,0
49451,-166.666666666667,4,2,1,45,0,0
49725,-166.666666666667,4,2,1,5,0,0
49816,-111.111111111111,4,2,1,45,0,0
50091,-111.111111111111,4,2,1,5,0,0
50182,674.157303370786,4,2,1,45,1,0
50182,-111.111111111111,4,2,1,45,0,0
50862,697.674418604651,4,2,1,45,1,0
50862,-166.666666666667,4,2,1,45,0,0
51123,-166.666666666667,4,2,1,5,0,0
51210,-111.111111111111,4,2,1,45,0,0
51472,-111.111111111111,4,2,1,5,0,0
51559,697.674418604651,4,2,1,45,1,0
51559,-111.111111111111,4,2,1,45,0,0
52257,707.964601769912,4,2,1,45,1,0
52257,-166.666666666667,4,2,1,45,0,0
52522,-166.666666666667,4,2,1,5,0,0
52610,-111.111111111111,4,2,1,45,0,0
52876,-111.111111111111,4,2,1,5,0,0
52964,707.964601769912,4,2,1,45,1,0
52964,-111.111111111111,4,2,1,45,0,0
53672,697.674418604651,4,2,1,45,1,0
53672,-166.666666666667,4,2,1,45,0,0
53933,-166.666666666667,4,2,1,5,0,0
54020,-111.111111111111,4,2,1,45,0,0
54282,-111.111111111111,4,2,1,5,0,0
54369,697.674418604651,4,2,1,45,1,0
54369,-111.111111111111,4,2,1,45,0,0
55067,701.754385964912,4,2,1,45,1,0
55067,-166.666666666667,4,2,1,45,0,0
55330,-166.666666666667,4,2,1,5,0,0
55417,-111.111111111111,4,2,1,45,0,0
55681,-111.111111111111,4,2,1,5,0,0
55768,701.754385964912,4,2,1,45,1,0
55768,-111.111111111111,4,2,1,45,0,0
56470,-166.666666666667,4,2,1,45,0,0
56733,-166.666666666667,4,2,1,5,0,0
56821,-111.111111111111,4,2,1,45,0,0
57084,-111.111111111111,4,2,1,5,0,0
57171,701.754385964912,4,2,1,45,1,0
57172,-111.111111111111,4,2,1,45,0,0
57874,691.64265129683,4,2,1,60,1,0
58219,-250,4,2,1,75,0,0
58479,-250,4,2,1,5,0,0
58565,691.64265129683,4,2,1,60,1,0
58565,-66.6666666666667,4,2,1,75,0,0
59170,-66.6666666666667,4,2,1,5,0,0
59257,689.655172413793,4,2,1,75,1,0
59257,-50,4,2,1,75,0,0
59515,-50,4,2,1,5,0,0
59601,-200,4,2,1,75,0,0
59860,-200,4,2,1,5,0,0
59946,689.655172413793,4,2,1,75,1,0
59946,-66.6666666666667,4,2,1,75,0,0
60463,-66.6666666666667,4,2,1,5,0,0
60550,-66.6666666666667,4,2,1,75,0,0
60636,-50,4,2,1,75,0,0
60894,-50,4,2,1,5,0,0
60980,-200,4,2,1,75,0,0
61239,-200,4,2,1,5,0,0
61325,689.655172413793,4,2,1,75,1,0
61325,-66.6666666666667,4,2,1,75,0,0
61929,-66.6666666666667,4,2,1,5,0,0
62015,687.679083094556,4,2,1,75,1,0
62015,-50,4,2,1,75,0,0
62272,-50,4,2,1,5,0,0
62358,-200,4,2,1,75,0,0
62616,-200,4,2,1,5,0,0
62702,687.679083094556,4,2,1,75,1,0
62702,-66.6666666666667,4,2,1,75,0,0
63132,-66.6666666666667,4,2,1,5,0,0
63218,-66.6666666666667,4,2,1,75,0,0
63390,674.157303370786,4,2,1,75,1,0
63390,-50,4,2,1,75,0,0
63642,-50,4,2,1,5,0,0
63727,-200,4,2,1,75,0,0
63979,-200,4,2,1,5,0,0
64064,674.157303370786,4,2,1,75,1,0
64064,-200,4,2,1,75,0,0
64232,-66.6666666666667,4,2,1,75,0,0
64652,-66.6666666666667,4,2,1,5,0,0
64738,681.818181818182,4,2,1,75,1,0
64738,-50,4,2,1,75,0,0
64993,-50,4,2,1,5,0,0
65078,-200,4,2,1,75,0,0
65334,-200,4,2,1,5,0,0
65419,681.818181818182,4,2,1,75,1,0
65419,-66.6666666666667,4,2,1,75,0,0
65931,-66.6666666666667,4,2,1,5,0,0
66016,-66.6666666666667,4,2,1,75,0,0
66101,677.966101694915,4,2,1,75,1,0
66101,-50,4,2,1,75,0,0
66355,-50,4,2,1,5,0,0
66439,-200,4,2,1,75,0,0
66694,-200,4,2,1,5,0,0
66778,677.966101694915,4,2,1,75,1,0
66778,-200,4,2,1,75,0,0
66948,-66.6666666666667,4,2,1,75,0,0
67202,-66.6666666666667,4,2,1,5,0,0
67287,-66.6666666666667,4,2,1,75,0,0
67456,689.655172413793,4,2,1,75,1,0
67456,-50,4,2,1,75,0,0
67887,-50,4,2,1,5,0,0
67973,-50,4,2,1,75,0,0
68145,689.655172413793,4,2,1,75,1,0
68145,-50,4,2,1,75,0,0
68576,-50,4,2,1,5,0,0
68662,-50,4,2,1,75,0,0
68835,691.64265129683,4,2,1,75,1,0
68835,-66.6666666666667,4,2,1,75,0,0
69094,-66.6666666666667,4,2,1,5,0,0
69180,633.245382585752,4,2,1,75,1,0
69180,-66.6666666666667,4,2,1,75,0,0
69338,752.351097178683,4,2,1,75,1,0
69526,691.64265129683,4,2,1,75,1,0
69526,-66.6666666666667,4,2,1,75,0,0
69958,-66.6666666666667,4,2,1,5,0,0
70045,-66.6666666666667,4,2,1,70,0,0
70218,666.666666666667,4,2,1,70,1,0
70884,666.666666666667,4,2,1,70,1,0
71134,-100,4,2,1,5,0,0
71218,-100,4,2,1,70,0,0
71468,-100,4,2,1,5,0,0
71551,693.64161849711,4,2,1,70,1,0
71551,-66.6666666666667,4,2,1,70,0,0
72071,-129.032258064516,4,2,1,70,0,0
72244,638.297872340425,4,2,1,70,1,0
72323,-100,4,2,1,5,0,0
72403,-100,4,2,1,70,0,0
72891,679.886685552408,4,2,1,70,1,0
72891,-66.6666666666667,4,2,1,70,0,0
73570,679.886685552408,4,2,1,70,1,0
73570,-66.6666666666667,4,2,1,70,0,0
74165,-66.6666666666667,4,2,1,5,0,0
74250,674.157303370786,4,2,1,70,1,0
74250,-50,4,2,1,70,0,0
74502,-50,4,2,1,5,0,0
74587,-166.666666666667,4,2,1,70,0,0
74839,-166.666666666667,4,2,1,5,0,0
74924,631.578947368421,4,2,1,70,1,0
75557,689.655172413793,4,2,1,70,1,0
75557,-50,4,2,1,70,0,0
75988,-50,4,2,1,5,0,0
76074,-100,4,2,1,70,0,0
76246,612.244897959184,4,2,1,70,1,0
76781,-100,4,2,1,5,0,0
76861,681.818181818182,4,2,1,70,1,0
77542,681.818181818182,4,2,1,70,1,0
77542,-66.6666666666667,4,2,1,70,0,0
78139,-66.6666666666667,4,2,1,5,0,0
78224,666.666666666667,4,2,1,70,1,0
78557,-166.666666666667,4,2,1,70,0,0
78810,-100,4,2,1,5,0,0
78890,638.297872340426,4,2,1,70,1,0
79528,674.157303370786,4,2,1,70,1,0
79528,-50,4,2,1,70,0,0
79780,-50,4,2,1,5,0,0
79865,-50,4,2,1,70,0,0
80286,-50,4,2,1,5,0,0
80370,-50,4,2,1,70,0,0
80876,659.340659340659,4,2,1,70,1,0
81535,705.882352941176,4,2,1,70,1,0
81535,-66.6666666666667,4,2,1,70,0,0
82153,-66.6666666666667,4,2,1,5,0,0
82240,689.655172413793,4,2,1,70,1,0
82240,-50,4,2,1,70,0,0
82498,-50,4,2,1,5,0,0
82584,-153.846153846153,4,2,1,70,0,0
82842,-153.846153846153,4,2,1,5,0,0
82929,659.340659340659,4,2,1,70,1,0
83176,-100,4,2,1,5,0,0
83258,-100,4,2,1,70,0,0
83505,-100,4,2,1,5,0,0
83588,731.707317073171,4,2,1,70,1,0
83588,-500,4,2,1,70,0,0
84319,764.331210191083,4,2,1,45,1,0
85083,722.89156626506,4,2,1,45,1,0
85083,-500,4,2,1,45,0,0
85805,681.818181818182,4,2,1,45,1,0
86486,716.417910447761,4,2,1,55,1,0
86486,-100,4,2,1,55,0,0
87112,-100,4,2,1,5,0,0
87202,-66.6666666666667,4,2,1,55,0,0
87471,-66.6666666666667,4,2,1,5,0,0
87560,-200,4,2,1,55,0,0
87829,-200,4,2,1,5,0,0
87918,695.652173913043,4,2,1,55,1,0
88613,722.89156626506,4,2,1,55,1,0
88613,-66.6666666666667,4,2,1,55,0,0
88884,-66.6666666666667,4,2,1,5,0,0
88974,-200,4,2,1,55,0,0
89245,-200,4,2,1,5,0,0
89248,-200,4,2,1,55,0,0
89335,695.652173913043,4,2,1,55,1,0
90030,-66.6666666666667,4,2,1,55,0,0
90291,-66.6666666666667,4,2,1,5,0,0
90378,-200,4,2,1,55,0,0
90639,-200,4,2,1,5,0,0
90726,716.417910447761,4,2,1,55,1,0
91442,-66.6666666666667,4,2,1,55,0,0
91711,-66.6666666666667,4,2,1,5,0,0
91800,-200,4,2,1,55,0,0
92068,-200,4,2,1,5,0,0
92150,679.886685552408,4,2,1,55,1,0
92837,705.882352941176,4,2,1,55,1,0
92837,-66.6666666666667,4,2,1,55,0,0
93101,-66.6666666666667,4,2,1,5,0,0
93189,-200,4,2,1,55,0,0
93455,-200,4,2,1,5,0,0
93542,689.655172413793,4,2,1,55,1,0
94231,714.285714285714,4,2,1,55,1,0
94231,-66.6666666666667,4,2,1,55,0,0
94498,-66.6666666666667,4,2,1,5,0,0
94588,-200,4,2,1,55,0,0
94856,-200,4,2,1,5,0,0
94945,695.652173913043,4,2,1,55,1,0
95640,-66.6666666666667,4,2,1,55,0,0
95901,-66.6666666666667,4,2,1,5,0,0
95988,-200,4,2,1,55,0,0
96249,-200,4,2,1,5,0,0
96336,674.157303370786,4,2,1,55,1,0
96504,-100,4,2,1,70,0,0
96673,612.244897959183,4,2,1,70,1,0
97010,722.89156626506,4,2,1,70,1,0
97010,-66.6666666666667,4,2,1,70,0,0
97642,-66.6666666666667,4,2,1,5,0,0
97732,677.966101694915,4,2,1,45,1,0
98409,710.059171597633,4,2,1,45,1,0
98409,-166.666666666667,4,2,1,45,0,0
98675,-100,4,2,1,5,0,0
98764,-111.111111111111,4,2,1,45,0,0
99030,-111.111111111111,4,2,1,5,0,0
99119,685.714285714285,4,2,1,45,1,0
99804,729.483282674772,4,2,1,45,1,0
99804,-166.666666666667,4,2,1,45,0,0
100168,-111.111111111111,4,2,1,45,0,0
100441,-111.111111111111,4,2,1,5,0,0
100533,697.674418604651,4,2,1,45,1,0
101230,-166.666666666667,4,2,1,45,0,0
101492,-100,4,2,1,5,0,0
101579,-111.111111111111,4,2,1,45,0,0
101838,-100,4,2,1,5,0,0
101928,714.285714285714,4,2,1,45,1,0
102642,-166.666666666667,4,2,1,45,0,0
102999,-100,4,2,1,45,0,0
103265,-100,4,2,1,5,0,0
103356,720.72072072072,4,2,1,45,1,0
104076,689.655172413793,4,2,1,45,1,0
104076,-166.666666666667,4,2,1,45,0,0
104334,-100,4,2,1,5,0,0
104420,-111.111111111111,4,2,1,45,0,0
104679,-100,4,2,1,5,0,0
104765,-111.111111111111,4,2,1,45,0,0
105455,701.754385964912,4,2,1,45,1,0
105455,-166.666666666667,4,2,1,45,0,0
105805,-100,4,2,1,45,0,0
106067,-100,4,2,1,5,0,0
106156,705.882352941176,4,2,1,45,1,0
106861,707.964601769911,4,2,1,45,1,0
106861,-166.666666666667,4,2,1,45,0,0
107126,-100,4,2,1,5,0,0
107214,-111.111111111111,4,2,1,45,0,0
107478,-100,4,2,1,5,0,0
107568,716.417910447761,4,2,1,45,1,0
108284,691.64265129683,4,2,1,45,1,0
108284,-166.666666666667,4,2,1,45,0,0
108629,-500,4,2,1,45,0,0
108888,-100,4,2,1,5,0,0
108975,693.64161849711,4,2,1,45,1,0
109148,-111.111111111111,4,2,1,45,0,0
109668,703.812316715542,4,2,1,45,1,0
109668,-166.666666666667,4,2,1,45,0,0
109931,-100,4,2,1,5,0,0
110019,-111.111111111111,4,2,1,45,0,0
110283,-100,4,2,1,5,0,0
110371,699.708454810495,4,2,1,45,1,0
111070,714.285714285714,4,2,1,45,1,0
111070,-166.666666666667,4,2,1,45,0,0
111427,-111.111111111111,4,2,1,45,0,0
111695,-100,4,2,1,5,0,0
111784,710.059171597633,4,2,1,45,1,0
112494,695.652173913043,4,2,1,45,1,0
112494,-166.666666666667,4,2,1,45,0,0
112754,-100,4,2,1,5,0,0
112841,-111.111111111111,4,2,1,45,0,0
113102,-100,4,2,1,5,0,0
113189,705.882352941176,4,2,1,45,1,0
113894,714.285714285714,4,2,1,45,1,0
113894,-166.666666666667,4,2,1,45,0,0
114251,-111.111111111111,4,2,1,45,0,0
114519,-100,4,2,1,5,0,0
114608,704.638872577804,4,2,1,45,1,0
115312,714.285714285714,4,2,1,45,1,0
115312,-166.666666666667,4,2,1,45,0,0
115579,-100,4,2,1,5,0,0
115669,-111.111111111111,4,2,1,45,0,0
115936,-111.111111111111,4,2,1,5,0,0
116026,681.818181818182,4,2,1,45,1,0
116707,729.483282674772,4,2,1,45,1,0
116707,-166.666666666667,4,2,1,45,0,0
117071,-111.111111111111,4,2,1,45,0,0
117345,-100,4,2,1,5,0,0
117436,703.812316715542,4,2,1,45,1,0
118139,716.417910447761,4,2,1,45,1,0
118139,-166.666666666667,4,2,1,45,0,0
118407,-100,4,2,1,5,0,0
118497,-111.111111111111,4,2,1,45,0,0
118765,-100,4,2,1,5,0,0
118855,691.64265129683,4,2,1,45,1,0
119546,670.391061452514,4,2,1,75,1,0
119546,-166.666666666667,4,2,1,75,0,0
119881,-250,4,2,1,75,0,0
120132,-100,4,2,1,5,0,0
120216,727.272727272727,4,2,1,75,1,0
120216,-66.6666666666667,4,2,1,75,0,0
120851,-100,4,2,1,5,0,0
120943,729.483282674772,4,2,1,75,1,0
120943,-50,4,2,1,75,0,0
121216,-100,4,2,1,5,0,0
121307,-200,4,2,1,75,0,0
121581,-100,4,2,1,5,0,0
121672,693.64161849711,4,2,1,75,1,0
121672,-66.6666666666667,4,2,1,75,0,0
122105,-100,4,2,1,5,0,0
122192,-66.6666666666667,4,2,1,75,0,0
122365,707.964601769911,4,2,1,75,1,0
122365,-50,4,2,1,75,0,0
122630,-100,4,2,1,5,0,0
122718,-200,4,2,1,75,0,0
122984,-100,4,2,1,5,0,0
123072,697.674418604651,4,2,1,75,1,0
123246,-66.6666666666667,4,2,1,75,0,0
123683,-100,4,2,1,5,0,0
123769,683.760683760683,4,2,1,75,1,0
123769,-50,4,2,1,75,0,0
124025,-100,4,2,1,5,0,0
124110,-200,4,2,1,75,0,0
124367,-100,4,2,1,5,0,0
124452,710.059171597633,4,2,1,75,1,0
124452,-66.6666666666667,4,2,1,75,0,0
124895,-100,4,2,1,5,0,0
124984,-66.6666666666667,4,2,1,75,0,0
125162,679.886685552408,4,2,1,75,1,0
125162,-50,4,2,1,75,0,0
125416,-100,4,2,1,5,0,0
125501,-200,4,2,1,75,0,0
125757,-100,4,2,1,5,0,0
125841,670.391061452514,4,2,1,75,1,0
126008,-66.6666666666667,4,2,1,75,0,0
126426,-100,4,2,1,5,0,0
126511,699.708454810495,4,2,1,75,1,0
126511,-50,4,2,1,75,0,0
126773,-100,4,2,1,5,0,0
126860,-200,4,2,1,75,0,0
127123,-100,4,2,1,5,0,0
127210,683.760683760683,4,2,1,75,1,0
127210,-66.6666666666667,4,2,1,75,0,0
127637,-100,4,2,1,5,0,0
127722,-66.6666666666667,4,2,1,75,0,0
127893,699.708454810495,4,2,1,75,1,0
127893,-50,4,2,1,75,0,0
128155,-100,4,2,1,5,0,0
128242,-200,4,2,1,75,0,0
128505,-100,4,2,1,5,0,0
128592,674.157303370786,4,2,1,75,1,0
128592,-66.6666666666667,4,2,1,75,0,0
129013,-100,4,2,1,5,0,0
129097,-66.6666666666667,4,2,1,75,0,0
129266,685.714285714285,4,2,1,75,1,0
129266,-50,4,2,1,75,0,0
129694,-100,4,2,1,5,0,0
129780,-50,4,2,1,75,0,0
129951,691.64265129683,4,2,1,75,1,0
129951,-50,4,2,1,75,0,0
130642,683.760683760684,4,2,1,75,1,0
130982,668.523676880223,4,2,1,75,1,0
130982,-66.6666666666667,4,2,1,75,0,0
131232,-100,4,2,1,5,0,0
131316,718.562874251497,4,2,1,75,1,0
131316,-133.333333333333,4,2,1,75,0,0
132034,672.268907563025,4,2,1,70,1,0
132286,-100,4,2,1,5,0,0
132370,-166.666666666667,4,2,1,70,0,0
132622,-100,4,2,1,5,0,0
132706,668.523676880223,4,2,1,70,1,0
133374,697.674418604651,4,2,1,70,1,0
133374,-66.6666666666667,4,2,1,70,0,0
133810,-100,4,2,1,5,0,0
133897,-129.87012987013,4,2,1,70,0,0
134071,641.711229946524,4,2,1,70,1,0
134151,-100,4,2,1,5,0,0
134231,-100,4,2,1,70,0,0
134629,-100,4,2,1,5,0,0
134712,662.983425414364,4,2,1,70,1,0
134712,-66.6666666666667,4,2,1,70,0,0
135374,697.674418604651,4,2,1,70,1,0
135374,-76.9230769230769,4,2,1,70,0,0
135984,-76.9230769230769,4,2,1,5,0,0
136071,661.157024793388,4,2,1,70,1,0
136071,-100,4,2,1,70,0,0
136401,-166.666666666667,4,2,1,70,0,0
136652,-100,4,2,1,5,0,0
136732,633.245382585752,4,2,1,70,1,0
137365,691.64265129683,4,2,1,70,1,0
137365,-66.6666666666667,4,2,1,70,0,0
137624,-100,4,2,1,5,0,0
137710,-66.6666666666667,4,2,1,70,0,0
137883,-131.578947368421,4,2,1,70,0,0
138056,650.40650406504,4,2,1,70,1,0
138137,-100,4,2,1,5,0,0
138218,-100,4,2,1,70,0,0
138706,661.157024793388,4,2,1,70,1,0
138706,-66.6666666666667,4,2,1,70,0,0
139367,687.679083094556,4,2,1,70,1,0
139968,-100,4,2,1,5,0,0
140054,661.157024793388,4,2,1,70,1,0
140632,-100,4,2,1,5,0,0
140715,641.711229946524,4,2,1,70,1,0
141116,-100,4,2,1,5,0,0
141196,-100,4,2,1,70,0,0
141356,662.983425414364,4,2,1,70,1,0
141356,-66.6666666666667,4,2,1,70,0,0
141604,-100,4,2,1,5,0,0
141687,-66.6666666666667,4,2,1,70,0,0
141853,-133.333333333333,4,2,1,70,0,0
142101,-100,4,2,1,5,0,0
142184,-133.333333333333,4,2,1,70,0,0
142681,687.679083094556,4,2,1,70,1,0
143368,677.966101694915,4,2,1,70,1,0
143368,-66.6666666666667,4,2,1,70,0,0
143961,-100,4,2,1,5,0,0
144045,714.285714285714,4,2,1,70,1,0
144045,-66.6666666666667,4,2,1,70,0,0
144312,-100,4,2,1,5,0,0
144402,588.235294117647,4,2,1,70,1,0
144622,-100,4,2,1,5,0,0
144697,685.714285714286,4,2,1,70,1,0
144954,-100,4,2,1,5,0,0
145039,-66.6666666666667,4,2,1,70,0,0
145294,-100,4,2,1,5,0,0
145382,701.754385964912,4,2,1,70,1,0
145382,-333.333333333333,4,2,1,70,0,0
145996,-100,4,2,1,5,0,0
146083,729.483282674772,4,2,1,70,1,0
146083,-133.333333333333,4,2,1,70,0,0
146812,-133.333333333333,4,2,1,5,0,0
148180,-133.333333333333,4,2,1,5,0,0
148271,687.679083094556,4,2,1,40,1,0
149302,699.708454810495,4,2,1,40,1,0
150701,769.230769230769,4,2,1,40,1,0
151085,693.64161849711,4,2,1,40,1,0
151778,733.94495412844,4,2,1,45,1,0
151778,-133.333333333333,4,2,1,45,0,0
152511,685.714285714286,4,2,1,55,1,0
152511,-133.333333333333,4,2,1,55,0,0
153196,716.417910447761,4,2,1,50,1,0
153196,-133.333333333333,4,2,1,50,0,0
153912,701.754385964912,4,2,1,45,1,0
153912,-250,4,2,1,45,0,0
154613,733.94495412844,4,2,1,45,1,0
154979,-125,4,2,1,45,0,0
155346,714.285714285713,4,2,1,45,1,0
155346,-250,4,2,1,45,0,0
155860,685.714285714286,4,2,1,45,1,0
155860,-250,4,2,1,45,0,0
156717,712.166172106825,4,2,1,45,1,0
156717,-166.666666666667,4,2,1,45,0,0
157429,720.720720720721,4,2,1,45,1,0
157789,-125,4,2,1,45,0,0
158149,710.059171597633,4,2,1,45,1,0
158149,-250,4,2,1,45,0,0
159214,-125,4,2,1,45,0,0
159569,693.64161849711,4,2,1,45,1,0
159569,-250,4,2,1,45,0,0
160262,697.674418604651,4,2,1,45,1,0
160610,-125,4,2,1,45,0,0
160959,703.812316715542,4,2,1,45,1,0
160959,-250,4,2,1,45,0,0
161486,704.225352112676,4,2,1,45,1,0
161486,-250,4,2,1,45,0,0
162367,714.285714285714,4,2,1,45,1,0
162367,-250,4,2,1,45,0,0
163438,-125,4,2,1,45,0,0
163795,693.64161849711,4,2,1,50,1,0
164026,839.160839160839,4,2,1,50,1,0
164305,677.966101694915,4,2,1,50,1,0
164531,816.326530612245,4,2,1,50,1,0
164803,774.193548387097,4,2,1,50,1,0
165061,621.761658031088,4,2,1,50,1,0
165267,722.89156626506,4,2,1,60,1,0
165447,-133.333333333333,4,2,1,60,0,0
165989,705.882352941176,4,2,1,60,1,0
166341,-66.6666666666667,4,2,1,60,0,0
166694,703.812316715542,4,2,1,60,1,0
166694,-133.333333333333,4,2,1,60,0,0
167397,683.760683760684,4,2,1,60,1,0
168080,729.483282674772,4,2,1,60,1,0
168262,-133.333333333333,4,2,1,60,0,0
168809,697.674418604651,4,2,1,60,1,0
169157,-66.6666666666667,4,2,1,60,0,0
169506,701.754385964912,4,2,1,60,1,0
169681,-133.333333333333,4,2,1,60,0,0
170207,687.679083094556,4,2,1,60,1,0
170894,703.812316715542,4,2,1,60,1,0
171069,-133.333333333333,4,2,1,60,0,0
171597,691.64265129683,4,2,1,60,1,0
171942,-66.6666666666667,4,2,1,60,0,0
172288,683.760683760684,4,2,1,60,1,0
172288,-133.333333333333,4,2,1,60,0,0
172971,710.059171597633,4,2,1,60,1,0
173681,701.754385964912,4,2,1,60,1,0
173681,-66.6666666666667,4,2,1,60,0,0
175084,679.886685552408,4,2,1,60,1,0
175763,699.708454810495,4,2,1,60,1,0
176462,697.674418604651,4,2,1,75,1,0
176462,-50,4,2,1,75,0,0
176549,-50,4,2,1,5,0,0
176636,-50,4,2,1,75,0,0
176723,-50,4,2,1,5,0,0
176810,-50,4,2,1,75,0,0
176898,-50,4,2,1,5,0,0
176985,-50,4,2,1,75,0,0
177069,-50,4,2,1,75,0,0
177072,-50,4,2,1,5,0,0
177159,714.285714285714,4,2,1,75,1,0
177159,-50,4,2,1,75,0,0
177248,-50,4,2,1,5,0,0
177337,-50,4,2,1,75,0,0
177426,-50,4,2,1,5,0,0
177516,-50,4,2,1,75,0,0
177605,-50,4,2,1,5,0,0
177694,-50,4,2,1,75,0,0
177783,-50,4,2,1,5,0,0
177873,685.714285714286,4,2,1,75,1,0
177873,-50,4,2,1,75,0,0
177958,-50,4,2,1,5,0,0
178044,-50,4,2,1,75,0,0
178130,-50,4,2,1,5,0,0
178215,-50,4,2,1,75,0,0
178301,-50,4,2,1,5,0,0
178387,-50,4,2,1,75,0,0
178470,-50,4,2,1,5,0,0
178558,703.812316715542,4,2,1,75,1,0
178558,-50,4,2,1,75,0,0
178645,-50,4,2,1,5,0,0
178733,-50,4,2,1,75,0,0
178821,-50,4,2,1,5,0,0
178909,-50,4,2,1,75,0,0
178997,-50,4,2,1,5,0,0
179085,-50,4,2,1,75,0,0
179173,-50,4,2,1,5,0,0
179261,697.674418604651,4,2,1,75,1,0
179261,-50,4,2,1,75,0,0
179348,-50,4,2,1,5,0,0
179435,-50,4,2,1,75,0,0
179522,-50,4,2,1,5,0,0
179609,-50,4,2,1,75,0,0
179697,-50,4,2,1,5,0,0
179784,-50,4,2,1,75,0,0
179870,-50,4,2,1,5,0,0
179958,703.812316715542,4,2,1,75,1,0
179958,-50,4,2,1,75,0,0
180045,-50,4,2,1,5,0,0
180133,-50,4,2,1,75,0,0
180221,-50,4,2,1,5,0,0
180309,-50,4,2,1,75,0,0
180397,-50,4,2,1,5,0,0
180485,-50,4,2,1,75,0,0
180572,-50,4,2,1,5,0,0
180661,683.760683760684,4,2,1,75,1,0
180661,-50,4,2,1,75,0,0
180746,-50,4,2,1,5,0,0
180831,-50,4,2,1,75,0,0
180917,-50,4,2,1,5,0,0
181002,-50,4,2,1,75,0,0
181088,-50,4,2,1,5,0,0
181173,-50,4,2,1,75,0,0
181256,-50,4,2,1,5,0,0
181344,701.754385964912,4,2,1,75,1,0
181344,-50,4,2,1,75,0,0
181431,-50,4,2,1,5,0,0
181519,-50,4,2,1,75,0,0
181607,-50,4,2,1,5,0,0
181694,-50,4,2,1,75,0,0
181782,-50,4,2,1,5,0,0
181870,-50,4,2,1,75,0,0
181958,-50,4,2,1,5,0,0
182045,725.075528700906,4,2,1,75,1,0
182588,-100,4,2,1,60,0,0
182770,695.652173913043,4,2,1,60,1,0
183117,-333.333333333333,4,2,1,60,0,0
183465,699.708454810495,4,2,1,60,1,0
184164,695.652173913043,4,2,1,60,1,0
184859,693.64161849711,4,2,1,60,1,0
184859,-66.6666666666667,4,2,1,60,0,0
184945,-100,4,2,1,5,0,0
185032,-66.6666666666667,4,2,1,60,0,0
185292,-100,4,2,1,5,0,0
185379,-66.6666666666667,4,2,1,60,0,0
185465,-100,4,2,1,5,0,0
185552,703.812316715542,4,2,1,60,1,0
185552,-66.6666666666667,4,2,1,60,0,0
185815,-100,4,2,1,5,0,0
185903,-66.6666666666667,4,2,1,60,0,0
185991,-100,4,2,1,5,0,0
186079,-66.6666666666667,4,2,1,60,0,0
186167,-100,4,2,1,5,0,0
186255,689.655172413793,4,2,1,60,1,0
186255,-66.6666666666667,4,2,1,60,0,0
186341,-100,4,2,1,5,0,0
186427,-66.6666666666667,4,2,1,60,0,0
186686,-100,4,2,1,5,0,0
186772,-66.6666666666667,4,2,1,60,0,0
186858,-100,4,2,1,5,0,0
186944,677.966101694915,4,2,1,60,1,0
187621,703.812316715542,4,2,1,75,1,0
187621,-40,4,2,1,75,0,0
187708,-40,4,2,1,5,0,0
187796,-40,4,2,1,75,0,0
187884,-40,4,2,1,5,0,0
187972,-40,4,2,1,75,0,0
188060,-40,4,2,1,5,0,0
188148,-40,4,2,1,75,0,0
188236,-40,4,2,1,5,0,0
188324,693.64161849711,4,2,1,75,1,0
188324,-40,4,2,1,75,0,0
188410,-40,4,2,1,5,0,0
188497,-40,4,2,1,75,0,0
188584,-40,4,2,1,5,0,0
188670,-40,4,2,1,75,0,0
188757,-40,4,2,1,5,0,0
188844,-40,4,2,1,75,0,0
188930,-40,4,2,1,5,0,0
189023,687.679083094556,4,2,1,75,1,0
189023,-40,4,2,1,75,0,0
189108,-40,4,2,1,5,0,0
189194,-40,4,2,1,75,0,0
189280,-40,4,2,1,5,0,0
189366,-40,4,2,1,75,0,0
189452,-40,4,2,1,5,0,0
189538,-40,4,2,1,75,0,0
189624,-40,4,2,1,5,0,0
189704,701.754385964912,4,2,1,75,1,0
189704,-40,4,2,1,75,0,0
189791,-40,4,2,1,5,0,0
189879,-40,4,2,1,75,0,0
189967,-40,4,2,1,5,0,0
190054,-40,4,2,1,75,0,0
190142,-40,4,2,1,5,0,0
190230,-40,4,2,1,75,0,0
190318,-40,4,2,1,5,0,0
190405,685.714285714286,4,2,1,75,1,0
190405,-40,4,2,1,75,0,0
190490,-40,4,2,1,5,0,0
190576,-40,4,2,1,75,0,0
190662,-40,4,2,1,5,0,0
190747,-40,4,2,1,75,0,0
190833,-40,4,2,1,5,0,0
190919,-40,4,2,1,75,0,0
191005,-40,4,2,1,5,0,0
191090,-40,4,2,1,75,0,0
191176,-40,4,2,1,5,0,0
191262,-40,4,2,1,75,0,0
191347,-40,4,2,1,5,0,0
191433,-40,4,2,1,75,0,0
191519,-40,4,2,1,5,0,0
191605,-40,4,2,1,75,0,0
191690,-40,4,2,1,5,0,0
191775,712.166172106825,4,2,1,75,1,0
191775,-40,4,2,1,75,0,0
191864,-40,4,2,1,5,0,0
191953,-40,4,2,1,75,0,0
192042,-40,4,2,1,5,0,0
192131,-40,4,2,1,75,0,0
192220,-40,4,2,1,5,0,0
192309,-40,4,2,1,75,0,0
192398,-40,4,2,1,5,0,0
192487,683.760683760684,4,2,1,75,1,0
192487,-40,4,2,1,75,0,0
192572,-40,4,2,1,5,0,0
192657,-40,4,2,1,75,0,0
192743,-40,4,2,1,5,0,0
192828,-40,4,2,1,75,0,0
192914,-40,4,2,1,5,0,0
192999,-40,4,2,1,75,0,0
193085,-40,4,2,1,5,0,0
193170,718.562874251497,4,2,1,65,1,0
193170,-66.6666666666667,4,2,1,65,0,0
193619,-100,4,2,1,5,0,0
193708,-65.5737704918033,4,2,1,65,0,0
193888,697.674418604651,4,2,1,65,1,0
194149,-100,4,2,1,5,0,0
194236,-250,4,2,1,65,0,0
194585,683.760683760684,4,2,1,65,1,0
194755,-133.333333333333,4,2,1,65,0,0
195268,697.674418604651,4,2,1,65,1,0
195965,707.964601769911,4,2,1,65,1,0
196053,-100,4,2,1,5,0,0
196141,-100,4,2,1,65,0,0
196407,-100,4,2,1,5,0,0
196495,-100,4,2,1,65,0,0
196584,-100,4,2,1,5,0,0
196672,685.714285714286,4,2,1,65,1,0
196929,-100,4,2,1,5,0,0
197014,-100,4,2,1,65,0,0
197100,-100,4,2,1,5,0,0
197186,-100,4,2,1,65,0,0
197357,693.64161849711,4,2,1,65,1,0
197443,-100,4,2,1,5,0,0
197530,-100,4,2,1,65,0,0
197617,-100,4,2,1,5,0,0
197703,-100,4,2,1,65,0,0
197963,-100,4,2,1,5,0,0
198050,676.056338028169,4,2,1,65,1,0
198303,-100,4,2,1,5,0,0
198388,-100,4,2,1,65,0,0
198472,-100,4,2,1,5,0,0
198557,-100,4,2,1,65,0,0
198641,-100,4,2,1,5,0,0
198726,712.166172106825,4,2,1,75,1,0
198726,-36.3636363636364,4,2,1,75,0,0
198815,-36.3636363636364,4,2,1,5,0,0
198904,-36.3636363636364,4,2,1,75,0,0
198993,-36.3636363636364,4,2,1,5,0,0
199082,-36.3636363636364,4,2,1,75,0,0
199171,-36.3636363636364,4,2,1,5,0,0
199260,-36.3636363636364,4,2,1,75,0,0
199349,-36.3636363636364,4,2,1,5,0,0
199438,701.754385964912,4,2,1,75,1,0
199438,-36.3636363636364,4,2,1,75,0,0
199525,-36.3636363636364,4,2,1,5,0,0
199613,-36.3636363636364,4,2,1,75,0,0
199701,-36.3636363636364,4,2,1,5,0,0
199788,-36.3636363636364,4,2,1,75,0,0
199876,-36.3636363636364,4,2,1,5,0,0
199964,-36.3636363636364,4,2,1,75,0,0
200052,-36.3636363636364,4,2,1,5,0,0
200139,687.679083094556,4,2,1,75,1,0
200139,-36.3636363636364,4,2,1,75,0,0
200224,-36.3636363636364,4,2,1,5,0,0
200310,-36.3636363636364,4,2,1,75,0,0
200396,-36.3636363636364,4,2,1,5,0,0
200482,-36.3636363636364,4,2,1,75,0,0
200568,-36.3636363636364,4,2,1,5,0,0
200654,-36.3636363636364,4,2,1,75,0,0
200740,-36.3636363636364,4,2,1,5,0,0
200826,-36.3636363636364,4,2,1,75,0,0
200912,-36.3636363636364,4,2,1,5,0,0
200998,-36.3636363636364,4,2,1,75,0,0
201084,-36.3636363636364,4,2,1,5,0,0
201170,-36.3636363636364,4,2,1,75,0,0
201256,-36.3636363636364,4,2,1,5,0,0
201342,-36.3636363636364,4,2,1,75,0,0
201428,-36.3636363636364,4,2,1,5,0,0
201514,697.674418604651,4,2,1,75,1,0
201514,-36.3636363636364,4,2,1,75,0,0
201601,-36.3636363636364,4,2,1,5,0,0
201688,-36.3636363636364,4,2,1,75,0,0
201775,-36.3636363636364,4,2,1,5,0,0
201862,-36.3636363636364,4,2,1,75,0,0
201950,-36.3636363636364,4,2,1,5,0,0
202037,-36.3636363636364,4,2,1,75,0,0
202124,-36.3636363636364,4,2,1,5,0,0
202211,691.64265129683,4,2,1,75,1,0
202211,-36.3636363636364,4,2,1,75,0,0
202297,-36.3636363636364,4,2,1,5,0,0
202383,-36.3636363636364,4,2,1,75,0,0
202470,-36.3636363636364,4,2,1,5,0,0
202556,-36.3636363636364,4,2,1,75,0,0
202643,-36.3636363636364,4,2,1,5,0,0
202729,-36.3636363636364,4,2,1,75,0,0
202816,-36.3636363636364,4,2,1,5,0,0
202902,701.754385964912,4,2,1,75,1,0
202902,-36.3636363636364,4,2,1,75,0,0
202989,-36.3636363636364,4,2,1,5,0,0
203077,-36.3636363636364,4,2,1,75,0,0
203165,-36.3636363636364,4,2,1,5,0,0
203252,-36.3636363636364,4,2,1,75,0,0
203340,-36.3636363636364,4,2,1,5,0,0
203428,-36.3636363636364,4,2,1,75,0,0
203516,-36.3636363636364,4,2,1,5,0,0
203603,714.285714285714,4,2,1,75,1,0
203603,-36.3636363636364,4,2,1,75,0,0
203692,-36.3636363636364,4,2,1,5,0,0
203781,-36.3636363636364,4,2,1,75,0,0
203870,-36.3636363636364,4,2,1,5,0,0
203960,-36.3636363636364,4,2,1,75,0,0
204049,-36.3636363636364,4,2,1,5,0,0
204138,-36.3636363636364,4,2,1,75,0,0
204228,-36.3636363636364,4,2,1,5,0,0
204317,705.882352941176,4,2,1,60,1,0
205022,699.708454810495,4,2,1,65,1,0
205721,679.886685552408,4,2,1,70,1,0
206400,689.655172413793,4,2,1,75,1,0
207089,677.966101694915,4,2,1,80,1,0
207766,657.534246575342,4,2,1,80,1,0
208423,687.679083094556,4,2,1,85,1,0
209110,699.708454810495,4,2,1,90,1,0
209809,786.885245901639,4,2,1,90,1,0
209809,-40,4,2,1,90,0,0
210497,-36.3636363636364,4,2,1,5,0,0
210595,687.679083094556,4,2,1,80,1,0
210595,-66.6666666666667,4,2,1,80,0,0
210852,-36.3636363636364,4,2,1,5,0,0
210938,-200,4,2,1,70,0,0
211195,-36.3636363636364,4,2,1,5,0,0
211282,691.64265129683,4,2,1,70,1,0
211973,693.64161849711,4,2,1,70,1,0
211973,-66.6666666666667,4,2,1,70,0,0
212233,-36.3636363636364,4,2,1,5,0,0
212319,-200,4,2,1,70,0,0
212579,-36.3636363636364,4,2,1,5,0,0
212666,683.760683760684,4,2,1,70,1,0
213349,710.059171597633,4,2,1,70,1,0
213349,-50,4,2,1,70,0,0
213615,-36.3636363636364,4,2,1,5,0,0
213704,-200,4,2,1,70,0,0
213970,-36.3636363636364,4,2,1,5,0,0
214059,672.268907563025,4,2,1,70,1,0
214731,685.714285714286,4,2,1,70,1,0
214731,-66.6666666666667,4,2,1,70,0,0
214988,-36.3636363636364,4,2,1,5,0,0
215073,-200,4,2,1,70,0,0
215331,-36.3636363636364,4,2,1,5,0,0
215416,683.760683760684,4,2,1,70,1,0
216099,677.966101694915,4,2,1,70,1,0
216099,-66.6666666666667,4,2,1,70,0,0
216353,-36.3636363636364,4,2,1,5,0,0
216437,-200,4,2,1,70,0,0
216692,-36.3636363636364,4,2,1,5,0,0
216776,685.714285714286,4,2,1,70,1,0
217461,693.64161849711,4,2,1,70,1,0
217461,-66.6666666666667,4,2,1,70,0,0
217721,-36.3636363636364,4,2,1,5,0,0
217807,-200,4,2,1,70,0,0
218067,-36.3636363636364,4,2,1,5,0,0
218154,664.819944598338,4,2,1,70,1,0
218818,701.754385964912,4,2,1,70,1,0
218818,-66.6666666666667,4,2,1,70,0,0
219081,-36.3636363636364,4,2,1,5,0,0
219168,-200,4,2,1,70,0,0
219432,-36.3636363636364,4,2,1,5,0,0
219519,662.983425414364,4,2,1,70,1,0
219519,-66.6666666666667,4,2,1,70,0,0
220181,676.056338028169,4,2,1,70,1,0
220181,-40,4,2,1,70,0,0
220434,-36.3636363636364,4,2,1,5,0,0
220519,-50,4,2,1,70,0,0
220772,-36.3636363636364,4,2,1,5,0,0
220857,725.075528700906,4,2,1,70,1,0
220857,-166.666666666667,4,2,1,70,0,0
221582,685.714285714285,4,2,1,70,1,0
221582,-66.6666666666667,4,2,1,70,0,0
221839,-36.3636363636364,4,2,1,5,0,0
221924,-200,4,2,1,70,0,0
222182,-36.3636363636364,4,2,1,5,0,0
222267,683.760683760683,4,2,1,70,1,0
222950,687.679083094556,4,2,1,70,1,0
222950,-66.6666666666667,4,2,1,70,0,0
223207,-36.3636363636364,4,2,1,5,0,0
223293,-200,4,2,1,70,0,0
223551,-36.3636363636364,4,2,1,5,0,0
223637,668.523676880223,4,2,1,70,1,0
224305,701.754385964912,4,2,1,70,1,0
224305,-66.6666666666667,4,2,1,70,0,0
224568,-36.3636363636364,4,2,1,5,0,0
224655,-200,4,2,1,70,0,0
224919,-36.3636363636364,4,2,1,5,0,0
225006,800,4,2,1,70,1,0
225206,645.161290322581,4,2,1,70,1,0
225665,687.679083094556,4,2,1,70,1,0
225665,-66.6666666666667,4,2,1,70,0,0
225922,-36.3636363636364,4,2,1,5,0,0
226008,-200,4,2,1,70,0,0
226265,-36.3636363636364,4,2,1,5,0,0
226352,693.64161849711,4,2,1,70,1,0
227045,699.708454810495,4,2,1,70,1,0
227045,-66.6666666666667,4,2,1,70,0,0
227307,-36.3636363636364,4,2,1,5,0,0
227394,-200,4,2,1,70,0,0
227657,-36.3636363636364,4,2,1,5,0,0
227744,670.391061452514,4,2,1,70,1,0
228414,685.714285714285,4,2,1,70,1,0
228414,-66.6666666666667,4,2,1,70,0,0
228671,-36.3636363636364,4,2,1,5,0,0
228756,-200,4,2,1,70,0,0
229014,-36.3636363636364,4,2,1,5,0,0
229099,674.157303370786,4,2,1,70,1,0
229773,668.523676880223,4,2,1,70,1,0
229773,-66.6666666666667,4,2,1,70,0,0
230023,-36.3636363636364,4,2,1,5,0,0
230107,-200,4,2,1,70,0,0
230357,-200,4,2,1,5,0,0
230441,634.920634920635,4,2,1,70,1,0
230652,-100,4,2,1,80,0,0
231075,659.340659340659,4,2,1,80,1,0
231734,670.391061452514,4,2,1,80,1,0
232404,695.652173913043,4,2,1,70,1,0
232490,-36.3636363636364,4,2,1,5,0,0
232751,-66.6666666666667,4,2,1,70,0,0
233099,629.921259842519,4,2,1,70,1,0
233256,-133.333333333333,4,2,1,70,0,0
233728,662.983425414364,4,2,1,70,1,0
233728,-66.6666666666667,4,2,1,70,0,0
233976,-36.3636363636364,4,2,1,5,0,0
234059,-66.6666666666667,4,2,1,70,0,0
234390,685.714285714285,4,2,1,70,1,0
234390,-153.846153846153,4,2,1,70,0,0
234647,-36.3636363636364,4,2,1,5,0,0
234732,-153.846153846153,4,2,1,70,0,0
234904,-54.6448087431694,4,2,1,70,0,0
235075,661.157024793388,4,2,1,70,1,0
235157,-36.3636363636364,4,2,1,5,0,0
235240,-100,4,2,1,70,0,0
235405,-41.6666666666667,4,2,1,70,0,0
235653,-36.3636363636364,4,2,1,5,0,0
235736,659.340659340659,4,2,1,70,1,0
235900,-66.6666666666667,4,2,1,70,0,0
236148,-36.3636363636364,4,2,1,5,0,0
236230,-66.6666666666667,4,2,1,70,0,0
236395,670.391061452514,4,2,1,70,1,0
236395,-37.037037037037,4,2,1,70,0,0
236646,-36.3636363636364,4,2,1,5,0,0
236730,-37.037037037037,4,2,1,70,0,0
237065,676.056338028169,4,2,1,70,1,0
237065,-153.846153846153,4,2,1,70,0,0
237487,-36.3636363636364,4,2,1,5,0,0
237572,-153.846153846153,4,2,1,70,0,0
237741,677.966101694915,4,2,1,70,1,0
237741,-58.8235294117647,4,2,1,70,0,0
237995,-36.3636363636364,4,2,1,5,0,0
238079,-152.671755725191,4,2,1,70,0,0
238418,659.340659340659,4,2,1,70,1,0
238500,-36.3636363636364,4,2,1,5,0,0
238582,-200,4,2,1,70,0,0
239077,664.819944598338,4,2,1,70,1,0
239077,-40,4,2,1,70,0,0
239326,-36.3636363636364,4,2,1,5,0,0
239409,-40,4,2,1,70,0,0
239741,400,4,2,1,70,1,0
239741,-66.6666666666667,4,2,1,70,0,0
239891,-36.3636363636364,4,2,1,5,0,0
239941,458.015267175573,4,2,1,75,1,0
240228,535.714285714286,4,2,1,75,1,0
240228,-58.8235294117647,4,2,1,75,0,0
240428,-36.3636363636364,4,2,1,5,0,0
240495,444.444444444444,4,2,1,75,1,0
240715,504.201680672269,4,2,1,75,1,0
240715,-52.6315789473684,4,2,1,75,0,0
240904,-36.3636363636364,4,2,1,5,0,0
240967,504.201680672269,4,2,1,75,1,0
241187,582.52427184466,4,2,1,75,1,0
241187,-34.4827586206897,4,2,1,75,0,0
241405,-36.3636363636364,4,2,1,5,0,0
241478,-34.4827586206897,4,2,1,75,0,0
241641,670.391061452514,4,2,1,75,1,0
241641,-166.666666666667,4,2,1,75,0,0
241892,-36.3636363636364,4,2,1,5,0,0
241976,-166.666666666667,4,2,1,75,0,0
242311,677.966101694915,4,2,1,75,1,0
242649,-100,4,2,1,70,0,0
242906,-36.3636363636364,4,2,1,5,0,0
242988,650.40650406504,4,2,1,70,1,0
243313,-166.666666666667,4,2,1,70,0,0
243557,-36.3636363636364,4,2,1,5,0,0
243638,676.056338028169,4,2,1,70,1,0
243807,-200,4,2,1,70,0,0
244314,661.157024793388,4,2,1,70,1,0
244314,-1000,4,2,1,70,0,0
244561,-36.3636363636364,4,2,1,5,0,0
244644,-1000,4,2,1,70,0,0
244975,718.562874251497,4,2,1,70,1,0
244975,-133.333333333333,4,2,1,70,0,0
245693,-133.333333333333,4,2,1,5,0,0
246412,689.655172413793,4,2,1,45,1,0
246412,-166.666666666667,4,2,1,45,0,0
247101,535.714285714286,4,2,1,45,1,0
247636,521.739130434783,4,2,1,45,1,0
248157,508.474576271186,4,2,1,45,1,0
248665,705.882352941176,4,2,1,45,1,0
248841,-100,4,2,1,55,0,0
249194,701.754385964912,4,2,1,55,1,0
249194,-133.333333333333,4,2,1,55,0,0
249895,705.882352941176,4,2,1,55,1,0
250247,677.966101694915,4,2,1,55,1,0
250247,-133.333333333333,4,2,1,55,0,0
250924,714.285714285714,4,2,1,55,1,0
250924,-133.333333333333,4,2,1,55,0,0
251191,-36.3636363636364,4,2,1,5,0,0
251281,714.285714285714,4,2,1,55,1,0
251281,-200,4,2,1,55,0,0
251995,729.483282674772,4,2,1,55,1,0
251995,-105.263157894737,4,2,1,55,0,0
252633,-36.3636363636364,4,2,1,5,0,0
252724,638.297872340425,4,2,1,55,1,0
252724,-200,4,2,1,55,0,0
253362,685.714285714285,4,2,1,55,1,0
253362,-133.333333333333,4,2,1,55,0,0
253619,-36.3636363636364,4,2,1,5,0,0
253704,-133.333333333333,4,2,1,55,0,0
253962,-36.3636363636364,4,2,1,5,0,0
254047,701.754385964912,4,2,1,55,1,0
254748,681.818181818182,4,2,1,55,1,0
254748,-181.818181818181,4,2,1,55,0,0
255003,-36.3636363636364,4,2,1,5,0,0
255088,-222.222222222221,4,2,1,55,0,0
255344,-36.3636363636364,4,2,1,5,0,0
255429,703.812316715542,4,2,1,55,1,0
256132,689.655172413793,4,2,1,55,1,0
256132,-250,4,2,1,55,0,0
256821,666.666666666666,4,2,1,55,1,0
257400,-36.3636363636364,4,2,1,55,0,0
257404,-36.3636363636364,4,2,1,5,0,0
257487,689.655172413793,4,2,1,85,1,0
257831,-100,4,2,1,80,0,0
258176,685.714285714285,4,2,1,75,1,0
258518,-100,4,2,1,70,0,0
258861,725.075528700906,4,2,1,90,1,0
258861,-33.3333333333333,4,2,1,90,0,0
259586,695.652173913043,4,2,1,85,1,0
259586,-25,4,2,1,85,0,0
260281,727.272727272727,4,2,1,85,1,0
260281,-25,4,2,1,85,0,0
261008,677.966101694915,4,2,1,85,1,0
261685,707.964601769911,4,2,1,85,1,0
261685,-25,4,2,1,85,0,0
262306,-36.3636363636364,4,2,1,5,0,0
262392,681.818181818182,4,2,1,85,1,0
263073,666.666666666667,4,2,1,85,1,0
263073,-25,4,2,1,85,0,0
263573,689.655172413793,4,2,1,85,1,0
263573,-25,4,2,1,85,0,0
264090,659.340659340659,4,2,1,85,1,0
264090,-66.6666666666667,4,2,1,85,0,0
264584,689.655172413793,4,2,1,85,1,0
264584,-76.9230769230769,4,2,1,85,0,0
265101,695.652173913043,4,2,1,85,1,0
265101,-100,4,2,1,85,0,0
265796,699.708454810495,4,2,1,85,1,0
265796,-18,4,2,1,85,0,0
266495,683.760683760684,4,2,1,85,1,0
267178,707.964601769911,4,2,1,85,1,0
267178,-18,4,2,1,85,0,0
267885,693.64161849711,4,2,1,85,1,0
268578,-16.3043478260869,4,2,1,85,0,0
269272,681.818181818182,4,2,1,85,1,0
269953,689.655172413793,4,2,1,85,1,0
269953,-17.7514792899408,4,2,1,85,0,0
270470,689.655172413793,4,2,1,85,1,0
270470,-16.5745856353591,4,2,1,85,0,0
270987,666.666666666667,4,2,1,85,1,0
270987,-222.222222222221,4,2,1,85,0,0
271235,-36.3636363636364,4,2,1,5,0,0
271320,631.578947368421,4,2,1,85,1,0
271320,-80,4,2,1,85,0,0
271719,512.820512820513,4,2,1,85,1,0
271975,517.241379310345,4,2,1,85,1,0
271975,-80,4,2,1,85,0,0
272168,483.870967741935,4,2,1,85,1,0
272651,668.523676880223,4,2,1,85,1,0
272651,-40,4,2,1,85,0,0
273233,-36.3636363636364,4,2,1,5,0,0
273319,687.679083094556,4,2,1,75,1,0
273319,-50,4,2,1,75,0,0
273576,-36.3636363636364,4,2,1,5,0,0
273662,-100,4,2,1,75,0,0
274006,691.64265129683,4,2,1,75,1,0
274092,-36.3636363636364,4,2,1,5,0,0
274178,-66.6666666666667,4,2,1,75,0,0
274438,-36.3636363636364,4,2,1,5,0,0
274524,-66.6666666666667,4,2,1,75,0,0
274697,683.760683760684,4,2,1,75,1,0
274697,-50,4,2,1,75,0,0
275124,-36.3636363636364,4,2,1,5,0,0
275209,-133.333333333333,4,2,1,75,0,0
275380,626.631853785901,4,2,1,75,1,0
275693,-45.4545454545455,4,2,1,75,0,0
275928,-36.3636363636364,4,2,1,5,0,0
276006,666.666666666667,4,2,1,75,1,0
276670,661.157024793388,4,2,1,75,1,0
277331,693.64161849711,4,2,1,75,1,0
277331,-33.3333333333333,4,2,1,75,0,0
277677,-133.333333333333,4,2,1,75,0,0
278024,643.43163538874,4,2,1,75,1,0
278426,-36.3636363636364,4,2,1,5,0,0
278506,-100,4,2,1,75,0,0
278667,672.268907563025,4,2,1,75,1,0
278667,-41.6666666666667,4,2,1,75,0,0
278919,-36.3636363636364,4,2,1,5,0,0
279003,-41.6666666666667,4,2,1,75,0,0
279171,-163.934426229508,4,2,1,75,0,0
279339,641.711229946524,4,2,1,75,1,0
279419,-36.3636363636364,4,2,1,5,0,0
279499,-100,4,2,1,75,0,0
279980,661.157024793388,4,2,1,75,1,0
280641,662.983425414365,4,2,1,75,1,0
281221,-36.3636363636364,4,2,1,5,0,0
281303,691.64265129683,4,2,1,75,1,0
281303,-33.3333333333333,4,2,1,75,0,0
281562,-36.3636363636364,4,2,1,5,0,0
281648,-500,4,2,1,75,0,0
281994,623.376623376623,4,2,1,75,1,0
282149,-333.333333333333,4,2,1,75,0,0
282383,-36.3636363636364,4,2,1,5,0,0
282461,-333.333333333333,4,2,1,75,0,0
282617,693.64161849711,4,2,1,75,1,0
282617,-50,4,2,1,75,0,0
282877,-36.3636363636364,4,2,1,5,0,0
282963,-50,4,2,1,75,0,0
283137,-47.9616306954436,4,2,1,75,0,0
283310,634.920634920635,4,2,1,75,1,0
283944,648.648648648649,4,2,1,75,1,0
284592,701.754385964912,4,2,1,75,1,0
285293,662.983425414365,4,2,1,75,1,0
285293,-50,4,2,1,75,0,0
285541,-36.3636363636364,4,2,1,5,0,0
285624,-200,4,2,1,75,0,0
285869,-36.3636363636364,4,2,1,75,0,0
285872,-36.3636363636364,4,2,1,5,0,0
285955,683.760683760684,4,2,1,75,1,0
286638,727.272727272727,4,2,1,75,1,0
286638,-83.3333333333333,4,2,1,75,0,0
287274,-36.3636363636364,4,2,1,5,0,0
287365,691.64265129683,4,2,1,60,1,0
287365,-117.647058823529,4,2,1,60,0,0
288056,-117.647058823529,4,2,1,5,0,0
289439,552.995391705069,4,2,1,40,1,0
289991,681.818181818182,4,2,1,40,1,0
289991,-500,4,2,1,40,0,0
290672,693.64161849711,4,2,1,40,1,0
291018,666.666666666667,4,2,1,40,1,0
291684,681.818181818182,4,2,1,40,1,0
291854,-250,4,2,1,40,0,0
292024,422.535211267605,4,2,1,40,1,0
292235,530.973451327434,4,2,1,40,1,0
292235,-500,4,2,1,40,0,0
292765,508.474576271186,4,2,1,40,1,0
293273,517.241379310345,4,2,1,40,1,0
293790,532.150776053215,4,2,1,40,1,0
294322,512.820512820513,4,2,1,40,1,0
294663,-333.333333333333,4,2,1,40,0,0
294834,408.163265306122,4,2,1,40,1,0
295038,500,4,2,1,40,1,0
295038,-500,4,2,1,40,0,0
295538,535.714285714286,4,2,1,40,1,0
296073,517.241379310345,4,2,1,40,1,0
296590,526.315789473684,4,2,1,40,1,0
297116,510.63829787234,4,2,1,40,1,0
297456,-333.333333333333,4,2,1,40,0,0
297626,372.670807453416,4,2,1,40,1,0
297812,542.986425339366,4,2,1,40,1,0
298354,532.150776053215,4,2,1,40,1,0
298886,525.164113785558,4,2,1,40,1,0
299411,532.150776053215,4,2,1,40,1,0
299943,504.201680672269,4,2,1,40,1,0
300447,384.615384615385,4,2,1,40,1,0
300639,538.116591928251,4,2,1,40,1,0
300639,-500,4,2,1,40,0,0
301177,524.017467248908,4,2,1,40,1,0
301701,571.428571428571,4,2,1,40,1,0
302081,714.285714285714,4,2,1,50,1,0
302319,857.142857142857,4,2,1,45,1,0
302613,731.707317073171,4,2,1,40,1,0
302856,882.35294117647,4,2,1,35,1,0
303150,1000,4,2,1,30,1,0
303483,530.973451327434,4,2,1,25,1,0
304013,-100,4,2,1,22,0,0
304544,-100,4,2,1,20,0,0
305075,-100,4,2,1,18,0,0
305606,-100,4,2,1,16,0,0
306137,-100,4,2,1,14,0,0
306668,-100,4,2,1,12,0,0
307199,-100,4,2,1,10,0,0
307730,-100,4,2,1,9,0,0
308261,-100,4,2,1,8,0,0
308792,-100,4,2,1,7,0,0
309323,-100,4,2,1,6,0,0
309854,-100,4,2,1,5,0,0

[Colours]
Combo1 : 0,0,138
Combo2 : 100,100,100
Combo3 : 151,23,43
Combo4 : 172,172,172
Combo5 : 183,91,0
Combo6 : 0,111,0

[HitObjects]
256,192,188,5,2,0:1:0:0:
256,192,277,12,0,2951,0:0:0:0:
297,173,3040,21,2,0:1:0:0:
256,192,3129,12,0,5799,0:0:0:0:
199,246,5888,53,2,0:1:0:0:
256,192,5977,12,0,8655,0:0:0:0:
174,104,8745,21,2,0:1:0:0:
256,192,8834,12,0,11529,0:0:0:0:
325,168,11619,53,2,0:1:0:0:
256,192,11709,12,0,13071,0:0:0:0:
256,192,13160,12,0,20043,0:0:0:0:
0,384,20223,38,0,B|9:370|9:370|8:358|8:358|4:348|4:348|14:338|14:338|18:325|18:325|7:317|7:317|4:309|4:309|15:306|15:306|18:295|18:295|19:287|19:287|9:281|9:281|18:273|18:273|14:266|14:266|8:255|8:255|14:241|14:241|6:235|6:235|19:226|19:226|14:219|14:219|4:203|4:203|19:192|19:192|17:182|17:182|18:173|18:173|8:171|8:171|0:160|0:160|3:148|3:148|20:142|20:142|23:128|23:128|10:128|10:128|4:116|4:116|9:105|9:105|-2:101|-2:101|-5:93|-5:93|4:81|4:81|-3:68|-3:68|-14:61|-14:61|-14:53|-14:53|-4:50|-4:50|-3:44|-3:44|9:41|9:41|9:31|9:31|23:26|23:26|20:15|20:15|24:5|24:5|14:4|14:4|5:2|5:2|-2:4,1,551.200000841064,2|0,0:0|0:0,0:0:0:0:
84,162,25141,70,0,B|90:179|90:179|155:215|155:215|182:271,1,140,4|0,3:1|0:0,0:0:0:0:
170,284,25872,2,0,B|175:261|175:261|231:204,1,90.0000034332277,8|0,0:1|0:0,0:0:0:0:
249,204,26238,2,0,L|237:251,1,45.0000017166138,2|0,0:3|0:0,0:0:0:0:
303,276,26604,1,0,3:3:0:0:
306,291,26770,1,0,3:3:0:0:
359,345,26937,2,0,L|351:385,1,40,2|2,0:1|0:1,0:0:0:0:
254,226,27270,38,0,P|310:206|361:217,1,90.0000034332277,14|0,0:1|0:0,0:0:0:0:
367,226,27622,2,0,L|417:230,1,45.0000017166138,2|0,0:3|0:0,0:0:0:0:
477,191,27975,1,0,3:3:0:0:
476,177,28152,1,0,3:3:0:0:
511,113,28328,2,0,L|513:60,1,40,2|2,0:1|0:1,0:0:0:0:
377,151,28681,38,0,P|361:192|372:235,1,90.0000034332277,14|0,0:1|0:0,0:0:0:0:
399,259,29029,2,0,L|330:254,1,60,2|0,0:3|0:0,0:0:0:0:
270,262,29378,1,0,3:3:0:0:
268,283,29553,1,0,3:3:0:0:
183,333,29727,1,2,0:1:0:0:
252,359,29901,1,2,0:1:0:0:
164,259,30076,38,0,P|107:242|56:260,1,90.0000034332277,14|0,0:1|0:0,0:0:0:0:
52,258,30425,2,0,L|23:212,1,45.0000017166138,2|0,0:3|0:0,0:0:0:0:
46,151,30774,1,0,3:3:0:0:
55,135,30948,1,0,3:3:0:0:
119,96,31122,1,2,0:1:0:0:
56,57,31297,1,2,0:1:0:0:
124,167,31471,38,0,P|168:176|215:172,1,90.0000034332277,14|0,0:1|0:0,0:0:0:0:
233,151,31815,2,0,L|285:155,1,45.0000017166138,2|0,0:3|0:0,0:0:0:0:
363,125,32160,1,0,3:3:0:0:
367,112,32333,1,0,3:3:0:0:
425,66,32504,1,2,0:1:0:0:
356,35,32677,1,2,0:1:0:0:
462,128,32850,38,0,P|471:164|467:242,1,90.0000034332277,14|0,0:1|0:0,0:0:0:0:
445,237,33195,2,0,L|503:229,1,45.0000017166138,2|0,0:3|0:0,0:0:0:0:
509,295,33539,1,0,3:3:0:0:
507,314,33712,1,0,3:3:0:0:
430,326,33883,1,2,0:1:0:0:
476,384,34056,1,2,0:1:0:0:
396,178,34229,38,0,P|359:174|289:200,1,90.0000034332277,14|0,0:1|0:0,0:0:0:0:
285,208,34564,2,0,L|233:181,1,45.0000017166138,2|0,0:3|0:0,0:0:0:0:
188,135,34899,1,0,3:3:0:0:
186,122,35066,1,0,3:3:0:0:
224,46,35234,1,2,0:1:0:0:
350,25,35402,1,0,3:0:0:0:
379,44,35485,1,0,3:0:0:0:
391,77,35569,2,0,B|403:103|403:108|359:217,1,120,4|0,3:0|0:0,0:0:0:0:
365,201,35917,2,0,P|356:205|368:197,1,80,2|0,0:3|0:0,0:0:0:0:
382,308,36266,53,0,3:3:0:0:
382,308,36441,1,0,3:3:0:0:
382,308,36789,1,2,0:1:0:0:
382,308,36964,2,0,L|338:311,1,35.9999989013672,10|0,1:1|0:0,0:0:0:0:
259,258,37310,2,0,L|200:251,1,53.9999983520508,2|0,0:3|0:0,0:0:0:0:
91,319,37657,21,0,3:3:0:0:
91,319,37831,1,0,3:3:0:0:
91,319,38177,1,0,0:1:0:0:
91,319,38351,2,0,L|97:347,1,23.9999992675781,10|2,1:0|0:1,0:0:0:0:
41,217,38695,2,0,L|48:155,1,53.9999983520508,2|0,0:3|0:0,0:0:0:0:
90,74,39040,53,0,3:3:0:0:
90,74,39213,1,0,3:3:0:0:
90,74,39557,1,2,0:1:0:0:
90,74,39729,2,0,L|132:63,1,35.9999989013672,10|0,1:1|0:0,0:0:0:0:
199,79,40075,2,0,L|234:131,1,53.9999983520508,2|0,0:3|0:0,0:0:0:0:
229,205,40419,21,0,3:3:0:0:
229,205,40592,1,0,3:3:0:0:
229,205,40937,1,2,0:1:0:0:
229,205,41109,2,0,L|200:209,1,23.9999992675781,10|2,1:0|0:1,0:0:0:0:
329,152,41457,2,0,L|388:139,1,53.9999983520508,2|0,0:3|0:0,0:0:0:0:
415,58,41806,53,0,3:3:0:0:
415,58,41981,1,0,3:3:0:0:
415,58,42329,1,2,0:1:0:0:
415,58,42504,2,0,L|451:85,1,35.9999989013672,10|0,1:1|0:0,0:0:0:0:
507,134,42846,2,0,L|500:189,1,53.9999983520508,2|0,0:3|0:0,0:0:0:0:
503,280,43189,21,0,3:3:0:0:
503,280,43361,1,0,3:3:0:0:
503,280,43704,1,0,0:1:0:0:
503,280,43875,2,0,L|515:258,1,23.9999992675781,10|2,1:0|0:1,0:0:0:0:
442,380,44227,2,0,L|383:374,1,53.9999983520508,2|0,0:3|0:0,0:0:0:0:
327,321,44580,53,0,3:3:0:0:
327,321,44757,1,0,3:3:0:0:
327,321,45110,1,2,0:1:0:0:
327,321,45286,2,0,L|283:309,1,35.9999989013672,10|0,1:1|0:0,0:0:0:0:
220,365,45631,2,0,L|156:370,1,53.9999983520508,2|0,0:3|0:0,0:0:0:0:
101,313,45977,21,0,3:3:0:0:
101,313,46150,1,0,3:3:0:0:
101,313,46496,1,0,0:1:0:0:
101,313,46669,2,0,L|116:337,1,23.9999992675781,10|2,1:0|0:1,0:0:0:0:
11,241,47016,2,0,L|29:187,1,53.9999983520508,2|0,0:3|0:0,0:0:0:0:
26,101,47364,21,0,3:3:0:0:
26,101,47537,2,0,B|28:76|15:23,1,71.9999978027344,0|2,3:0|0:1,0:0:0:0:
29,110,48060,2,0,L|71:122,1,35.9999989013672,10|0,1:1|0:0,0:0:0:0:
150,121,48408,2,0,L|116:170,1,53.9999983520508,2|0,0:3|0:0,0:0:0:0:
184,225,48755,5,0,3:3:0:0:
184,225,48928,2,0,P|167:226|111:238,1,71.9999978027344,0|2,3:0|0:1,0:0:0:0:
203,233,49451,2,0,L|231:224,1,23.9999992675781,10|2,1:0|0:1,0:0:0:0:
331,256,49816,2,0,L|311:200,1,53.9999983520508,2|0,0:3|0:0,0:0:0:0:
339,122,50182,69,0,3:3:0:0:
339,122,50350,2,0,P|309:114|253:112,1,71.9999978027344,0|2,3:0|0:1,0:0:0:0:
361,140,50862,2,0,L|398:136,1,35.9999989013672,10|0,1:0|0:0,0:0:0:0:
435,49,51210,2,0,L|371:67,1,53.9999983520508,2|0,0:3|0:0,0:0:0:0:
260,2,51559,5,0,3:3:0:0:
260,2,51733,2,0,P|295:3|331:1,1,71.9999978027344,0|2,3:0|0:1,0:0:0:0:
250,14,52257,2,0,L|216:19,1,23.9999992675781,10|2,1:0|0:1,0:0:0:0:
353,48,52610,2,0,L|315:98,1,53.9999983520508,2|0,0:3|0:0,0:0:0:0:
374,167,52964,69,0,3:3:0:0:
374,167,53140,2,0,P|399:158|440:131,1,71.9999978027344,0|2,3:0|0:1,0:0:0:0:
358,165,53672,2,0,L|372:202,1,35.9999989013672,10|0,1:1|0:0,0:0:0:0:
402,279,54020,2,0,L|438:239,1,53.9999983520508,2|0,0:3|0:0,0:0:0:0:
512,282,54369,5,0,3:3:0:0:
512,282,54543,2,0,P|512:305|504:358,1,71.9999978027344,0|2,3:0|0:1,0:0:0:0:
501,268,55067,2,0,L|507:234,1,23.9999992675781,10|2,1:0|0:1,0:0:0:0:
437,370,55417,2,0,L|373:348,1,53.9999983520508,2|0,0:3|0:0,0:0:0:0:
296,380,55768,69,0,3:3:0:0:
296,380,55943,2,0,P|325:379|370:386,1,71.9999978027344,0|2,3:0|0:1,0:0:0:0:
283,370,56470,2,0,L|276:326,1,35.9999989013672,10|0,1:1|0:0,0:0:0:0:
234,266,56821,2,0,L|192:311,1,53.9999983520508,2|0,0:3|0:0,0:0:0:0:
130,284,57171,1,0,3:3:0:0:
130,284,57346,2,0,P|101:291|49:293,1,71.9999978027344,0|2,3:0|0:1,0:0:0:0:
141,278,57874,69,10,1:0:0:0:
152,357,58046,1,0,3:0:0:0:
33,216,58219,2,0,L|61:222,1,24,6|0,3:1|0:0,0:0:0:0:
83,224,58565,54,0,B|178:215|171:124|274:139,1,210.000008010865,4|0,3:3|0:0,0:0:0:0:
293,140,59257,2,0,B|227:149|232:87|166:81,1,120,12|0,1:1|0:0,0:0:0:0:
164,88,59601,2,0,L|133:90,1,30,2|0,0:3|0:0,0:0:0:0:
301,42,59946,22,0,P|359:63|395:192,1,180.000006866455,4|0,3:3|0:0,0:0:0:0:
353,235,60550,1,0,3:0:0:0:
348,242,60636,2,0,P|353:286|416:368,1,120,4|0,3:3|0:0,0:0:0:0:
415,367,60980,2,0,L|444:365,1,30,2|0,0:3|0:0,0:0:0:0:
235,336,61325,53,4,3:3:0:0:
172,354,61498,2,0,P|121:340|49:273,1,150.000005722046,0|0,3:0|0:0,0:0:0:0:
62,249,62015,2,0,P|86:196|79:101,1,120,12|0,1:0|0:0,0:0:0:0:
29,78,62358,2,0,L|-9:82,1,30,2|0,0:3|0:0,0:0:0:0:
114,51,62702,22,0,B|180:34|198:77|271:46,1,150.000005722046,4|0,3:3|0:0,0:0:0:0:
263,28,63218,1,0,3:0:0:0:
202,125,63390,2,0,B|200:170|253:155|256:233,1,120,12|0,1:0|0:0,0:0:0:0:
244,253,63727,2,0,L|206:249,1,30,2|0,0:3|0:0,0:0:0:0:
363,350,64064,53,4,3:3:0:0:
402,286,64232,2,0,B|416:247|412:210|412:210|387:170|389:122,1,150.000005722046,0|0,3:0|0:0,0:0:0:0:
397,115,64738,2,0,P|348:126|268:77,1,120,4|0,3:0|3:0,3:0:0:0:
270,77,65078,2,0,P|253:70|234:68,1,30,2|0,0:3|0:0,0:0:0:0:
486,40,65419,22,0,B|541:98|459:139|488:227,1,180.000006866455,4|0,3:3|0:0,0:0:0:0:
512,302,66016,1,0,3:0:0:0:
512,302,66101,2,0,B|471:333|445:292|372:343,1,120,12|0,1:0|0:0,0:0:0:0:
319,384,66439,2,0,L|288:379,1,30,2|0,0:3|0:0,0:0:0:0:
144,324,66778,53,4,3:3:0:0:
130,252,66948,2,0,P|136:208|131:163,1,90.0000034332277,0|0,3:0|0:0,0:0:0:0:
113,144,67287,21,0,3:0:0:0:
204,240,67456,2,0,P|261:245|418:221,1,200,12|0,1:0|0:0,0:0:0:0:
414,199,67973,53,0,3:0:0:0:
170,220,68145,2,0,P|219:249|370:296,1,200,12|0,1:0|0:0,0:0:0:0:
378,279,68662,21,0,3:0:0:0:
154,143,68835,2,0,P|116:136|62:136,1,90.0000034332277,12|0,1:0|0:0,0:0:0:0:
9,179,69180,53,8,1:1:0:0:
9,182,69219,21,8,1:1:0:0:
49,257,69338,1,8,0:1:0:0:
194,50,69526,22,0,L|38:64,1,150.000005722046,4|0,3:0|0:0,0:0:0:0:
29,36,70045,69,0,3:0:0:0:
98,144,70218,2,0,L|92:190,2,40,8|2|2,1:0|0:2|0:2,0:0:0:0:
31,266,70884,2,0,P|53:252|100:262,1,60,2|0,3:2|0:0,0:0:0:0:
104,274,71218,2,0,P|131:283|166:276,1,60,2|0,0:2|0:0,0:0:0:0:
177,254,71551,2,0,P|208:233|306:233,1,120.000004577637,12|2,1:0|0:2,0:0:0:0:
155,141,72071,6,0,L|105:139,1,45.0000017166138,2|0,3:2|0:0,0:0:0:0:
83,157,72403,1,8,3:0:0:0:
244,59,72563,1,2,0:2:0:0:
242,46,72722,1,2,0:2:0:0:
226,0,72891,2,0,B|210:71,1,60.0000022888184,10|0,1:0|3:0,0:0:0:0:
348,201,73230,69,8,3:0:0:0:
352,98,73400,1,8,3:0:0:0:
430,24,73570,2,0,B|524:120|401:113|463:226,1,210.000008010865,6|0,0:3|0:0,0:0:0:0:
473,241,74250,2,0,P|426:209|357:207,1,120,10|0,1:0|0:0,0:0:0:0:
302,265,74587,2,0,L|260:261,1,35.9999989013672,2|0,0:2|0:0,0:0:0:0:
197,315,74924,1,2,3:2:0:0:
183,315,75081,2,0,L|90:318,1,80,0|0,3:0|3:0,0:0:0:0:
9,174,75557,2,0,B|59:142|113:144|113:144|177:179|230:171,1,200,12|0,1:0|0:0,0:0:0:0:
226,170,76074,2,0,P|252:167|275:160,1,40,0|2,3:0|0:2,0:0:0:0:
435,45,76399,5,8,3:0:0:0:
453,35,76552,2,0,L|452:112,1,60,2|0,3:2|0:0,0:0:0:0:
482,114,76861,1,8,1:0:0:0:
458,252,77031,1,0,3:0:0:0:
370,169,77201,69,8,3:0:0:0:
367,255,77372,1,8,3:0:0:0:
321,327,77542,2,0,B|271:343|213:341|213:341|145:322|93:333,1,210.000008010865,12|0,3:0|0:0,0:0:0:0:
93,351,78224,1,10,1:0:0:0:
28,228,78390,1,2,0:2:0:0:
11,296,78557,6,0,P|36:305|52:307,1,35.9999989013672,2|0,3:2|0:0,0:0:0:0:
113,271,78890,1,0,3:0:0:0:
113,271,79049,2,0,P|151:261|194:257,1,80,2|2,3:2|0:2,0:0:0:0:
117,118,79528,2,0,B|93:88|122:36|122:36|183:48,1,120,12|0,1:0|0:0,0:0:0:0:
180,56,79865,1,2,3:2:0:0:
295,164,80034,2,0,B|326:170|326:170|355:118|331:88,1,120,0|0,3:0|0:0,0:0:0:0:
308,73,80370,69,8,3:0:0:0:
353,230,80539,1,2,0:2:0:0:
351,248,80876,5,8,1:0:0:0:
397,118,81040,1,0,3:0:0:0:
485,300,81205,69,8,3:0:0:0:
405,319,81370,1,8,3:0:0:0:
346,384,81535,2,0,B|286:403|232:381|232:381|199:345|145:339,1,210.000008010865,12|0,3:0|0:0,0:0:0:0:
124,339,82240,2,0,P|165:308|131:225,1,120,8|0,0:1|0:0,0:0:0:0:
142,224,82584,2,0,L|147:180,1,38.9999982147218,2|0,0:2|0:0,0:0:0:0:
157,159,82929,2,0,P|159:133|138:88,1,60,2|0,0:2|0:0,0:0:0:0:
126,84,83258,2,0,P|123:55|135:18,1,60,2|0,0:2|0:0,0:0:0:0:
244,60,83588,22,0,L|212:61,1,32,12|2,1:0|0:0,0:0:0:0:
244,60,85083,22,0,L|212:61,1,32,2|2,0:0|0:0,0:0:0:0:
371,151,86486,38,0,B|342:153|342:153|306:178|306:178|229:195,1,140,12|0,1:0|0:0,0:0:0:0:
212,194,87202,2,0,P|256:201|285:259,1,90.0000034332277,8|0,1:0|0:0,0:0:0:0:
286,264,87560,2,0,L|253:261,1,30,2|0,0:3|0:0,0:0:0:0:
167,301,87918,1,0,3:3:0:0:
157,322,88091,1,0,3:3:0:0:
78,381,88265,2,0,L|28:385,1,40,2|2,0:1|0:1,0:0:0:0:
81,219,88613,38,0,P|117:210|185:222,1,90.0000034332277,14|0,0:1|0:0,0:0:0:0:
195,222,88974,2,0,L|185:190,1,30,2|0,0:3|0:0,0:0:0:0:
118,127,89335,1,0,3:3:0:0:
121,108,89508,1,0,3:3:0:0:
180,39,89682,2,0,L|172:-12,1,40,2|2,0:1|0:1,0:0:0:0:
228,137,90030,38,0,P|267:140|341:122,1,90.0000034332277,14|0,0:1|0:0,0:0:0:0:
338,117,90378,2,0,P|355:111|370:110,1,30,2|0,0:3|0:0,0:0:0:0:
417,172,90726,1,0,3:3:0:0:
440,184,90905,1,0,3:3:0:0:
504,142,91084,1,2,0:1:0:0:
469,76,91263,1,2,0:1:0:0:
351,195,91442,38,0,B|335:232|359:241|340:286,1,90.0000034332277,14|0,0:1|0:0,0:0:0:0:
331,309,91800,2,0,P|328:323|328:343,1,30,2|0,0:3|0:0,0:0:0:0:
391,383,92150,1,0,3:3:0:0:
421,370,92319,1,0,3:3:0:0:
456,294,92489,1,2,0:1:0:0:
512,354,92659,1,2,0:1:0:0:
330,326,92837,38,0,P|292:317|235:275,1,90.0000034332277,14|0,0:1|0:0,0:0:0:0:
232,271,93189,2,0,L|202:268,1,30,2|0,0:3|0:0,0:0:0:0:
122,303,93542,1,0,3:3:0:0:
94,312,93714,1,0,3:3:0:0:
80,236,93886,1,2,0:1:0:0:
22,282,94059,1,2,0:1:0:0:
181,200,94231,38,0,P|202:166|211:89,1,90.0000034332277,14|0,0:1|0:0,0:0:0:0:
206,91,94588,2,0,P|207:74|211:61,1,30,2|0,0:3|0:0,0:0:0:0:
296,22,94945,1,0,3:3:0:0:
321,29,95118,1,0,3:3:0:0:
326,118,95292,1,2,0:1:0:0:
401,79,95466,1,2,0:1:0:0:
230,6,95640,38,0,P|194:2|119:32,1,90.0000034332277,14|0,0:1|0:0,0:0:0:0:
121,34,95988,2,0,L|113:64,1,30,2|0,0:3|0:0,0:0:0:0:
125,96,96336,37,0,3:0:0:0:
47,221,96504,1,8,1:0:0:0:
170,170,96673,70,0,L|201:154,1,20,8|8,3:0|3:0,0:0:0:0:
182,268,96826,2,0,L|162:251,1,20,8|8,3:0|3:0,0:0:0:0:
200,152,97010,2,0,B|287:82|314:203|409:141,1,210.000008010865,12|0,1:0|0:0,0:0:0:0:
395,129,97732,5,0,3:3:0:0:
395,129,97901,1,0,3:3:0:0:
395,129,98240,1,2,0:1:0:0:
395,129,98409,2,0,L|402:172,1,35.9999989013672,10|0,1:1|0:0,0:0:0:0:
352,225,98764,2,0,L|345:291,1,53.9999983520508,2|0,0:3|0:0,0:0:0:0:
395,349,99119,53,0,3:3:0:0:
395,349,99290,1,0,3:3:0:0:
395,349,99633,1,0,0:1:0:0:
395,349,99804,2,0,L|427:344,1,23.9999992675781,10|2,1:0|0:1,0:0:0:0:
289,384,100168,2,0,P|256:382|220:373,1,53.9999983520508,2|0,0:3|0:0,0:0:0:0:
196,305,100533,21,0,3:3:0:0:
196,305,100707,1,0,3:3:0:0:
196,305,101056,1,2,0:1:0:0:
196,305,101230,2,0,L|158:281,1,35.9999989013672,10|0,1:1|0:0,0:0:0:0:
123,224,101579,2,0,L|60:220,1,53.9999983520508,2|0,0:3|0:0,0:0:0:0:
4,283,101928,53,0,3:3:0:0:
4,283,102106,1,0,3:3:0:0:
4,283,102463,1,0,0:1:0:0:
4,283,102642,2,0,L|-3:251,1,23.9999992675781,10|2,1:0|0:1,0:0:0:0:
36,367,102999,2,0,P|61:376|109:377,1,60,2|0,0:3|0:0,0:0:0:0:
163,320,103356,21,0,3:3:0:0:
163,320,103536,1,0,3:3:0:0:
163,320,103896,1,2,0:1:0:0:
163,320,104076,2,0,L|191:288,1,35.9999989013672,8|0,1:1|0:0,0:0:0:0:
214,221,104420,2,0,L|278:214,1,53.9999983520508,2|0,0:3|0:0,0:0:0:0:
347,263,104765,53,0,3:3:0:0:
347,263,104938,1,0,3:3:0:0:
347,263,105282,1,0,0:1:0:0:
347,263,105455,2,0,L|316:258,1,23.9999992675781,10|2,1:0|0:1,0:0:0:0:
399,331,105805,2,0,P|429:328|461:309,1,60,2|0,0:3|0:0,0:0:0:0:
489,248,106156,21,0,3:3:0:0:
489,248,106332,1,0,3:3:0:0:
489,248,106685,1,2,0:1:0:0:
489,248,106861,2,0,L|446:242,1,35.9999989013672,10|0,1:1|0:0,0:0:0:0:
377,211,107214,2,0,L|321:216,1,53.9999983520508,2|0,0:3|0:0,0:0:0:0:
260,253,107568,53,0,3:3:0:0:
260,253,107747,1,0,3:3:0:0:
260,253,108105,1,0,0:1:0:0:
260,253,108284,2,0,L|263:279,1,23.9999992675781,10|2,1:0|0:1,0:0:0:0:
304,159,108629,2,0,L|293:157,1,12,2|0,0:3|0:0,0:0:0:0:
218,168,108975,53,0,3:3:0:0:
218,168,109148,2,0,P|240:193|259:230,1,71.9999978027344,0|2,3:0|0:1,0:0:0:0:
214,153,109668,2,0,L|177:146,1,35.9999989013672,10|0,1:1|0:0,0:0:0:0:
96,100,110019,2,0,L|157:84,1,53.9999983520508,2|0,0:3|0:0,0:0:0:0:
244,94,110371,5,0,3:3:0:0:
244,94,110545,2,0,P|250:68|245:13,1,80,0|2,3:0|0:1,0:0:0:0:
230,109,111070,2,0,L|258:124,1,23.9999992675781,10|2,1:0|0:1,0:0:0:0:
133,21,111427,2,0,P|160:23|186:33,1,53.9999983520508,2|0,0:3|0:0,0:0:0:0:
63,52,111784,69,0,3:3:0:0:
63,52,111961,2,0,P|48:17|7:-3,1,80,0|2,3:0|0:1,0:0:0:0:
72,68,112494,2,0,L|62:105,1,35.9999989013672,10|0,1:1|0:0,0:0:0:0:
35,192,112841,2,0,L|92:168,1,53.9999983520508,2|0,0:3|0:0,0:0:0:0:
170,179,113189,5,0,3:3:0:0:
170,179,113365,2,0,P|170:209|176:263,1,80,0|2,3:0|0:1,0:0:0:0:
163,159,113894,2,0,L|129:155,1,23.9999992675781,10|2,1:0|0:1,0:0:0:0:
296,132,114251,2,0,P|269:130|243:132,1,53.9999983520508,2|0,0:3|0:0,0:0:0:0:
381,181,114608,69,0,3:3:0:0:
381,181,114784,2,0,P|383:209|381:269,1,80,0|2,3:0|0:1,0:0:0:0:
364,167,115312,2,0,L|375:125,1,35.9999989013672,10|0,1:1|0:0,0:0:0:0:
441,57,115669,2,0,L|383:69,1,53.9999983520508,2|0,0:3|0:0,0:0:0:0:
314,14,116026,5,0,3:3:0:0:
314,14,116196,2,0,P|353:1|396:0,1,80,0|2,3:0|0:1,0:0:0:0:
306,33,116707,2,0,L|277:29,1,23.9999992675781,10|2,1:0|0:1,0:0:0:0:
395,91,117071,2,0,P|378:112|359:130,1,53.9999983520508,2|0,0:3|0:0,0:0:0:0:
449,0,117436,69,0,3:3:0:0:
449,0,117611,2,0,P|420:-6|370:-5,1,80,0|2,3:0|0:1,0:0:0:0:
443,22,118139,2,0,L|480:37,1,35.9999989013672,10|0,1:1|0:0,0:0:0:0:
512,121,118497,2,0,L|453:137,1,53.9999983520508,2|0,0:3|0:0,0:0:0:0:
489,222,118855,5,0,3:3:0:0:
489,222,119027,2,0,P|446:228|409:242,1,80,0|2,3:0|0:1,0:0:0:0:
498,234,119546,53,10,1:0:0:0:
512,313,119713,1,0,3:0:0:0:
388,117,119881,2,0,L|360:113,1,24,12|0,3:1|0:0,0:0:0:0:
340,111,120216,54,0,B|251:102|268:188|130:153,1,210.000008010865,4|0,3:3|0:0,0:0:0:0:
117,150,120943,2,0,B|165:148|154:210|235:214,1,120,12|0,1:1|0:0,0:0:0:0:
243,214,121307,2,0,P|260:214|275:211,1,30,2|0,0:3|0:0,0:0:0:0:
370,322,121672,22,0,B|303:309|292:348|212:327,1,150.000005722046,4|0,3:3|0:0,0:0:0:0:
123,291,122192,1,0,3:0:0:0:
117,286,122278,1,0,3:0:0:0:
114,281,122365,2,0,P|91:260|123:169,1,120,12|0,3:1|0:0,0:0:0:0:
125,164,122718,2,0,P|138:147|142:134,1,30,2|0,0:3|0:0,0:0:0:0:
44,112,123072,53,4,3:3:0:0:
114,59,123246,2,0,P|146:50|264:61,1,150.000005722046,0|0,3:0|0:0,0:0:0:0:
282,80,123769,2,0,P|337:89|392:52,1,120,12|0,1:0|0:0,0:0:0:0:
393,30,124110,2,0,L|391:-3,1,30,2|0,0:3|0:0,0:0:0:0:
475,120,124452,22,0,B|477:202|432:177|414:263,1,150.000005722046,0|0,3:0|0:0,0:0:0:0:
486,299,124984,1,0,3:0:0:0:
486,309,125073,1,0,3:0:0:0:
486,317,125162,2,0,P|480:357|409:358,1,120,12|0,3:1|0:0,0:0:0:0:
392,343,125501,2,0,L|358:338,1,30,2|0,0:3|0:0,0:0:0:0:
262,371,125841,53,0,3:3:0:0:
161,352,126008,2,0,P|128:330|67:236,1,150.000005722046,0|0,3:3|0:0,0:0:0:0:
67,214,126511,2,0,P|67:164|41:86,1,120,12|0,1:1|0:0,0:0:0:0:
28,77,126860,2,0,L|-5:87,1,30,2|0,0:3|0:0,0:0:0:0:
172,10,127210,22,0,B|256:-7|227:58|333:36,1,150.000005722046,4|0,3:3|0:0,0:0:0:0:
409,101,127722,1,0,3:3:0:0:
413,111,127808,1,0,3:3:0:0:
414,123,127893,2,0,P|428:179|513:194,1,120,12|0,1:1|0:0,0:0:0:0:
505,192,128242,2,0,L|497:158,1,30,2|0,0:3|0:0,0:0:0:0:
512,312,128592,54,0,B|465:366|427:309|368:360,1,150.000005722046,4|0,3:0|0:0,0:0:0:0:
372,383,129097,21,0,3:0:0:0:
226,289,129266,2,0,B|150:265|106:331|25:294,1,200,12|0,1:1|0:0,0:0:0:0:
19,270,129780,53,0,3:1:0:0:
315,265,129951,2,0,P|315:304|301:342,1,80,12|0,1:1|0:0,0:0:0:0:
297,78,130296,21,8,1:1:0:0:
438,230,130469,2,0,P|475:249|516:250,1,80,4|0,3:3|0:0,0:0:0:0:
484,13,130812,53,8,1:1:0:0:
222,94,130982,2,0,B|190:98|190:98|115:74,1,90.0000034332277,4|0,3:3|0:0,0:0:0:0:
117,59,131316,54,0,L|27:25,1,90.0000034332277,2|0,3:1|0:0,0:0:0:0:
111,146,132034,2,0,P|115:166|108:212,1,60,8|0,1:0|0:0,0:0:0:0:
95,228,132370,2,0,P|88:251|88:273,1,35.9999989013672,2|0,0:2|0:0,0:0:0:0:
163,340,132706,1,2,3:2:0:0:
226,278,132873,2,0,L|265:237,2,40,0|2|0,3:0|0:2|3:0,0:0:0:0:
12,211,133374,70,0,P|21:158|116:99,1,150.000005722046,12|0,1:0|0:0,0:0:0:0:
120,95,133897,2,0,L|177:92,1,45.0000017166138,2|0,3:2|0:0,0:0:0:0:
216,174,134231,1,8,3:0:0:0:
284,147,134391,2,0,P|308:125|311:89,1,60,2|0,0:2|0:0,0:0:0:0:
306,73,134712,5,10,1:0:0:0:
335,281,134877,1,0,3:0:0:0:
434,122,135043,69,8,3:0:0:0:
361,141,135209,1,8,3:0:0:0:
333,207,135374,2,0,B|306:250|330:289|398:273|391:337|364:374,1,181.999991668702,6|0,0:3|0:0,0:0:0:0:
347,384,136071,1,10,1:0:0:0:
175,299,136236,1,2,0:2:0:0:
238,338,136401,6,0,B|246:325|247:317|247:296,1,35.9999989013672,2|0,3:2|0:0,0:0:0:0:
198,227,136732,1,0,3:0:0:0:
198,227,136890,2,0,B|183:196|177:175|185:138,1,80,2|2,3:2|0:2,3:0:0:0:
36,122,137365,2,0,B|44:158|20:209,1,90.0000034332277,12|0,1:0|0:0,0:0:0:0:
3,229,137710,69,8,1:0:0:0:
131,198,137883,2,0,B|178:201,1,45.0000017166138,0|0,3:0|0:0,0:0:0:0:
196,224,138218,1,8,3:0:0:0:
126,318,138381,1,2,3:2:0:0:
131,338,138543,1,2,0:2:0:0:
292,248,138706,2,0,L|286:186,1,60,8|0,1:0|3:0,0:0:0:0:
197,235,139036,5,8,3:0:0:0:
377,295,139201,1,8,3:0:0:0:
186,371,139367,2,0,B|259:400|282:352|340:379,1,140,12|0,3:0|0:0,0:0:0:0:
347,384,140054,1,10,1:0:0:0:
414,320,140219,1,2,0:2:0:0:
372,238,140384,2,0,P|361:211|373:166,1,60,2|0,0:2|0:0,0:0:0:0:
379,160,140715,1,2,3:2:0:0:
292,269,140875,2,0,P|301:297|323:317,1,60,0|0,3:2|0:0,0:0:0:0:
349,314,141196,1,0,3:2:0:0:
238,186,141356,70,0,P|195:182|127:191,1,90.0000034332277,12|0,1:0|0:0,0:0:0:0:
126,202,141687,1,2,3:2:0:0:
6,115,141853,2,0,L|16:65,1,45.0000017166138,0|0,3:0|0:0,0:0:0:0:
21,48,142184,1,8,3:0:0:0:
45,226,142350,1,2,0:2:0:0:
36,242,142681,5,8,1:0:0:0:
110,44,142852,1,0,3:0:0:0:
146,298,143024,69,8,3:0:0:0:
216,245,143196,1,8,3:0:0:0:
205,156,143368,2,0,B|215:108|266:80|312:132|357:115|376:91|376:60,1,210.000008010865,12|0,3:0|0:0,0:0:0:0:
370,45,144045,2,0,P|363:77|382:143,1,90.0000034332277,8|0,0:1|0:0,0:0:0:0:
388,156,144402,2,0,P|391:179|386:220,1,60,2|0,0:2|0:0,0:0:0:0:
372,241,144697,2,0,P|370:270|380:299,1,60,2|0,0:2|0:0,0:0:0:0:
407,300,145039,2,0,P|414:331|387:391,1,90.0000034332277,2|0,0:2|0:0,0:0:0:0:
269,323,145382,70,0,L|315:319,1,41.9999987182618,12|0,1:0|0:0,0:0:0:0:
339,319,146083,2,0,B|259:327|201:300|272:237|266:178|136:145|82:202|88:267|99:274|112:275|123:273|121:259,1,345.000013160706,2|0,0:0|0:0,0:0:0:0:
120,258,148271,69,2,0:0:0:0:
133,254,149302,1,2,0:0:0:0:
148,269,150701,1,2,0:0:0:0:
154,284,151085,1,2,0:0:0:0:
83,308,151778,54,0,P|87:280|87:241,1,60.0000022888184,2|0,0:0|0:0,0:0:0:0:
83,324,152511,2,0,L|99:296,3,30.0000011444092,8|8|8|8,3:0|3:0|3:0|3:0,0:0:0:0:
75,341,153196,2,0,L|110:316,3,30.0000011444092,0|0|0|0,3:0|3:0|3:0|3:0,0:0:0:0:
296,374,153912,22,0,L|315:376,1,16,8|0,3:0|3:0,0:0:0:0:
316,367,154438,2,0,L|331:365,1,16,0|0,3:0|3:0,0:0:0:0:
354,383,154979,2,0,L|311:381,1,32,2|0,3:1|0:0,0:0:0:0:
376,374,155346,54,0,L|397:379,1,16,8|0,3:3|3:0,0:0:0:0:
402,379,155860,2,0,L|419:378,4,16,0|0|0|8|0,3:0|3:0|3:0|3:0|3:0,0:0:0:0:
451,375,156717,2,0,L|421:359,1,23.9999992675781,8|0,3:0|3:0,0:0:0:0:
428,378,157251,2,0,L|404:385,1,23.9999992675781,0|0,3:0|3:1,0:0:0:0:
377,365,157789,2,0,L|414:368,1,32,2|0,3:1|0:0,0:0:0:0:
438,382,158149,22,0,L|455:380,1,16,8|0,3:0|3:0,0:0:0:0:
490,372,158681,2,0,L|509:369,2,16,0|0|0,3:0|3:0|3:0,0:0:0:0:
457,376,159214,2,0,L|493:383,1,32,8|0,3:0|3:0,0:0:0:0:
512,374,159569,54,0,L|494:378,1,16,8|0,3:0|3:0,0:0:0:0:
476,371,160089,2,0,L|456:366,1,16,0|0,3:0|3:0,0:0:0:0:
418,382,160610,2,0,L|449:384,1,32,2|0,3:1|0:0,0:0:0:0:
443,371,160959,22,0,L|426:373,1,16,8|0,3:0|3:0,0:0:0:0:
400,382,161486,2,0,L|378:379,4,16,0|8|0|8|0,3:0|3:0|3:0|3:0|3:0,0:0:0:0:
359,374,162367,2,0,L|341:377,1,16,8|0,3:0|3:0,0:0:0:0:
323,380,162902,2,0,L|302:373,1,16,0|8,3:0|3:0,0:0:0:0:
271,380,163438,2,0,L|309:385,1,32,2|0,3:1|0:0,0:0:0:0:
319,370,163795,5,10,3:0:0:0:
294,354,164026,1,10,3:0:0:0:
345,336,164305,1,10,3:0:0:0:
277,322,164531,1,10,3:0:0:0:
374,294,164803,1,10,3:0:0:0:
241,257,165061,1,10,3:0:0:0:
391,222,165267,37,8,1:0:0:0:
336,116,165447,2,0,B|346:140|367:147|394:144,1,60.0000022888184,0|0,3:0|3:3,0:0:0:0:
446,117,165989,5,8,1:0:0:0:
446,117,166165,1,0,3:0:0:0:
322,20,166341,2,0,B|308:10|308:10|268:19|220:22|186:28,1,120.000004577637,8|0,1:1|3:3,0:0:0:0:
78,164,166869,2,0,B|61:161|41:161|8:158,1,60.0000022888184,8|0,3:3|3:0,0:0:0:0:
109,247,167397,37,8,1:0:0:0:
114,258,167567,1,8,1:0:0:0:
174,322,167738,1,8,3:3:0:0:
179,333,167908,1,8,3:3:0:0:
257,382,168080,37,8,1:0:0:0:
379,264,168262,2,0,B|341:255|329:291,1,60.0000022888184,0|0,3:0|3:3,0:0:0:0:
333,358,168809,5,8,1:0:0:0:
333,358,168983,1,0,3:0:0:0:
439,239,169157,2,0,B|445:222|445:222|435:194|416:156|409:117,1,120.000004577637,8|0,1:1|3:3,0:0:0:0:
313,50,169681,2,0,B|313:23|317:14|319:-11,1,60.0000022888184,8|0,3:3|3:0,0:0:0:0:
437,15,170207,37,8,1:0:0:0:
446,27,170378,1,8,1:0:0:0:
411,127,170550,1,8,3:3:0:0:
407,144,170722,1,8,3:3:0:0:
306,232,170894,37,8,1:0:0:0:
157,171,171069,2,0,B|167:154|196:144|223:150,1,60.0000022888184,0|0,3:0|3:3,0:0:0:0:
290,164,171597,5,8,1:0:0:0:
290,164,171769,1,0,3:3:0:0:
143,84,171942,2,0,B|130:71|130:71|179:68|246:62,1,120.000004577637,8|0,1:1|3:3,0:0:0:0:
357,4,172458,2,0,B|390:9|400:7|419:9,1,60.0000022888184,8|0,3:3|3:0,0:0:0:0:
495,139,172971,37,8,1:0:0:0:
503,154,173148,1,8,1:0:0:0:
469,244,173326,1,8,3:3:0:0:
466,263,173503,1,8,3:3:0:0:
441,378,173681,6,0,B|402:382|393:389,2,40.000001525879,2|0|0,3:0|0:0|0:0,0:0:0:0:
311,341,174031,2,0,B|307:329|307:329|302:318,4,20.0000007629395,2|0|0|0|0,0:3|0:0|0:0|3:0|0:0,0:0:0:0:
220,378,174382,1,8,3:0:0:0:
220,378,174441,2,0,B|193:383|193:383|176:383,2,40.000001525879,2|0|0,0:3|0:0|0:0,0:0:0:0:
140,335,174733,2,0,P|127:331|106:330,4,20.0000007629395,8|0|0|0|0,0:3|0:0|0:0|0:0|0:0,0:0:0:0:
38,262,175084,22,0,L|35:239,1,13.3333333333333,0|0,3:0|0:0,0:0:0:0:
28,243,175197,2,0,L|31:220,1,13.3333333333333,0|8,0:0|3:0,0:0:0:0:
44,223,175310,2,0,L|45:203,1,13.3333333333333
52,208,175423,2,0,L|48:192,1,13.3333333333333
37,180,175537,2,0,L|30:157,1,13.3333333333333,0|0,0:0|3:0,0:0:0:0:
29,171,175650,2,0,L|28:151,1,13.3333333333333
41,146,175763,2,0,L|43:126,1,13.3333333333333,8|0,3:0|0:0,0:0:0:0:
55,140,175879,2,0,L|50:125,1,13.3333333333333,0|0,0:0|3:0,0:0:0:0:
117,101,175996,38,0,L|131:102,7,13.3333333333333,0|0|0|0|0|0|0|0,0:0|0:0|3:0|0:0|0:0|3:0|0:0|0:0,0:0:0:0:
206,123,176462,6,0,L|279:120,1,40,14|0,1:0|0:0,0:0:0:0:
331,141,176636,2,0,L|266:142,1,40,0|0,3:0|0:0,0:0:0:0:
202,135,176810,2,0,L|247:128,1,40,0|0,3:0|0:0,0:0:0:0:
336,126,176985,2,0,L|293:123,1,40,8|0,3:0|0:0,0:0:0:0:
197,131,177159,2,0,L|239:135,1,40,2|0,3:0|0:0,0:0:0:0:
337,147,177337,2,0,L|291:148,1,40,0|0,3:0|0:0,0:0:0:0:
255,280,177516,2,0,L|261:229,1,40,8|0,1:1|0:0,0:0:0:0:
336,113,177694,2,0,L|290:121,1,40,0|0,3:0|0:0,0:0:0:0:
182,155,177873,2,0,L|228:152,1,40,10|0,3:0|0:0,0:0:0:0:
337,157,178044,2,0,L|290:154,1,40,8|0,3:0|0:0,0:0:0:0:
184,107,178215,2,0,L|230:116,1,40,0|0,3:0|0:0,0:0:0:0:
349,113,178387,2,0,L|292:119,1,40,8|0,3:0|0:0,0:0:0:0:
181,166,178558,2,0,L|240:167,1,40,2|0,3:0|0:0,0:0:0:0:
348,158,178733,2,0,L|298:144,1,40,0|0,3:0|0:0,0:0:0:0:
238,8,178909,2,0,L|229:47,1,40,8|0,1:0|0:0,0:0:0:0:
349,97,179085,2,0,L|297:112,1,40,0|0,3:0|0:0,0:0:0:0:
169,176,179261,2,0,L|227:176,1,40,10|0,3:0|0:0,0:0:0:0:
350,172,179435,2,0,L|311:145,1,40,8|0,3:0|0:0,0:0:0:0:
159,113,179609,2,0,L|217:106,1,40,0|0,3:0|0:0,0:0:0:0:
358,85,179784,2,0,L|312:106,1,40,0|0,3:0|0:0,0:0:0:0:
158,193,179958,2,0,L|210:196,1,40,10|0,3:0|0:0,0:0:0:0:
368,186,180133,2,0,L|325:162,1,40,8|0,3:0|0:0,0:0:0:0:
241,311,180309,2,0,L|245:256,1,40,8|0,1:0|0:0,0:0:0:0:
376,89,180485,2,0,L|320:93,1,40,0|0,3:0|0:0,0:0:0:0:
149,193,180661,2,0,L|195:165,1,40,10|0,3:0|0:0,0:0:0:0:
356,212,180831,2,0,L|337:175,1,40,0|0,3:0|0:0,0:0:0:0:
153,80,181002,2,0,L|210:85,1,40,0|0,3:0|0:0,0:0:0:0:
383,107,181173,2,0,L|345:127,1,40,8|0,3:0|0:0,0:0:0:0:
137,188,181344,2,0,L|187:208,1,40,2|0,3:0|0:0,0:0:0:0:
358,202,181519,2,0,L|315:171,1,40,0|0,3:0|0:0,0:0:0:0:
250,0,181694,2,0,L|211:-5,1,40,8|0,1:0|0:0,0:0:0:0:
388,91,181870,2,0,L|334:109,1,40,0|0,3:0|0:0,0:0:0:0:
260,238,182045,6,0,B|251:245|251:245|266:250|279:269|299:267|299:267|314:291|327:286|337:308|339:320|339:320|349:336|348:353,1,160,14|8,1:0|3:0,0:0:0:0:
343,354,183117,54,0,B|330:355|330:355|316:351,1,23.9999992675781,8|0,1:0|3:0,0:0:0:0:
240,310,183639,2,0,B|221:306|197:315|197:315|176:315|150:316,1,80,8|0,3:0|3:0,0:0:0:0:
71,349,184164,1,8,3:0:0:0:
52,355,184337,1,8,3:0:0:0:
106,236,184511,1,0,3:0:0:0:
123,232,184685,1,0,3:0:0:0:
11,98,184859,54,0,B|28:98|28:98|52:96,1,30.0000011444092,10|0,3:0|0:0,0:0:0:0:
80,37,185032,2,0,B|112:36|112:36|153:42|153:42|176:44,1,90.0000034332277,8|0,3:0|0:0,0:0:0:0:
211,111,185379,2,0,B|226:108|226:108|250:101,1,30.0000011444092,8|0,3:0|0:0,0:0:0:0:
259,22,185552,2,0,B|291:30|291:30|328:45|328:45|357:54,1,90.0000034332277,10|0,3:0|0:0,0:0:0:0:
357,108,185903,2,0,B|374:111|374:111|397:110,1,30.0000011444092,8|0,1:0|0:0,0:0:0:0:
405,47,186079,2,0,B|422:49|422:49|438:54,1,30.0000011444092,0|0,3:0|0:0,0:0:0:0:
438,161,186255,2,0,B|452:160|452:160|473:154,1,30.0000011444092,2|0,3:0|0:0,0:0:0:0:
392,246,186427,2,0,B|405:210|405:210|408:177|408:177|415:153,1,90.0000034332277,10|0,3:0|0:0,0:0:0:0:
357,113,186772,2,0,B|358:96|358:96|358:76,1,30.0000011444092,2|0,3:0|0:0,0:0:0:0:
220,14,186944,69,10,1:1:0:0:
154,60,187113,2,0,L|151:90,2,20,8|0|2,3:3|0:0|3:3,0:0:0:0:
127,101,187339,2,0,L|136:119,4,13.3333333333333,0|0|2|0|0,0:0|0:0|3:3|0:0|0:0,0:0:0:0:
199,175,187621,54,0,L|186:223,1,50,14|0,1:0|0:0,0:0:0:0:
203,292,187796,2,0,L|198:236,1,50,0|0,3:0|0:0,0:0:0:0:
212,172,187972,2,0,L|204:228,1,50,0|0,3:0|0:0,0:0:0:0:
188,297,188148,2,0,L|200:245,1,50,8|0,3:0|0:0,0:0:0:0:
184,167,188324,2,0,L|188:227,1,50,2|0,3:0|0:0,0:0:0:0:
227,299,188497,2,0,L|220:242,1,50,0|0,3:0|0:0,0:0:0:0:
344,237,188670,2,0,L|399:256,1,50,8|0,1:1|0:0,0:0:0:0:
174,308,188844,2,0,L|190:251,1,50,0|0,3:0|0:0,0:0:0:0:
174,157,189023,2,0,L|187:211,1,50,10|0,3:0|0:0,0:0:0:0:
244,309,189194,2,0,L|240:250,1,50,8|0,3:0|0:0,0:0:0:0:
245,157,189366,2,0,L|219:211,1,50,0|0,3:0|0:0,0:0:0:0:
157,316,189538,2,0,L|173:257,1,50,8|0,3:0|0:0,0:0:0:0:
160,155,189704,2,0,L|164:209,1,50,2|0,3:0|0:0,0:0:0:0:
231,325,189879,2,0,L|249:266,1,50,0|0,3:0|0:0,0:0:0:0:
47,222,190054,2,0,L|0:237,1,50,8|0,1:0|0:0,0:0:0:0:
168,327,190230,2,0,L|225:307,1,50,0|0,3:0|0:0,0:0:0:0:
179,147,190405,2,0,L|148:189,1,50,10|0,3:0|0:0,0:0:0:0:
265,322,190576,2,0,L|239:263,1,50,8|0,3:0|0:0,0:0:0:0:
257,138,190747,2,0,L|255:188,1,50,0|0,3:0|0:0,0:0:0:0:
173,324,190919,2,0,L|148:276,1,50,0|0,3:0|0:0,0:0:0:0:
154,135,191090,2,0,L|139:191,1,50,10|0,3:0|0:0,0:0:0:0:
243,334,191262,2,0,L|264:282,1,50,8|0,3:0|0:0,0:0:0:0:
376,174,191433,2,0,L|427:153,1,50,8|0,1:0|0:0,0:0:0:0:
155,332,191605,2,0,L|183:290,1,50,0|0,3:0|0:0,0:0:0:0:
172,131,191775,2,0,L|165:193,1,50,10|0,3:0|0:0,0:0:0:0:
273,331,191953,2,0,L|274:268,1,50,0|0,3:0|0:0,0:0:0:0:
261,125,192131,2,0,L|280:179,1,50,0|0,3:0|0:0,0:0:0:0:
169,342,192309,2,0,L|158:291,1,50,8|0,3:0|0:0,0:0:0:0:
163,116,192487,2,0,L|134:164,1,50,2|0,3:0|0:0,0:0:0:0:
283,337,192657,2,0,L|324:293,1,50,0|0,3:0|0:0,0:0:0:0:
44,181,192828,2,0,L|-15:210,1,50,8|0,1:0|0:0,0:0:0:0:
197,338,192999,2,0,L|126:335,1,50,0|0,3:0|0:0,0:0:0:0:
116,248,193170,6,0,B|136:241|152:234|168:232|188:236|209:252|222:267|263:280|278:272,1,150.000005722046,14|0,1:0|0:0,0:0:0:0:
290,255,193708,2,0,B|273:253|265:254|256:258|248:264|242:274|241:284|242:308|245:322|249:331|256:338|274:347|291:350|316:351|322:347,1,150.000005722046,0|0,3:0|0:0,0:0:0:0:
317,339,194236,2,0,B|345:335|345:335|348:331,1,32,8|0,1:0|3:0,0:0:0:0:
412,269,194755,2,0,B|433:272|445:271|481:279,1,60.0000022888184,8|0,3:0|3:0,0:0:0:0:
445,358,195268,53,8,3:0:0:0:
441,344,195442,1,8,3:0:0:0:
469,208,195616,1,0,3:0:0:0:
473,196,195791,1,0,3:0:0:0:
470,103,195965,38,0,B|473:85|473:87|467:70,1,20,10|0,3:0|0:0,0:0:0:0:
422,31,196141,2,0,B|411:40|419:52|429:57|454:58|458:45,1,60,10|0,3:0|0:0,0:0:0:0:
429,9,196495,2,0,B|423:3|417:2|414:2|405:2,1,20,2|0,3:0|0:0,0:0:0:0:
322,13,196672,2,0,B|332:16|334:16|344:13|354:17|359:25|360:36|350:48|348:57,1,60,10|0,3:0|0:0,0:0:0:0:
341,69,197014,2,0,B|336:78|336:78|337:81|339:93,1,20,10|0,1:0|0:0,0:0:0:0:
321,164,197186,2,0,B|334:162|338:152|339:142|332:132|301:129,1,60,2|0,0:0|0:0,0:0:0:0:
268,132,197530,2,0,B|257:137|256:138|251:137|244:134,1,20,10|0,3:0|0:0,0:0:0:0:
178,112,197703,2,0,B|182:100|190:99|193:99|197:102|200:107|200:113|196:123|190:130|181:133|166:131|159:129,1,60,2|0,3:0|0:0,0:0:0:0:
126,129,198050,2,0,B|119:133|115:133|110:130|109:125|109:120|109:113|105:109|99:106|94:105|87:104|81:105|75:107|72:114,1,60,10|0,3:0|0:0,0:0:0:0:
46,121,198388,2,0,B|39:127|39:128|40:136|41:139|43:142,1,20,2|0,3:0|0:0,0:0:0:0:
30,98,198557,2,0,B|25:93|23:92|21:88|22:78|24:73,1,20,2|0,3:0|0:0,0:0:0:0:
38,229,198726,54,0,L|25:286,1,55.0000005245209,14|0,1:0|0:0,0:0:0:0:
117,214,198904,2,0,L|106:154,1,55.0000005245209,0|0,3:0|0:0,0:0:0:0:
39,242,199082,2,0,L|34:300,1,55.0000005245209,0|0,3:0|0:0,0:0:0:0:
105,186,199260,2,0,L|52:171,1,55.0000005245209,8|0,3:0|0:0,0:0:0:0:
71,256,199438,2,0,L|71:318,1,55.0000005245209,2|0,3:0|0:0,0:0:0:0:
121,177,199613,2,0,L|184:165,1,55.0000005245209,0|0,3:0|0:0,0:0:0:0:
64,378,199788,2,0,L|7:385,1,55.0000005245209,8|0,1:1|0:0,0:0:0:0:
208,180,199964,2,0,L|233:120,1,55.0000005245209,0|0,3:0|0:0,0:0:0:0:
205,264,200139,2,0,L|163:305,1,55.0000005245209,10|0,3:0|0:0,0:0:0:0:
288,159,200310,2,0,L|237:132,1,55.0000005245209,8|0,3:0|0:0,0:0:0:0:
275,249,200482,2,0,L|300:303,1,55.0000005245209,0|0,3:0|0:0,0:0:0:0:
305,123,200654,2,0,L|238:122,1,55.0000005245209,8|0,3:0|0:0,0:0:0:0:
345,215,200826,2,0,L|383:165,1,55.0000005245209,2|0,3:0|0:0,0:0:0:0:
331,87,200998,2,0,L|389:58,1,55.0000005245209,0|0,3:0|0:0,0:0:0:0:
408,290,201170,2,0,L|351:308,1,55.0000005245209,8|0,1:0|0:0,0:0:0:0:
411,73,201342,2,0,L|374:29,1,55.0000005245209,0|0,3:0|0:0,0:0:0:0:
459,157,201514,2,0,L|403:122,1,55.0000005245209,10|0,3:0|0:0,0:0:0:0:
494,84,201688,2,0,L|519:26,1,55.0000005245209,8|0,3:0|0:0,0:0:0:0:
449,186,201862,2,0,L|400:222,1,55.0000005245209,0|0,3:0|0:0,0:0:0:0:
509,163,202037,2,0,L|455:135,1,55.0000005245209,0|0,3:0|0:0,0:0:0:0:
435,252,202211,2,0,L|373:244,1,55.0000005245209,10|0,3:0|0:0,0:0:0:0:
499,283,202383,2,0,L|533:220,1,55.0000005245209,8|0,3:0|0:0,0:0:0:0:
324,155,202556,2,0,L|288:109,1,55.0000005245209,8|0,1:0|0:0,0:0:0:0:
462,333,202729,2,0,L|478:392,1,55.0000005245209,0|0,3:0|0:0,0:0:0:0:
325,310,202902,2,0,L|385:292,1,55.0000005245209,10|0,3:0|0:0,0:0:0:0:
381,383,203077,2,0,L|317:373,1,55.0000005245209,0|0,3:0|0:0,0:0:0:0:
276,277,203252,2,0,L|271:220,1,55.0000005245209,0|0,3:0|0:0,0:0:0:0:
236,355,203428,2,0,L|150:368,1,55.0000005245209,8|0,3:0|0:0,0:0:0:0:
195,228,203603,2,0,L|283:212,1,55.0000005245209,2|0,3:0|0:0,0:0:0:0:
168,313,203781,2,0,L|123:347,1,55.0000005245209,0|0,3:0|0:0,0:0:0:0:
34,113,203960,2,0,L|-3:63,1,55.0000005245209,8|0,1:0|0:0,0:0:0:0:
29,294,204138,2,0,L|-1:347,1,55.0000005245209,0|0,3:0|0:0,0:0:0:0:
162,114,204317,69,14,1:0:0:0:
167,113,204493,1,0,3:0:0:0:
189,106,204669,1,2,3:0:0:0:
194,105,204845,1,8,3:0:0:0:
219,99,205022,1,2,3:0:0:0:
224,98,205196,1,0,3:0:0:0:
138,44,205371,1,10,3:0:0:0:
138,44,205546,2,0,L|128:68,1,20,0|0,3:0|3:0,3:0:0:0:
55,94,205721,21,10,3:0:0:0:
50,113,205890,1,0,3:0:0:0:
71,185,206060,1,2,3:0:0:0:
75,202,206229,1,8,3:0:0:0:
36,265,206400,1,10,3:0:0:0:
33,282,206572,1,0,3:0:0:0:
185,368,206744,1,10,3:0:0:0:
185,368,206917,1,8,3:0:0:0:
355,273,207089,21,10,3:0:0:0:
279,273,207258,1,8,3:0:0:0:
202,249,207427,1,10,3:0:0:0:
374,253,207597,5,8,1:0:0:0:
251,190,207766,1,10,3:0:0:0:
353,145,207930,1,0,3:0:0:0:
418,309,208094,53,10,3:0:0:0:
464,193,208259,1,8,3:0:0:0:
275,282,208423,1,8,3:0:0:0:
504,278,208594,1,10,3:0:0:0:
427,109,208766,1,8,3:0:0:0:
323,352,208938,1,8,3:0:0:0:
510,128,209110,5,10,1:0:0:0:
248,182,209284,1,8,1:0:0:0:
451,384,209459,1,8,1:0:0:0:
478,50,209634,1,8,1:0:0:0:
211,358,209809,54,0,B|187:368|172:372|161:370|139:364|133:353|127:341|112:329|129:323|118:312|120:270|118:311|119:269|184:275|191:228|132:208|116:207|84:200|61:205|45:213|32:227|27:242|29:261|39:279|50:288|65:274|69:270|72:264|71:259|66:254,1,350,12|0,1:0|0:0,0:0:0:0:
87,198,210595,2,0,B|103:162|107:152|110:108,1,90.0000034332277,12|0,3:0|0:0,0:0:0:0:
49,29,210938,2,0,P|45:10|41:-5,1,30,0|0,3:3|0:0,0:0:0:0:
183,0,211282,5,2,3:0:0:0:
278,121,211454,2,0,B|309:125|335:130|374:125,1,80,0|0,3:0|0:0,0:0:0:0:
512,117,211973,2,0,B|462:92|452:134|464:173,1,90.0000034332277,14|0,1:0|0:0,0:0:0:0:
470,184,212319,2,0,P|473:203|473:219,1,30,2|0,3:3|0:0,0:0:0:0:
512,384,212666,5,2,3:0:0:0:
381,265,212836,2,0,B|339:269|315:282|293:294,1,80,0|0,3:0|0:0,0:0:0:0:
223,374,213349,2,0,B|116:399|223:401|111:370,1,120,14|0,1:0|0:0,0:0:0:0:
29,382,213704,2,0,P|9:382|-4:386,1,30,2|0,3:3|0:0,0:0:0:0:
0,218,214059,69,2,3:0:0:0:
178,234,214227,2,0,B|202:216|217:189|212:159,1,80,0|0,3:0|3:0,3:0:0:0:
65,3,214731,2,0,B|53:40|106:55|139:22,1,90.0000034332277,6|0,1:0|0:0,0:0:0:0:
147,20,215073,2,0,B|162:16|162:16|182:12,1,30,2|0,3:0|0:0,0:0:0:0:
206,15,215416,6,0,B|234:15|253:11|301:26|323:67,1,120,6|0,3:0|3:0,0:0:0:0:
322,197,216099,2,0,B|335:216|327:254|301:256|272:253|255:227,1,90.0000034332277,14|0,1:0|0:0,0:0:0:0:
254,235,216437,2,0,B|245:233|242:233|220:234,1,30,2|0,3:0|0:0,0:0:0:0:
452,100,216776,2,0,B|462:83|463:66|457:26|402:-6,1,120,6|0,3:0|3:0,0:0:0:0:
507,168,217461,2,0,B|515:199|517:208|512:220|506:228|497:253|501:265,1,90.0000034332277,14|0,1:0|0:0,0:0:0:0:
492,277,217807,2,0,B|491:286|490:293|492:296|495:310,1,30,2|0,3:0|0:0,0:0:0:0:
507,384,218154,70,0,B|492:373|467:365|380:370,1,120,2|0,3:0|3:0,0:0:0:0:
262,257,218818,2,0,B|275:246|293:241|307:245|316:256|321:276|321:294|319:307|314:312,1,90.0000034332277,14|0,1:0|0:0,0:0:0:0:
310,317,219168,2,0,P|304:334|304:348,1,30,2|0,3:0|0:0,0:0:0:0:
141,380,219519,6,0,B|125:365|123:348|125:320|147:299|174:297|205:306|217:327|217:347|200:364|184:372|166:365|163:348|174:337|186:335|189:335,1,180.000006866455,6|0,3:3|3:0,0:0:0:0:
0,256,220181,2,0,B|5:260|6:265|4:271|0:274|-1:274|-10:272|-21:262|-22:256|-24:243|-14:229|3:220|25:220|50:226|61:250|64:273|58:302|35:320|25:325,1,150,14|0,1:1|0:0,0:0:0:0:
54,311,220519,2,0,B|37:308|34:305|31:296|32:283|39:274|51:266|63:265|74:266|81:269|90:274|107:266|107:244|108:241|108:235|106:228|104:220|102:210,1,120,0|0,3:0|0:0,0:0:0:0:
54,87,220857,70,0,B|66:76|88:70|123:68,1,71.9999978027344,6|0,3:0|3:0,0:0:0:0:
274,0,221582,2,0,B|257:1|250:9|251:20|256:32|264:48|277:53|290:53|311:50,1,90.0000034332277,14|0,1:1|0:0,0:0:0:0:
322,60,221924,2,0,B|337:62|337:62|358:61,1,30,2|0,3:3|0:0,0:0:0:0:
424,2,222267,5,2,3:0:0:0:
491,123,222437,2,0,B|501:145|503:164|498:188|490:201,1,80,0|0,3:0|0:0,0:0:0:0:
323,199,222950,2,0,B|334:198|342:206|351:209|357:223|354:248|346:261|332:277,1,90.0000034332277,6|0,1:1|0:0,0:0:0:0:
313,288,223293,2,0,L|275:294,1,30,2|0,3:3|0:0,0:0:0:0:
234,384,223637,69,2,3:0:0:0:
95,307,223804,2,0,B|80:300|69:295|62:294|14:297,1,80,0|0,3:0|0:0,0:0:0:0:
222,288,224305,2,0,B|231:285|242:278|246:260|247:247|244:238|244:221|230:210,1,90.0000034332277,6|0,1:1|0:0,0:0:0:0:
204,202,224655,2,0,P|218:198|240:198,1,30,2|0,3:3|0:0,0:0:0:0:
381,259,225006,5,2,3:0:0:0:
350,99,225206,2,0,B|323:97|297:84|263:79,1,80,0|0,3:0|0:0,0:0:0:0:
135,16,225665,2,0,B|145:30|149:42|140:62|125:74|112:78|94:75|79:70|74:64,1,90.0000034332277,14|0,1:1|0:0,0:0:0:0:
72,60,226008,70,0,P|88:69|93:81,1,30,6|0,3:0|0:0,0:0:0:0:
26,129,226352,2,0,B|31:137|39:150|45:162|45:183|19:187|-3:196|0:234|-1:237,1,120,6|0,3:0|3:3,0:0:0:0:
133,361,227045,2,0,B|131:352|122:346|109:346|100:350|90:356|81:362|72:368|46:369,1,90.0000034332277,14|0,1:1|0:0,0:0:0:0:
29,368,227394,2,0,B|21:365|21:365|10:364|-2:366,1,30,2|0,3:3|0:0,0:0:0:0:
91,279,227744,2,0,B|107:267|136:275|150:261|160:237|207:247,1,120,2|0,3:0|3:0,0:0:0:0:
279,339,228414,2,0,B|293:366|314:371|328:339|332:326|376:336,1,90.0000034332277,14|0,1:1|0:0,0:0:0:0:
377,334,228756,2,0,B|395:334|395:334|408:339,1,30,2|0,3:3|0:0,0:0:0:0:
475,384,229099,2,0,B|489:369|499:353|499:334|498:288|489:257,1,120,6|0,3:0|3:3,0:0:0:0:
438,136,229773,2,0,B|444:148|436:164|421:174|386:179|348:165,1,90.0000034332277,14|0,1:1|0:0,0:0:0:0:
351,153,230107,2,0,P|331:151|316:152,1,30,2|0,3:0|0:0,0:0:0:0:
225,204,230441,1,6,3:0:0:0:
80,309,230652,37,8,1:0:0:0:
137,235,230758,5,8,1:0:0:0:
130,156,230864,69,8,1:0:0:0:
60,137,230970,5,8,1:0:0:0:
0,157,231075,69,8,3:0:0:0:
9,171,231184,1,8,3:0:0:0:
23,174,231294,1,8,3:0:0:0:
29,170,231404,1,0,3:0:0:0:
23,167,231514,1,0,3:0:0:0:
28,172,231624,1,0,3:0:0:0:
116,92,231734,70,0,B|90:81|43:76|-5:101,1,120,4|0,3:0|3:0,0:0:0:0:
44,15,232404,2,0,P|61:12|73:13,1,20,10|0,1:0|0:0,0:0:0:0:
0,332,232751,6,0,B|17:334|36:333|49:310|76:296|89:246|62:236,1,120.000004577637,6|2,3:0|0:0,0:0:0:0:
189,382,233256,2,0,B|204:384|208:385|220:384|231:384,1,30.0000011444092,0|2,3:0|0:0,0:0:0:0:
409,283,233571,1,8,3:0:0:0:
281,245,233728,2,0,B|269:243|261:233|288:226|296:223|316:237|272:264|313:297,1,90.0000034332277,6|0,3:0|0:0,0:0:0:0:
322,296,234059,1,10,3:0:0:0:
345,135,234225,1,8,3:0:0:0:
205,297,234390,70,0,B|191:306|180:292|165:307,1,38.9999982147218,6|0,3:0|0:0,0:0:0:0:
151,320,234732,1,10,1:0:0:0:
4,224,234904,2,0,B|22:229|40:229|40:229|66:227|99:192,1,107.999996704102,0|0,3:0|0:0,0:0:0:0:
97,165,235240,1,8,3:0:0:0:
6,21,235405,2,0,B|-30:30|-22:-29|41:-17|49:26|56:44|81:49|113:34,1,143.999995605469,6|0,3:0|0:0,0:0:0:0:
115,19,235736,1,10,3:0:0:0:
248,172,235900,2,0,B|256:189|274:188|281:165|270:155|269:128|239:123,1,90.0000034332277,0|0,3:0|0:0,0:0:0:0:
224,111,236230,1,8,1:0:0:0:
239,335,236395,2,0,B|261:345|263:318|234:299|207:299|183:330|210:363|191:386|152:383|113:382,1,162.000000617981,6|0,3:0|0:0,0:0:0:0:
112,371,236730,1,10,3:0:0:0:
332,255,236897,1,8,3:0:0:0:
444,384,237065,6,0,B|454:374|460:369|459:364|454:360|449:360|447:348|447:333|454:321,1,64.9999970245363,6|0,3:0|0:0,0:0:0:0:
464,308,237572,1,0,3:0:0:0:
473,187,237741,2,0,B|484:179|479:172|456:163|439:168|402:184|388:195|383:160,1,102.000001945496,10|0,1:0|0:0,0:0:0:0:
371,159,238079,2,0,B|368:165|359:174|350:173|339:158|325:153|310:168,1,64.9999970245363,2|0,3:0|0:0,0:0:0:0:
291,184,238582,2,0,P|277:185|267:184,1,20,0|0,3:0|0:0,0:0:0:0:
148,95,238912,69,8,3:0:0:0:
198,11,239077,2,0,B|219:5|212:0|177:-16|159:9|159:41|235:67|234:26|251:26|281:22|285:24|297:36,1,150,6|0,3:0|0:0,0:0:0:0:
305,36,239409,1,2,0:0:0:0:
316,54,239575,1,0,3:0:0:0:
403,112,239741,22,0,B|414:125|414:125|383:223,1,120.000004577637,8|8,1:0|3:0,0:0:0:0:
384,229,239998,1,8,3:0:0:0:
386,237,240055,1,8,3:0:0:0:
388,246,240112,1,8,3:0:0:0:
443,317,240228,2,0,B|434:304|434:304|347:338,1,102.000001945496,12|0,3:0|0:0,0:0:0:0:
341,335,240495,1,8,3:0:0:0:
333,333,240550,1,8,3:0:0:0:
320,332,240606,1,8,3:0:0:0:
256,281,240715,2,0,B|245:261|245:261|224:368,1,113.999996955872,12|0,3:0|0:0,0:0:0:0:
222,363,240967,1,8,3:0:0:0:
217,353,241030,1,8,3:0:0:0:
211,338,241093,1,8,3:0:0:0:
139,368,241187,2,0,B|153:370|149:389|112:395|87:360|93:310|174:299|188:289|169:238,1,174.000005310059,12|0,3:0|0:0,0:0:0:0:
158,237,241478,1,8,1:0:0:0:
43,189,241641,70,0,B|53:184|60:182|69:183|86:183,1,35.9999989013672,4|0,3:0|0:0,0:0:0:0:
102,187,241976,1,8,1:0:0:0:
254,150,242143,1,8,1:0:0:0:
412,111,242311,2,0,B|423:116|427:114|432:104|432:93|427:79|410:70|384:71|368:98|369:115|376:128|390:129|397:135|406:152|392:168,1,140,4|0,3:0|0:0,0:0:0:0:
396,172,242988,1,8,1:0:0:0:
498,84,243150,1,2,0:0:0:0:
337,56,243313,2,0,B|321:54|294:59,1,35.9999989013672,4|0,3:0|0:0,0:0:0:0:
254,103,243638,69,8,1:1:0:0:
173,221,243807,2,0,B|163:217|163:217|136:218|136:218|126:217,1,40,0|8,3:0|3:0,0:0:0:0:
69,301,244314,2,0,L|70:295,1,6,4|0,3:3|0:0,0:0:0:0:
84,282,244644,5,0,3:3:0:0:
29,354,244809,1,0,3:3:0:0:
14,217,244975,2,0,B|6:169|-3:42|165:277|-3:42|132:105|172:130,1,225.000008583069,4|0,3:3|0:0,0:0:0:0:
173,141,246412,2,0,B|194:140|201:135|222:135,1,47.9999985351563,0|0,0:1|0:0,0:0:0:0:
169,20,247101,21,2,3:0:0:0:
153,11,247636,1,2,3:0:0:0:
157,28,248157,1,2,3:0:0:0:
177,24,248665,1,2,3:0:0:0:
40,75,248841,5,0,3:0:0:0:
79,149,249017,1,0,3:0:0:0:
42,231,249194,2,0,B|31:251|31:252|35:320,1,90.0000034332277,4|0,3:0|3:0,0:0:0:0:
216,382,249895,5,0,3:0:0:0:
181,313,250071,1,0,3:0:0:0:
253,217,250247,2,0,B|289:206|293:196|285:147,1,90.0000034332277,4|0,3:0|3:0,0:0:0:0:
213,87,250924,2,0,B|206:84|205:80|215:36,1,45.0000017166138,0|0,3:0|0:0,0:0:0:0:
231,17,251281,2,0,B|229:10|229:10|192:16,1,40,4|0,3:1|3:0,0:0:0:0:
142,48,251816,1,0,3:0:0:0:
46,37,251995,22,0,B|34:32|48:21|59:31|67:62|67:88|56:107|33:90|16:131|23:141,1,132.999996448517,4|0,3:0|0:0,0:0:0:0:
21,155,252724,2,0,P|26:180|33:216,1,60,2|0,3:0|3:0,0:0:0:0:
66,202,253362,2,0,P|60:227|56:258,1,45.0000017166138,2|0,3:0|0:0,0:0:0:0:
45,258,253704,2,0,P|44:273|46:308,1,45.0000017166138,0|0,3:0|0:0,0:0:0:0:
88,365,254047,2,0,B|93:370|99:381|99:381|141:376|202:375,1,120,2|0,3:0|0:0,0:0:0:0:
205,353,254748,2,0,P|218:350|245:346,1,33.0000010070801,0|0,3:0|0:0,0:0:0:0:
252,366,255088,2,0,P|265:369|280:372,1,26.9999991760254,2|0,3:0|0:0,0:0:0:0:
315,337,255429,22,0,B|298:333|258:335|232:349,1,80,0|0,0:3|0:0,0:0:0:0:
214,324,255956,1,0,0:0:0:0:
225,263,256132,2,0,L|274:264,1,48,12|0,3:0|3:0,0:0:0:0:
385,219,256821,21,8,3:0:0:0:
382,204,256987,1,8,3:0:0:0:
376,184,257154,2,0,B|371:158|371:158|358:144|358:144|351:115,1,60,12|0,3:0|0:0,0:0:0:0:
348,106,257487,5,8,1:0:0:0:
328,281,257659,1,8,1:0:0:0:
512,266,257831,1,8,3:3:0:0:
377,187,258004,1,8,3:3:0:0:
398,346,258176,1,0,3:3:0:0:
444,240,258347,1,0,3:3:0:0:
360,259,258518,1,0,3:3:0:0:
423,319,258690,1,0,3:3:0:0:
402,295,258861,54,0,B|400:249|445:221|445:221|421:178|448:151|431:140|431:140|409:112|367:152|380:114|380:114|357:79|357:79|392:69|396:41|396:41|376:25,1,360.000013732911,4|0,3:3|0:0,0:0:0:0:
510,180,259586,1,8,1:1:0:0:
510,180,259933,53,2,3:3:0:0:
274,241,260107,1,2,3:3:0:0:
130,58,260281,2,0,B|108:57|112:31|112:31|169:56|226:32|226:32|211:89|211:89|157:79|188:139|110:116|110:116|126:166|152:205|152:205|119:231|149:264,1,480,12|0,3:0|0:0,0:0:0:0:
438,319,261008,1,8,1:1:0:0:
438,319,261346,21,2,3:3:0:0:
180,367,261516,1,2,3:3:0:0:
330,211,261685,2,0,B|358:230|397:200|397:200|357:216|319:191|319:191|322:151|272:120|272:120|246:198|163:181|163:181|205:222|251:227|251:227|229:254|247:297|247:297|309:295,1,560,12|0,3:0|0:0,0:0:0:0:
322,335,262392,53,8,1:1:0:0:
272,120,262562,1,2,3:3:0:0:
173,269,262732,1,2,3:3:0:0:
396,200,262903,1,2,3:3:0:0:
90,139,263073,2,0,B|56:124|24:164|24:164|23:139|-15:140|-15:140|21:128|42:105|42:105|72:94|67:70|67:70|127:51|127:51|115:40|115:40,1,320,12|8,1:1|1:1,0:0:0:0:
511,163,263573,2,0,B|500:171|511:162|511:162|506:177|513:185|513:185|464:185|452:223|452:223|418:193|413:197|413:197|385:202|364:176|364:176|365:135|398:123|398:123|414:138|419:133|419:133|413:124,1,320,12|0,3:0|0:0,0:0:0:0:
293,280,264090,38,0,B|290:312|272:322|272:322|272:338|286:346|286:346|287:387,1,90.0000034332277,2|0,3:1|0:0,0:0:0:0:
305,383,264419,1,8,1:1:0:0:
174,230,264584,2,0,B|176:216|176:208|161:206|148:208|140:215|135:226|130:237|120:242|115:241|104:233,1,77.9999964294435,12|0,3:0|0:0,0:0:0:0:
121,348,264928,1,8,1:1:0:0:
390,354,265101,2,0,B|405:341|412:337|414:341|418:346|422:347|424:343,1,40,12|0,3:0|0:0,0:0:0:0:
437,182,265448,37,8,3:3:0:0:
247,255,265622,1,8,3:3:0:0:
365,148,265796,2,0,B|394:107|454:111|454:111|460:116|460:116|461:103|461:103|456:107|456:107|417:104|405:87|405:87|391:68|354:57|354:57|305:68|312:92|312:92|297:131|254:140|254:140|250:149|250:149|254:140|254:140|225:114|227:83|227:83|236:63|236:63|231:44|231:44|171:64|151:106|151:106|100:138|28:69,1,666.666666666667,12|0,3:3|0:0,0:0:0:0:
287,14,266495,21,8,1:1:0:0:
328,255,266665,1,2,3:3:0:0:
157,164,266836,1,2,3:3:0:0:
387,136,267007,1,2,3:3:0:0:
222,334,267178,54,0,B|252:303|286:311|286:311|253:304|223:264|223:264|167:291|108:251|108:251|169:217|128:184|157:163|157:163|246:223|223:169|291:199|291:199|281:184|281:184|343:204|388:135|388:135,1,666.666666666667,12|0,1:1|0:0,0:0:0:0:
0,305,267885,1,8,1:1:0:0:
0,305,268231,21,2,3:3:0:0:
228,210,268405,1,2,3:3:0:0:
54,27,268578,2,0,B|28:79|-19:76|-19:76|49:71|89:105|89:105|126:82|138:44|138:44|169:47|183:61|183:61|211:63|231:45|231:45|232:80|247:104|247:104|211:116|207:146|207:146|260:141|298:158|298:158|305:177|320:190|320:190|296:199|297:227|297:227|309:221|300:269|300:269,1,735.999992513021,12|0,3:3|0:0,0:0:0:0:
313,96,269272,53,8,1:1:0:0:
130,175,269442,1,2,3:3:0:0:
367,233,269612,1,2,3:3:0:0:
263,384,269783,1,2,3:3:0:0:
62,104,269953,2,0,B|12:76|-8:28|-8:28|46:44|73:10|73:10|81:73|136:97|136:97|131:131|154:161|154:161|114:161|109:184|109:184|84:179|84:179,1,450.666646036785,12|8,1:1|1:0,0:0:0:0:
459,122,270470,2,0,B|466:61|523:44|523:44|507:79|503:109|529:143|529:143|498:167|513:198|513:198|486:193|467:194|467:194|470:205|470:218|470:218|437:208|423:195|423:195|395:185|387:160|387:160|367:171|339:162|339:162,1,482.666686306424,12|0,3:0|3:0,0:0:0:0:
255,222,270987,6,0,L|282:226,1,26.9999991760254,6|0,3:0|0:0,0:0:0:0:
216,151,271320,70,0,L|197:173,4,25,4|0|8|8|8,3:0|3:0|3:0|3:0|3:0,3:0:0:0:
181,88,271719,5,8,1:0:0:0:
165,66,271783,1,8,1:0:0:0:
167,46,271847,1,8,1:0:0:0:
143,35,271911,1,8,1:0:0:0:
136,8,271975,22,0,L|107:-2,1,25,10|8,1:0|1:0,0:0:0:0:
33,85,272104,2,0,L|62:88,1,25,2|0,3:0|3:0,0:0:0:0:
92,196,272228,37,0,3:0:0:0:
84,186,272288,1,0,3:0:0:0:
63,179,272349,1,0,3:0:0:0:
37,187,272409,1,0,3:0:0:0:
25,213,272470,1,0,3:0:0:0:
43,241,272530,1,0,3:0:0:0:
74,251,272591,1,0,3:0:0:0:
98,245,272651,38,0,B|168:213|188:272|191:273|194:274|228:329|328:356|358:315|356:244|320:221|280:226,1,350,12|0,3:0|0:0,0:0:0:0:
272,246,273319,2,0,P|284:260|305:203,1,120,2|0,3:0|0:0,0:0:0:0:
274,154,273662,2,0,B|296:84|251:106|265:41,1,100,14|0,3:0|0:0,0:0:0:0:
397,0,274178,2,0,B|449:32|390:51|456:88,1,90.0000034332277,0|0,3:0|0:0,0:0:0:0:
461,78,274524,5,0,3:0:0:0:
200,36,274697,2,0,B|164:20|145:18|112:47|105:98|50:120|4:69,1,200,14|0,1:0|0:0,0:0:0:0:
15,60,275209,2,0,P|0:36|-2:24,1,30.0000011444092,0|2,3:0|0:0,0:0:0:0:
0,275,275536,69,8,3:0:0:0:
180,139,275693,2,0,B|237:109|305:128|307:176|250:169,1,132.00000402832,6|0,3:0|0:0,0:0:0:0:
260,178,276006,1,10,1:0:0:0:
277,48,276172,1,0,3:0:0:0:
105,321,276339,5,2,3:2:0:0:
208,352,276506,1,0,3:2:0:0:
285,278,276670,2,0,B|332:243|342:239|411:237,1,120,6|0,3:0|3:0,0:0:0:0:
473,368,277331,2,0,B|508:321|512:311|513:258,1,120,10|0,1:0|0:0,0:0:0:0:
475,100,277677,2,0,B|478:74|480:67|503:51,1,60.0000022888184,6|2,3:0|0:0,0:0:0:0:
363,20,278184,2,0,B|331:39|296:39,1,60,0|0,3:0|0:0,0:0:0:0:
161,28,278506,69,0,3:0:0:0:
158,18,278587,1,0,3:0:0:0:
163,0,278667,2,0,B|190:42|143:105|210:171,1,143.999995605469,14|0,1:0|0:0,0:0:0:0:
211,144,279003,1,10,1:0:0:0:
62,260,279171,2,0,L|17:259,1,35.9999989013672,0|0,3:0|0:0,0:0:0:0:
1,258,279499,1,8,3:0:0:0:
39,384,279659,1,2,3:0:0:0:
39,384,279980,69,10,1:0:0:0:
2,182,280145,1,0,3:0:0:0:
122,343,280310,21,10,3:0:0:0:
145,234,280475,1,8,3:0:0:0:
268,232,280641,2,0,B|297:247|304:249|355:245|355:206|356:180|381:180,1,140,14|0,3:0|0:0,0:0:0:0:
404,173,281303,2,0,B|435:175|468:189|474:216|455:274|428:235|403:267|421:312,1,180.000006866455,14|0,1:0|0:0,0:0:0:0:
440,322,281648,2,0,L|457:325,1,16,2|2,0:0|0:0,0:0:0:0:
329,380,282149,2,0,L|310:383,1,17.9999994506836,0|0,3:0|0:0,0:0:0:0:
218,342,282461,69,0,3:0:0:0:
209,334,282539,1,0,3:0:0:0:
200,315,282617,2,0,B|176:260|225:252|186:184,1,120,10|0,1:0|0:0,0:0:0:0:
177,184,282963,1,10,1:0:0:0:
0,270,283137,2,0,B|53:190|-16:208|42:118,1,160,0|0,3:0|3:0,0:0:0:0:
90,347,283627,1,10,3:0:0:0:
90,347,283944,69,6,3:0:0:0:
168,122,284106,1,0,3:0:0:0:
249,286,284268,21,10,3:0:0:0:
237,188,284430,1,8,3:0:0:0:
300,98,284592,2,0,B|335:72|422:86,1,120,6|0,3:0|3:0,0:0:0:0:
427,237,285293,2,0,B|397:248|400:268|412:296|421:297|442:287|462:293|466:346,1,120,10|0,1:0|0:0,0:0:0:0:
471,351,285624,2,0,L|436:349,1,30,10|0,3:0|0:0,0:0:0:0:
351,363,285955,1,10,3:0:0:0:
290,305,286125,2,0,L|210:320,1,80,0|0,3:0|3:0,0:0:0:0:
202,322,286638,2,0,B|217:297|222:279|218:237|190:228|171:206|205:163,1,167.999994873047,6|0,3:0|0:0,0:0:0:0:
218,156,287365,38,0,B|190:171|156:176|143:84|222:46|286:93|321:155|346:201|387:232|452:224|502:169,1,408.000007781983,2|0,3:1|3:0,0:0:0:0:
506,182,289991,70,0,L|479:187,1,24,8|0,3:0|3:0,0:0:0:0:
474,176,290672,1,0,3:0:0:0:
467,182,291018,1,8,3:0:0:0:
451,187,291518,1,0,3:0:0:0:
431,181,291684,1,0,3:0:0:0:
425,194,291854,2,0,L|410:195,1,16,0|8,3:0|3:0,0:0:0:0:
401,185,292235,2,0,L|366:188,1,32,0|8,3:0|3:0,0:0:0:0:
361,178,293273,1,8,3:0:0:0:
349,199,293790,1,8,3:0:0:0:
341,191,294322,1,0,3:0:0:0:
327,188,294492,1,0,3:0:0:0:
315,199,294663,2,0,L|296:196,1,15.9999995117188,0|8,3:0|3:0,0:0:0:0:
293,193,295038,2,0,L|260:196,1,32,0|8,3:0|3:0,0:0:0:0:
251,196,296073,1,8,3:0:0:0:
245,193,296245,1,8,3:0:0:0:
235,210,296590,1,8,3:0:0:0:
225,194,297116,1,8,3:0:0:0:
215,209,297286,1,8,3:0:0:0:
206,212,297456,2,0,L|189:213,1,15.9999995117188,0|8,3:0|3:0,0:0:0:0:
176,201,297812,1,0,3:0:0:0:
166,208,298354,1,8,3:0:0:0:
158,186,298886,1,0,3:0:0:0:
149,183,299061,1,0,3:0:0:0:
139,200,299411,1,8,3:0:0:0:
131,189,299943,1,8,3:0:0:0:
109,180,300279,1,0,3:0:0:0:
101,185,300447,1,8,3:0:0:0:
99,204,300639,2,0,L|67:198,1,32,0|8,3:0|3:0,0:0:0:0:
64,185,301701,1,0,3:0:0:0:
47,222,302081,5,2,3:0:0:0:
44,235,302319,1,2,3:0:0:0:
52,259,302613,1,2,3:0:0:0:
80,272,302856,1,2,3:0:0:0:
105,315,303150,1,2,3:0:0:0:
68,384,303483,1,6,3:0:0:0:
256,192,303615,12,0,309854,0:0:0:0:
