osu file format v14

[General]
AudioFilename: audio.ogg
AudioLeadIn: 0
PreviewTime: 95114
Countdown: 0
SampleSet: Soft
StackLeniency: 0.7
Mode: 0
LetterboxInBreaks: 0
WidescreenStoryboard: 1

[Editor]
DistanceSpacing: 0.7
BeatDivisor: 4
GridSize: 8
TimelineZoom: 2.7

[Metadata]
Title:Schism
TitleUnicode:Schism
Artist:TOOL
ArtistUnicode:TOOL
Creator:1103
Version:big chungus' ANOTHER
Source:
Tags:pdet Lateralus Honeysticks English metal The Washedup Big Chungus Player washedup_player big_chungus
BeatmapID:3872045
BeatmapSetID:1791083

[Difficulty]
HPDrainRate:3.9
CircleSize:5
OverallDifficulty:7.9
ApproachRate:9
SliderMultiplier:1
SliderTickRate:1

[Events]
//Background and Video events
0,0,"1273045.jpg",0,0
//Break Periods
2,212676,241362
//Storyboard Layer 0 (Background)
//Storyboard Layer 1 (Fail)
//Storyboard Layer 2 (Pass)
//Storyboard Layer 3 (Foreground)
//Storyboard Layer 4 (Overlay)
//Storyboard Sound Samples

[TimingPoints]
227,909.090909090909,5,2,1,40,1,0
5093,909.090909090909,5,2,1,40,1,0
11823,272.727272727273,7,2,1,40,1,0
13446,272.727272727273,7,2,1,40,1,0
13725,271.493212669683,5,2,1,50,1,0
15082,277.777777777778,7,2,1,50,1,0
17030,276.497695852535,5,2,1,50,1,0
18412,277.777777777778,7,2,1,50,1,0
20356,277.777777777778,5,2,1,50,1,0
21744,279.06976744186,7,2,1,50,1,0
23697,279.06976744186,5,2,1,50,1,0
25092,277.777777777778,7,2,1,50,1,0
27036,280.373831775701,5,2,1,55,1,0
27036,-83.3333333333333,5,2,1,55,0,0
28157,-100,5,2,1,55,0,0
28437,277.777777777778,7,2,1,55,1,0
28992,-83.3333333333333,7,2,1,55,0,0
30103,-100,7,2,1,55,0,0
30381,277.777777777778,5,2,1,55,1,0
30381,-83.3333333333333,5,2,1,55,0,0
31492,-100,5,2,1,55,0,0
31769,275.229357798165,7,2,1,55,1,0
31769,-83.3333333333333,7,2,1,55,0,0
32801,-83.3333333333333,7,2,1,5,0,0
32869,-83.3333333333333,7,2,1,55,0,0
33420,-100,7,2,1,55,0,0
33695,280.373831775701,5,2,1,55,1,0
33695,-83.3333333333333,5,2,1,55,0,0
34816,-100,5,2,1,55,0,0
35096,277.777777777778,7,2,1,55,1,0
35096,-83.3333333333333,7,2,1,55,0,0
37040,276.497695852535,5,2,1,55,1,0
38422,276.497695852535,7,2,1,55,1,0
38422,-83.3333333333333,7,2,1,55,0,0
38974,-71.4285714285714,7,2,1,55,0,0
39458,-71.4285714285714,7,2,1,5,0,0
39527,-62.5,7,2,1,55,0,0
40080,-100,7,2,1,55,0,0
40357,280.373831775701,5,2,1,60,1,0
41758,279.06976744186,7,2,1,60,1,0
42804,-100,7,2,1,5,0,0
42874,-100,7,2,1,60,0,0
43711,279.06976744186,5,2,1,60,1,0
45106,279.06976744186,7,2,1,60,1,0
46152,-100,7,2,1,5,0,0
46222,-100,7,2,1,60,0,0
47059,283.018867924528,5,2,1,60,1,0
48474,281.69014084507,7,2,1,60,1,0
49530,-100,7,2,1,5,0,0
49600,-100,7,2,1,60,0,0
50445,280.373831775701,5,2,1,60,1,0
51846,279.06976744186,7,2,1,60,1,0
52892,-100,7,2,1,5,0,0
52962,-100,7,2,1,60,0,0
53799,281.69014084507,5,2,1,60,1,0
53799,-83.3333333333333,5,2,1,60,0,0
55207,280.373831775701,7,2,1,60,1,0
57169,281.69014084507,5,2,1,60,1,0
58577,279.06976744186,7,2,1,60,1,0
59623,-100,7,2,1,5,0,0
59693,-100,7,2,1,60,0,0
60540,280.373831775701,5,2,1,60,1,0
60540,-71.4285714285714,5,2,1,60,0,0
61661,-100,5,2,1,60,0,0
61941,279.06976744186,7,2,1,60,1,0
62987,-100,7,2,1,5,0,0
63057,-100,7,2,1,60,0,0
63894,281.69014084507,5,2,1,60,1,0
63894,-71.4285714285714,5,2,1,60,0,0
64457,-100,5,2,1,60,0,0
65302,277.777777777778,7,2,1,60,1,0
66343,-100,7,2,1,5,0,0
66413,-100,7,2,1,60,0,0
67246,279.06976744186,5,2,1,60,1,0
67246,-76.9230769230769,5,2,1,60,0,0
68641,277.777777777778,7,2,1,60,1,0
68761,-76.9230769230769,7,2,1,60,0,0
69682,-76.9230769230769,7,2,1,5,0,0
69752,-76.9230769230769,7,2,1,60,0,0
70585,276.497695852535,5,2,1,60,1,0
70705,-76.9230769230769,5,2,1,60,0,0
71967,279.06976744186,7,2,1,60,1,0
72087,-76.9230769230769,5,2,1,60,0,0
73013,-76.9230769230769,5,2,1,5,0,0
73083,-76.9230769230769,5,2,1,60,0,0
73930,277.777777777778,5,2,1,60,1,0
74040,-76.9230769230769,5,2,1,60,0,0
75318,279.06976744186,7,2,1,60,1,0
75318,-76.9230769230769,5,2,1,60,0,0
76364,-76.9230769230769,5,2,1,5,0,0
76434,-76.9230769230769,5,2,1,60,0,0
77271,277.777777777778,5,2,1,60,1,0
77381,-76.9230769230769,5,2,1,60,0,0
78659,279.06976744186,7,2,1,60,1,0
78659,-76.9230769230769,5,2,1,60,0,0
79705,-76.9230769230769,5,2,1,5,0,0
79775,-76.9230769230769,5,2,1,60,0,0
80333,-66.6666666666667,5,2,1,60,0,0
80622,281.69014084507,6,2,1,69,1,0
80622,-66.6666666666667,6,2,1,69,0,0
81467,-62.5,6,2,1,69,0,0
82030,-66.6666666666667,6,2,1,69,0,0
82312,283.018867924528,7,2,1,69,1,0
82312,-71.4285714285714,7,2,1,69,0,0
84010,-66.6666666666667,7,2,1,69,0,0
84293,279.06976744186,6,2,1,69,1,0
84293,-66.6666666666667,6,2,1,69,0,0
85130,-62.5,6,2,1,69,0,0
85688,-66.6666666666667,6,2,1,69,0,0
85967,280.373831775701,7,2,1,69,1,0
85967,-71.4285714285714,7,2,1,69,0,0
87649,-66.6666666666667,7,2,1,69,0,0
87929,279.06976744186,6,2,1,69,1,0
87929,-66.6666666666667,6,2,1,69,0,0
88766,-62.5,6,2,1,69,0,0
89603,280.373831775701,7,2,1,69,1,0
89603,-71.4285714285714,7,2,1,69,0,0
91285,-66.6666666666667,7,2,1,69,0,0
91565,279.06976744186,6,2,1,69,1,0
91565,-66.6666666666667,6,2,1,69,0,0
92402,-62.5,6,2,1,69,0,0
92960,-66.6666666666667,6,2,1,69,0,0
93239,277.777777777778,7,2,1,69,1,0
93239,-71.4285714285714,7,2,1,69,0,0
95183,280.373831775701,5,2,1,60,1,0
96584,281.69014084507,7,2,1,60,1,0
97640,-100,7,2,1,5,0,0
97710,-100,7,2,1,60,0,0
98555,281.69014084507,5,2,1,60,1,0
99963,279.06976744186,7,2,1,60,1,0
101009,-100,7,2,1,5,0,0
101079,-100,7,2,1,60,0,0
101916,287.081339712919,5,2,1,60,1,0
103053,275.229357798165,5,2,1,60,1,0
103328,283.018867924529,7,2,1,60,1,0
104389,-100,7,2,1,5,0,0
104460,-100,7,2,1,60,0,0
105018,269.058295964126,7,2,1,60,1,0
105287,280.373831775701,5,2,1,60,1,0
106688,280.373831775701,7,2,1,60,1,0
107739,-100,7,2,1,5,0,0
107809,-100,7,2,1,60,0,0
108362,279.069767441861,7,2,1,60,1,0
108641,280.373831775701,5,2,1,60,1,0
110036,285.714285714286,7,2,1,60,1,0
111107,-100,7,2,1,5,0,0
111178,-100,7,2,1,60,0,0
111726,281.690140845071,7,2,1,60,1,0
111996,289.855072463767,5,2,1,60,1,0
113144,272.727272727272,5,2,1,60,1,0
113416,281.69014084507,7,2,1,60,1,0
114472,-100,7,2,1,5,0,0
114542,-100,7,2,1,60,0,0
115086,277.777777777777,7,2,1,60,1,0
115363,281.69014084507,5,2,1,60,1,0
116771,272.727272727272,7,2,1,60,1,0
117316,284.360189573459,7,2,1,60,1,0
117813,-100,7,2,1,5,0,0
117884,-100,7,2,1,60,0,0
118453,272.727272727272,7,2,1,60,1,0
118724,281.69014084507,5,2,1,60,1,0
120132,281.69014084507,7,2,1,60,1,0
120132,-90.9090909090909,7,2,1,60,0,0
120695,-76.9230769230769,7,2,1,60,0,0
121188,-76.9230769230769,7,2,1,5,0,0
121258,-71.4285714285714,7,2,1,60,0,0
121838,284.360189573459,7,2,1,60,1,0
122122,280.373831775701,6,2,1,69,1,0
122122,-66.6666666666667,6,2,1,69,0,0
122963,-62.5,6,2,1,69,0,0
123809,280.373831775701,7,2,1,69,1,0
123809,-66.6666666666667,6,2,1,69,0,0
125771,281.69014084507,6,2,1,69,1,0
125771,-66.6666666666667,6,2,1,69,0,0
126616,-62.5,6,2,1,69,0,0
127179,277.777777777777,6,2,1,69,1,0
127456,280.3738317757,7,2,1,69,1,0
127456,-66.6666666666667,6,2,1,69,0,0
129418,277.777777777777,6,2,1,69,1,0
129418,-66.6666666666667,6,2,1,69,0,0
130251,-62.5,6,2,1,69,0,0
131084,279.06976744186,7,2,1,69,1,0
131084,-66.6666666666667,6,2,1,69,0,0
132774,277.777777777777,6,2,1,69,1,0
133051,272.727272727273,6,2,1,69,1,0
133051,-66.6666666666667,6,2,1,69,0,0
133869,-62.5,6,2,1,69,0,0
134439,275.229357798165,6,2,1,69,1,0
134714,272.727272727273,7,2,1,69,1,0
134714,-66.6666666666667,6,2,1,69,0,0
136623,285.714285714286,6,2,2,69,1,0
136623,-58.8235294117647,6,2,2,69,0,0
136718,-58.8235294117647,6,2,1,69,0,0
137765,279.069767441861,6,2,1,69,1,0
137765,-58.8235294117647,6,2,1,69,0,0
139718,-50,6,2,1,69,0,0
140010,283.018867924528,6,2,2,69,1,0
140010,-58.8235294117647,6,2,2,69,0,0
140080,-58.8235294117647,6,2,1,69,0,0
141708,279.06976744186,6,2,1,69,1,0
141708,-58.8235294117647,6,2,1,69,0,0
143103,-50,6,2,1,69,0,0
143382,-58.8235294117647,6,2,2,69,0,0
143452,-58.8235294117647,6,2,1,69,0,0
145056,281.69014084507,6,2,1,69,1,0
145056,-58.8235294117647,6,2,1,69,0,0
146464,-50,6,2,1,69,0,0
146746,277.777777777778,6,2,2,69,1,0
146746,-58.8235294117647,6,2,2,69,0,0
146815,-58.8235294117647,6,2,1,69,0,0
148412,279.06976744186,5,2,1,69,1,0
148412,-58.8235294117647,5,2,1,69,0,0
149807,288.461538461538,5,2,1,60,1,0
151235,281.69014084507,7,2,1,60,1,0
152361,-55.5555555555556,7,2,1,60,0,0
152912,281.69014084507,7,2,1,60,1,0
153193,277.777777777778,5,2,1,60,1,0
154581,280.373831775701,7,2,1,60,1,0
155632,-100,7,2,1,5,0,0
155702,-100,7,2,1,60,0,0
156543,277.777777777778,5,2,1,60,1,0
157931,276.497695852535,7,2,1,60,1,0
158967,-100,7,2,1,5,0,0
159036,-100,7,2,1,60,0,0
159896,279.06976744186,5,2,1,60,1,0
161291,281.69014084507,7,2,1,60,1,0
162347,-100,7,2,1,5,0,0
162417,-100,7,2,1,60,0,0
163262,283.018867924528,5,2,1,60,1,0
164677,275.229357798165,7,2,1,60,1,0
165709,-100,7,2,1,5,0,0
165777,-100,7,2,1,60,0,0
166603,277.777777777778,5,2,1,60,1,0
167991,281.69014084507,7,2,1,60,1,0
169047,-100,7,2,1,60,0,0
169117,-100,7,2,1,60,0,0
169962,285.714285714286,5,2,1,60,1,0
171390,279.06976744186,7,2,1,60,1,0
172436,-100,7,2,1,5,0,0
172506,-100,7,2,1,60,0,0
173343,276.497695852535,5,2,1,60,1,0
174725,275.229357798165,7,2,1,60,1,0
175757,-100,7,2,1,5,0,0
175825,-100,7,2,1,60,0,0
176651,276.497695852535,5,2,1,60,1,0
178033,283.018867924528,7,2,1,60,1,0
178033,-90.9090909090909,7,2,1,60,0,0
178599,-83.3333333333333,7,2,1,60,0,0
179165,-71.4285714285714,7,2,2,60,0,0
179731,-66.6666666666667,6,2,2,60,0,0
180014,284.36018957346,6,2,1,69,1,0
180014,-66.6666666666667,6,2,1,69,0,0
180867,-62.5,6,2,1,69,0,0
181435,-66.6666666666667,6,2,1,69,0,0
181720,281.69014084507,7,2,1,69,1,0
181720,-71.4285714285714,7,2,1,69,0,0
183410,-66.6666666666667,6,2,1,69,0,0
183691,283.018867924528,6,2,1,69,1,0
183691,-66.6666666666667,6,2,1,69,0,0
184540,-62.5,6,2,1,69,0,0
185106,-66.6666666666667,6,2,1,69,0,0
185389,281.69014084507,7,2,1,69,1,0
185389,-71.4285714285714,7,2,1,69,0,0
187079,-66.6666666666667,6,2,1,69,0,0
187360,276.497695852535,6,2,1,69,1,0
187360,-66.6666666666667,6,2,1,69,0,0
188189,-62.5,6,2,1,69,0,0
188742,-66.6666666666667,6,2,1,69,0,0
189018,280.373831775701,7,2,1,69,1,0
189018,-71.4285714285714,7,2,1,69,0,0
190700,-66.6666666666667,6,2,1,69,0,0
190980,281.69014084507,6,2,1,69,1,0
190980,-66.6666666666667,6,2,1,69,0,0
191825,-62.5,6,2,1,69,0,0
192388,-66.6666666666667,6,2,1,69,0,0
192670,266.666666666667,7,2,1,69,1,0
192670,-71.4285714285714,7,2,1,69,0,0
194536,277.777777777778,7,2,1,69,1,0
196480,279.06976744186,7,2,1,69,1,0
200386,276.497695852535,7,2,1,69,1,0
202600,279.06976744186,7,2,1,69,1,0
204274,277.777777777778,7,2,1,69,1,0
206490,272.727272727273,7,2,1,69,1,0
208944,-100,7,2,1,50,0,0
211643,277.777777777778,3,2,1,40,1,0
213309,283.018867924528,3,2,1,40,1,0
215007,281.69014084507,3,2,1,40,1,0
216697,279.06976744186,3,2,1,40,1,0
219208,281.69014084507,3,2,1,50,1,0
220898,280.373831775701,3,2,1,50,1,0
222580,281.69014084507,3,2,1,50,1,0
224270,277.777777777778,3,2,1,50,1,0
226770,280.373831775701,3,2,1,50,1,0
228452,283.018867924528,3,2,1,50,1,0
230150,281.69014084507,3,2,1,50,1,0
231840,279.06976744186,3,2,1,50,1,0
234351,280.373831775701,3,2,1,50,1,0
236033,281.69014084507,3,2,1,50,1,0
237723,283.018867924528,3,2,1,50,1,0
239421,280.373831775701,3,2,1,50,1,0
241962,281.69014084507,3,2,1,50,1,0
241962,-133.333333333333,3,2,1,50,0,0
242789,-74.0740740740741,3,2,1,50,0,0
243655,285.714285714286,3,2,1,50,1,0
243655,-133.333333333333,3,2,1,50,0,0
244491,-66.6666666666667,3,2,1,50,0,0
245370,281.69014084507,3,2,1,50,1,0
245370,-166.666666666667,3,2,1,50,0,0
246193,-133.333333333333,3,2,1,50,0,0
247038,280.373831775701,3,2,1,50,1,0
247038,-222.222222222222,3,2,1,50,0,0
247879,-166.666666666667,3,2,1,50,0,0
248439,-222.222222222222,3,2,1,50,0,0
249000,-166.666666666667,3,2,1,50,0,0
249561,281.69014084507,3,2,1,50,1,0
249561,-133.333333333333,3,2,1,50,0,0
250398,-74.0740740740741,3,2,1,50,0,0
251235,-133.333333333333,3,2,1,50,0,0
252072,-66.6666666666667,3,2,1,50,0,0
252932,281.69014084507,3,2,1,50,1,0
252932,-166.666666666667,3,2,1,50,0,0
253754,-133.333333333333,3,2,1,50,0,0
254599,-222.222222222222,3,2,1,50,0,0
255444,-166.666666666667,3,2,1,50,0,0
256007,-222.222222222222,3,2,1,50,0,0
256570,-166.666666666667,3,2,1,50,0,0
257134,-133.333333333333,3,2,1,50,0,0
257979,-250,3,2,1,50,0,0
258847,283.018867924528,3,2,1,50,1,0
258847,-133.333333333333,3,2,1,50,0,0
259673,-200,3,2,1,50,0,0
260522,-166.666666666667,3,2,1,50,0,0
261371,-133.333333333333,3,2,1,50,0,0
262220,-222.222222222222,3,2,1,50,0,0
263069,-166.666666666667,3,2,1,50,0,0
263635,-222.222222222222,3,2,1,50,0,0
264201,-166.666666666667,3,2,1,50,0,0
264790,284.36018957346,3,2,1,50,1,0
264790,-133.333333333333,3,2,1,50,0,0
265620,-250,3,2,1,50,0,0
266473,-133.333333333333,3,2,1,50,0,0
267326,-200,3,2,1,50,0,0
268202,283.018867924529,3,2,1,50,1,0
268202,-166.666666666667,3,2,1,50,0,0
269020,-133.333333333333,3,2,1,50,0,0
269861,-222.222222222222,3,2,1,50,0,0
270702,-166.666666666667,3,2,1,50,0,0
271263,-222.222222222222,3,2,1,50,0,0
271823,-166.666666666667,3,2,1,50,0,0
272407,281.69014084507,3,2,1,50,1,0
272665,-111.111111111111,3,2,1,50,0,0
273111,-111.111111111111,3,2,1,5,0,0
273229,-250,3,2,1,50,0,0
274660,-250,3,2,1,5,0,0
274919,-200,3,2,1,50,0,0
275646,-200,3,2,1,5,0,0
275787,283.018867924528,3,2,1,50,1,0
275787,-333.333333333333,3,2,1,50,0,0
276353,-333.333333333333,3,2,1,5,0,0
276613,-285.714285714286,3,2,1,50,0,0
277485,279.06976744186,3,2,1,50,1,0
277485,-250,3,2,1,50,0,0
278043,-250,3,2,1,5,0,0
278299,-166.666666666667,3,2,1,50,0,0
278322,-166.666666666667,3,2,1,55,0,0
278857,-125,3,2,1,55,0,0
279415,-166.666666666667,3,2,1,55,0,0
279996,284.36018957346,3,2,1,55,1,0
280253,-125,3,2,1,55,0,0
282215,-166.666666666667,3,2,1,55,0,0
283266,-166.666666666667,3,2,1,5,0,0
283408,280.373831775701,3,2,1,55,1,0
283408,-125,3,2,1,55,0,0
284179,-125,3,2,1,5,0,0
284202,-111.111111111111,3,2,1,55,0,0
285020,-111.111111111111,3,2,1,5,0,0
285090,277.777777777777,3,2,1,55,1,0
285090,-142.857142857143,3,2,1,55,0,0
285888,-125,3,2,1,55,0,0
286446,-100,3,2,1,55,0,0
287004,-166.666666666667,3,2,1,55,0,0
287590,281.69014084507,3,2,1,55,1,0
287841,-125,3,2,1,55,0,0
288294,-125,3,2,1,5,0,0
288399,-166.666666666667,3,2,1,55,0,0
289843,-166.666666666667,3,2,1,5,0,0
290074,-200,3,2,1,55,0,0
291815,-200,3,2,1,5,0,0
291885,-200,3,2,1,55,0,0
292378,266.666666666667,3,2,1,55,1,0
292615,-125,3,2,1,55,0,0
293183,-125,3,2,1,55,0,0
293468,284.360189573459,3,2,1,60,1,0
293468,-166.666666666667,3,2,1,60,0,0
293993,-111.111111111111,3,2,1,60,0,0
294556,-166.666666666667,3,2,1,60,0,0
295165,283.018867924528,3,2,1,60,1,0
295165,-125,3,2,1,60,0,0
295377,-125,3,2,1,5,0,0
295403,-200,3,2,1,60,0,0
297384,-166.666666666667,3,2,1,60,0,0
298419,-166.666666666667,3,2,1,5,0,0
298561,277.777777777778,3,2,1,60,1,0
298561,-125,3,2,1,60,0,0
299324,-125,3,2,1,5,0,0
299349,-111.111111111111,3,2,1,60,0,0
299394,279.069767441861,3,2,1,60,1,0
300091,-111.111111111111,3,2,1,5,0,0
300182,-142.857142857143,3,2,1,60,0,0
301016,-125,3,2,1,60,0,0
301571,-100,3,2,1,60,0,0
301835,-100,3,2,1,5,0,0
301849,-166.666666666667,3,2,1,60,0,0
302114,-166.666666666667,3,2,1,5,0,0
302127,-166.666666666667,3,2,1,60,0,0
302737,283.018867924528,3,2,1,60,1,0
302737,-250,3,2,1,60,0,0
303527,-166.666666666667,3,2,1,60,0,0
304435,280.373831775701,3,2,1,60,1,0
304435,-250,3,2,1,60,0,0
305217,-166.666666666667,3,2,1,60,0,0
306117,279.069767441861,4,2,1,60,1,0
306117,-250,3,2,1,60,0,0
307222,280.373831775702,3,2,1,60,1,0
307222,-222.222222222222,3,2,1,60,0,0
308016,-153.846153846154,3,2,1,60,0,0
308904,277.777777777779,3,2,1,60,1,0
308904,-200,3,2,1,60,0,0
309683,-142.857142857143,3,2,1,60,0,0
310570,272.727272727273,4,2,1,60,1,0
310570,-181.818181818182,4,2,1,60,0,0
311660,-181.818181818182,4,2,1,65,0,0
312751,273.972602739726,3,2,1,65,1,0
312751,-142.857142857143,3,2,1,65,0,0
313525,-111.111111111111,3,2,1,65,0,0
314394,271.493212669683,3,2,1,65,1,0
314394,-125,3,2,1,65,0,0
315161,-100,3,2,1,65,0,0
316022,272.727272727273,4,2,1,65,1,0
316022,-111.111111111111,4,2,1,65,0,0
317064,-100,3,2,1,65,0,0
317112,269.058295964125,3,2,1,65,1,0
317874,-76.9230769230769,3,2,1,65,0,0
318685,-83.3333333333333,3,2,1,65,0,0
319496,-66.6666666666667,3,2,1,65,0,0
320307,-71.4285714285714,4,2,1,65,0,0
320340,272.727272727273,4,2,1,65,1,0
321430,269.058295964126,3,2,2,69,1,0
321430,-58.8235294117647,3,2,2,69,0,1
321916,-58.8235294117647,3,2,1,69,0,1
322185,-66.6666666666667,3,2,2,69,0,1
322723,-66.6666666666667,3,2,1,69,0,1
322992,-50,3,2,2,69,0,1
323530,-100,3,2,1,69,0,1
323859,273.972602739726,3,2,2,69,1,1
323859,-83.3333333333333,3,2,2,69,0,1
323935,-83.3333333333333,3,2,1,69,0,1
324620,-71.4285714285714,3,2,1,69,0,1
325502,270.27027027027,3,2,1,69,1,1
325502,-71.4285714285714,3,2,1,69,0,1
326252,-83.3333333333333,3,2,1,69,0,1
327934,271.493212669683,4,2,1,69,1,1
329019,269.058295964126,3,2,2,69,1,1
329019,-58.8235294117647,3,2,2,69,0,1
329497,-58.8235294117647,3,2,1,69,0,1
329766,-66.6666666666667,3,2,2,69,0,1
330304,-66.6666666666667,3,2,1,69,0,1
330573,-50,3,2,2,69,0,1
331111,-100,3,2,1,69,0,1
331380,-83.3333333333333,3,2,1,69,0,1
332187,-71.4285714285714,3,2,1,69,0,1
332994,-62.5,3,2,1,69,0,1
333862,270.27027027027,3,2,1,69,1,1
333862,-83.3333333333333,3,2,1,69,0,1
335483,272.727272727273,4,2,1,69,1,1
336573,271.493212669683,3,2,2,69,1,1
336573,-58.8235294117647,3,2,2,69,0,1
337302,-66.6666666666667,3,2,2,69,0,1
338187,265.486725663717,3,2,2,69,1,1
338187,-50,3,2,2,69,0,1
338641,-83.3333333333333,3,2,2,69,0,1
338983,264.31718061674,3,2,1,69,1,1
338983,-666.666666666667,3,2,1,69,0,1
339705,-133.333333333333,3,2,1,69,0,1
340103,-83.3333333333333,3,2,1,69,0,1
340900,-133.333333333333,3,2,1,69,0,1
341361,260.869565217391,4,2,1,69,1,1
341361,-133.333333333333,4,2,1,69,0,1
342404,265.486725663717,3,2,2,69,1,1
342404,-52.6315789473684,3,2,2,69,0,1
343137,-58.8235294117647,3,2,2,69,0,1
343996,270.27027027027,3,2,2,69,1,1
343996,-45.4545454545455,3,2,2,69,0,1
344464,-100,3,2,2,69,0,1
344730,-500,5,2,2,69,0,1
344806,287.081339712919,5,2,2,69,1,1
344806,-500,5,2,1,69,0,0
345583,-50,5,2,2,69,0,0
345618,-50,5,2,1,69,0,0
346241,272.727272727273,3,2,1,69,1,0
346241,-125,3,2,1,69,0,0
348077,-100,3,2,1,69,0,0
348352,-83.3333333333333,3,2,1,69,0,0
348695,273.972602739726,5,2,1,69,1,0
348695,-500,5,2,1,69,0,0
349449,-50,5,2,1,69,0,0
350064,277.777777777778,3,2,1,69,1,0
350064,-125,3,2,1,69,0,0
351730,270.27027027027,3,2,1,69,1,0
351730,-125,3,2,1,69,0,0
351923,-100,3,2,1,69,0,0
352198,-83.3333333333333,3,2,1,69,0,0
352540,283.018867924528,5,2,1,69,1,0
352540,-500,5,2,1,69,0,0
353315,-50,5,2,1,69,0,0
353955,277.777777777778,3,2,1,69,1,0
353955,-125,3,2,1,69,0,0
355819,-100,3,2,1,69,0,0
356097,-83.3333333333333,3,2,1,69,0,0
356455,272.727272727273,5,2,1,69,1,0
356455,-500,5,2,1,69,0,0
357193,-50,5,2,1,69,0,0
357738,-100,3,2,1,69,0,0
357806,267.857142857143,3,2,1,69,1,0
359425,269.058295964126,5,2,1,69,1,0
359425,-166.666666666667,5,2,1,69,0,0
360770,269.058295964126,7,2,1,69,1,0
360770,-166.666666666667,7,2,1,69,0,0
362653,266.666666666667,5,2,1,69,1,0
362653,-142.857142857143,5,2,1,69,0,0
363986,269.058295964126,7,2,1,69,1,0
363986,-142.857142857143,7,2,1,69,0,0
365869,267.857142857143,5,2,1,69,1,0
365869,-125,5,2,1,69,0,0
367208,269.058295964126,7,2,1,69,1,0
367208,-125,7,2,1,69,0,0
369091,271.493212669684,5,2,1,69,1,0
369091,-111.111111111111,5,2,1,69,0,0
370448,267.857142857143,7,2,1,69,1,0
370448,-111.111111111111,7,2,1,69,0,0
371695,-100,7,2,1,69,0,0
372323,270.27027027027,5,2,1,69,1,0
372323,-83.3333333333333,5,2,1,69,0,0
373674,263.157894736842,7,2,1,69,1,0
373674,-83.3333333333333,7,2,1,69,0,0
375516,264.31718061674,5,2,1,69,1,0
375516,-76.9230769230769,5,2,1,69,0,0
376837,263.157894736842,7,2,1,69,1,0
376837,-76.9230769230769,7,2,1,69,0,0
378679,262.008733624454,5,2,1,69,1,0
378679,-71.4285714285714,5,2,1,69,0,0
379989,259.74025974026,7,2,1,69,1,0
379989,-71.4285714285714,7,2,1,69,0,0
381807,264.31718061674,5,2,1,69,1,0
381807,-66.6666666666667,5,2,1,69,0,0
383128,265.486725663717,7,2,1,69,1,0
383128,-66.6666666666667,7,2,1,69,0,0
384088,-43.4782608695652,7,2,1,69,0,0
384986,267.857142857143,4,2,1,69,1,0
384986,-76.9230769230769,4,2,1,69,0,0
385413,-58.8235294117647,4,2,1,69,0,0
385681,-100,4,2,1,69,0,0
385949,-76.9230769230769,4,2,1,69,0,0
386217,-58.8235294117647,4,2,1,69,0,0
386485,-76.9230769230769,4,2,1,69,0,0
387128,265.486725663717,4,2,1,69,1,0
387128,-76.9230769230769,4,2,1,69,0,0
387550,-58.8235294117647,4,2,1,69,0,0
387816,-100,4,2,1,69,0,0
388081,-76.9230769230769,4,2,1,69,0,0
388347,-58.8235294117647,4,2,1,69,0,0
388612,-76.9230769230769,4,2,1,69,0,0
389251,265.486725663717,4,2,1,69,1,0
389251,-76.9230769230769,4,2,1,69,0,0
389676,-58.8235294117647,4,2,1,69,0,0
389943,-100,4,2,1,69,0,0
390209,-76.9230769230769,4,2,1,69,0,0
390476,-58.8235294117647,4,2,1,69,0,0
390743,-76.9230769230769,4,2,1,69,0,0
391374,266.666666666667,5,2,1,69,1,0
391374,-76.9230769230769,4,2,1,69,0,0
391376,-76.9230769230769,4,2,1,69,0,0
391809,-58.8235294117647,4,2,1,69,0,0
392076,-100,4,2,1,69,0,0
392343,-76.9230769230769,4,2,1,69,0,0
392609,-58.8235294117647,4,2,1,69,0,0
392876,-76.9230769230769,4,2,1,69,0,0
393529,263.157894736842,4,2,1,69,1,0
393939,-83.3333333333333,4,2,1,69,0,0
394205,-100,4,2,1,69,0,0
394736,-83.3333333333333,4,2,1,69,0,0
395001,-100,4,2,1,69,0,0
395267,-83.3333333333333,4,2,1,69,0,0
395532,-100,4,2,1,69,0,0
396058,-83.3333333333333,4,2,1,69,0,0
396321,-100,4,2,1,69,0,0
396847,-83.3333333333333,4,2,1,69,0,0
397374,-83.3333333333333,4,2,1,69,0,0
398163,-83.3333333333333,4,2,1,69,0,0
398953,-83.3333333333333,4,2,1,69,0,0
399479,-83.3333333333333,4,2,1,69,0,0
399851,262.008733624454,4,2,1,69,1,0
400266,-83.3333333333333,4,2,1,69,0,0
400528,-100,4,2,1,69,0,0

[Colours]
Combo1 : 204,153,255
Combo2 : 255,128,128

[HitObjects]
173,46,13446,6,0,P|158:54|147:67,2,33.3333333333333
275,43,13725,5,2,0:0:0:0:
228,98,13996,1,0,0:0:0:0:
326,120,14267,1,0,0:0:0:0:
336,133,14539,1,0,0:0:0:0:
394,87,14810,6,0,P|390:71|390:55,2,33.3333333333333
509,138,15082,5,2,0:0:0:0:
436,147,15359,1,0,0:0:0:0:
495,226,15637,1,0,0:0:0:0:
506,240,15915,1,0,0:0:0:0:
336,133,16193,1,0,0:0:0:0:
379,193,16470,1,0,0:0:0:0:
344,257,16748,6,0,P|328:249|312:247,2,33.3333333333333
402,363,17030,5,2,0:0:0:0:
410,290,17306,1,0,0:0:0:0:
322,326,17582,1,0,0:0:0:0:
318,340,17859,1,0,0:0:0:0:
230,330,18135,6,0,P|240:342|247:358,2,33.3333333333333
110,299,18412,5,2,0:0:0:0:
179,276,18689,1,0,0:0:0:0:
165,365,18967,1,0,0:0:0:0:
153,376,19245,1,0,0:0:0:0:
42,274,19523,1,0,0:0:0:0:
113,289,19800,1,0,0:0:0:0:
134,219,20078,6,0,P|150:216|165:208,2,33.3333333333333
24,138,20356,5,2,0:0:0:0:
99,154,20633,1,0,0:0:0:0:
76,50,20911,1,0,0:0:0:0:
64,41,21189,1,0,0:0:0:0:
171,74,21467,6,0,P|154:77|140:85,2,33.3333333333333
292,118,21744,5,2,0:0:0:0:
219,130,22023,1,0,0:0:0:0:
286,209,22302,1,0,0:0:0:0:
298,216,22581,1,0,0:0:0:0:
192,324,22860,1,0,0:0:0:0:
261,344,23139,1,0,0:0:0:0:
333,280,23418,6,0,P|327:295|326:312,2,33.3333333333333
452,248,23697,5,2,0:0:0:0:
402,303,23976,1,0,0:0:0:0:
371,216,24255,1,0,0:0:0:0:
368,199,24534,1,0,0:0:0:0:
429,155,24813,6,0,P|445:152|460:146,2,33.3333333333333
387,44,25092,5,2,0:0:0:0:
455,73,25369,1,0,0:0:0:0:
362,125,25647,1,0,0:0:0:0:
346,130,25925,1,0,0:0:0:0:
201,43,26203,1,0,0:0:0:0:
260,0,26480,1,0,0:0:0:0:
133,15,26758,5,0,0:0:0:0:
124,19,26851,1,2,0:0:0:0:
115,23,26943,1,2,0:0:0:0:
105,27,27036,2,0,P|100:86|82:144,1,119.999996337891,0|0,3:0|0:0,0:0:0:0:
173,112,27596,1,0,1:0:0:0:
182,126,27877,1,0,0:0:0:0:
175,215,28157,6,0,P|191:212|207:213,2,33.3333333333333,0|2|2,3:0|0:0|0:0,0:0:0:0:
106,309,28437,1,0,3:0:0:0:
150,370,28714,1,0,0:0:0:0:
13,318,28992,2,0,P|106:284|240:320,1,239.999992675781,2|0,3:0|1:0,0:0:0:0:
245,334,29825,1,0,0:0:0:0:
376,369,30103,5,0,3:0:0:0:
384,363,30196,1,2,0:0:0:0:
392,357,30288,1,2,0:0:0:0:
400,349,30381,2,0,P|412:321|416:292,1,59.9999981689454,0|0,3:0|0:0,0:0:0:0:
506,252,30658,2,0,P|494:279|490:309,1,59.9999981689454
427,216,30936,1,0,1:0:0:0:
441,212,31214,1,0,0:0:0:0:
452,116,31492,6,0,P|462:128|471:143,2,33.3333333333333,0|2|2,3:0|0:0|0:0,0:0:0:0:
387,78,31769,2,0,P|371:57|362:19,1,59.9999981689454,0|0,3:0|0:0,0:0:0:0:
259,102,32044,2,0,P|285:98|322:109,1,59.9999981689454
378,153,32319,1,0,3:0:0:0:
371,166,32594,2,0,P|330:184|286:181,1,89.9999972534181,2|0,3:0|0:0,0:0:0:0:
291,26,32869,1,0,1:0:0:0:
253,92,33145,1,0,0:0:0:0:
170,63,33420,5,0,3:0:0:0:
160,59,33512,1,2,0:0:0:0:
150,57,33603,1,2,0:0:0:0:
140,57,33695,2,0,P|105:52|71:34,1,59.9999981689454,0|0,3:0|0:0,0:0:0:0:
18,0,33975,1,0,0:0:0:0:
46,108,34255,2,0,P|50:167|43:227,1,119.999996337891,0|0,1:0|0:0,0:0:0:0:
59,331,34816,6,0,P|46:341|31:346,2,33.3333333333333,0|2|2,3:0|0:0|0:0,0:0:0:0:
106,271,35096,2,0,P|123:247|149:231,1,59.9999981689454,0|0,3:0|0:0,0:0:0:0:
224,256,35373,1,0,0:0:0:0:
175,141,35651,2,0,P|281:193|398:182,1,239.999992675781,2|0,3:0|1:0,0:0:0:0:
411,171,36484,1,0,0:0:0:0:
343,26,36762,5,0,3:0:0:0:
334,28,36855,1,2,0:0:0:0:
323,32,36947,1,2,0:0:0:0:
313,39,37040,1,0,3:0:0:0:
267,101,37316,1,0,0:0:0:0:
368,107,37592,1,0,1:0:0:0:
381,93,37869,1,0,0:0:0:0:
454,108,38145,6,0,P|462:121|475:133,2,33.3333333333333,0|2|2,3:0|0:0|0:0,0:0:0:0:
410,170,38422,2,0,P|393:193|383:222,1,59.9999981689454,0|0,3:0|0:0,0:0:0:0:
391,297,38698,1,0,0:0:0:0:
308,223,38974,2,0,P|275:210|240:209,1,69.9999978637696,0|0,3:0|0:0,0:0:0:0:
221,203,39251,2,0,P|181:234|170:284,1,104.999996795654,2|0,3:0|0:0,0:0:0:0:
286,371,39527,2,0,P|285:331|273:294,1,80,0|0,1:0|0:0,0:0:0:0:
79,276,39804,2,0,P|85:315|106:348,1,80
133,157,40080,5,0,3:0:0:0:
130,147,40173,1,2,0:0:0:0:
125,137,40265,1,2,0:0:0:0:
120,128,40357,2,0,P|83:95|34:89,1,100,2|0,3:0|0:0,0:0:0:0:
22,80,40917,2,0,L|171:67,1,150,0|0,1:0|0:0,0:0:0:0:
307,5,41478,5,0,3:0:0:0:
316,7,41571,1,2,0:0:0:0:
325,9,41665,1,2,0:0:0:0:
334,13,41758,2,0,P|350:59|381:99,1,100,0|0,3:0|0:0,0:0:0:0:
491,78,42316,2,0,P|419:121|340:90,1,175,2|0,3:0|0:0,0:0:0:0:
306,213,42874,1,0,1:0:0:0:
287,141,43153,1,0,0:0:0:0:
376,227,43432,5,0,3:0:0:0:
385,231,43525,1,2,0:0:0:0:
393,236,43618,1,2,0:0:0:0:
401,241,43711,2,0,L|413:339,1,100,0|0,3:0|0:0,0:0:0:0:
409,350,44269,2,0,P|367:322|318:318,1,100,0|0,1:0|0:0,0:0:0:0:
216,282,44827,6,0,P|212:298|215:314,2,33.3333333333333,0|2|2,3:0|0:0|0:0,0:0:0:0:
169,221,45106,2,0,P|188:175|183:126,1,100,0|0,3:0|0:0,0:0:0:0:
254,216,45664,2,0,B|267:232|296:242,1,50,0|0,3:0|0:0,0:0:0:0:
282,253,45943,2,0,P|246:261|215:281,1,75,2|0,3:0|0:0,0:0:0:0:
115,355,46222,1,0,1:0:0:0:
143,287,46501,1,0,0:0:0:0:
52,202,46780,5,0,3:0:0:0:
46,193,46873,1,2,0:0:0:0:
41,184,46966,1,2,0:0:0:0:
37,175,47059,2,0,L|43:75,1,100,0|0,3:0|0:0,0:0:0:0:
55,81,47625,2,0,L|87:227,1,150,0|0,1:0|0:0,0:0:0:0:
178,144,48191,6,0,P|170:129|159:118,2,33.3333333333333,0|2|2,3:0|0:0|0:0,0:0:0:0:
267,36,48474,2,0,P|252:108|278:178,1,150,0|0,3:0|0:0,0:0:0:0:
289,163,49037,2,0,P|249:235|168:220,1,175,2|0,3:0|0:0,0:0:0:0:
187,45,49600,2,0,L|181:16,1,25,0|0,1:0|0:0,0:0:0:0:
473,52,50164,5,0,3:0:0:0:
477,60,50258,1,2,0:0:0:0:
482,68,50351,1,2,0:0:0:0:
486,76,50445,2,0,P|491:100|490:125,1,50,0|0,3:0|0:0,0:0:0:0:
423,167,50725,2,0,P|400:159|380:144,1,50
490,201,51005,2,0,L|499:254,1,50,0|0,1:0|0:0,0:0:0:0:
490,259,51286,2,0,L|499:309,1,50
409,318,51566,6,0,P|418:331|431:342,2,33.3333333333333,0|2|2,3:0|0:0|0:0,0:0:0:0:
417,243,51846,2,0,P|342:249|280:288,1,150,0|0,3:0|0:0,0:0:0:0:
231,349,52404,2,0,L|178:358,1,50,0|0,3:0|0:0,0:0:0:0:
175,370,52683,2,0,L|256:354,1,75,2|0,3:0|0:0,0:0:0:0:
397,321,52962,1,0,1:0:0:0:
425,252,53241,1,0,0:0:0:0:
290,171,53520,5,0,3:0:0:0:
282,177,53613,1,2,0:0:0:0:
274,183,53706,1,2,0:0:0:0:
265,187,53799,2,0,P|215:185|149:152,1,119.999996337891,6|0,3:0|0:0,0:0:0:0:
205,276,54362,1,0,1:0:0:0:
136,299,54644,1,0,0:0:0:0:
91,215,54925,5,0,3:0:0:0:
97,216,55019,1,2,0:0:0:0:
102,218,55113,1,2,0:0:0:0:
107,220,55207,1,0,3:0:0:0:
49,58,55487,2,0,P|35:106|45:155,1,100,0|2,0:0|3:0,0:0:0:0:
99,1,56048,1,0,0:0:0:0:
152,155,56328,2,0,B|164:107|164:107|149:60,1,100,0|0,1:0|0:0,0:0:0:0:
329,74,56889,6,0,L|294:69,2,33.3333333333333,0|2|2,3:0|0:0|0:0,0:0:0:0:
392,32,57169,2,0,P|442:29|490:15,1,100,0|0,3:0|0:0,0:0:0:0:
481,184,57732,1,0,1:0:0:0:
408,162,58014,2,0,P|374:160|331:180,1,75
293,224,58295,6,0,L|246:234,3,33.3333333333333,0|2|2|0,3:0|0:0|0:0|3:0,0:0:0:0:
179,132,58856,2,0,P|156:120|137:105,1,50
87,28,59135,2,0,P|82:52|70:74,1,50,0|0,3:0|0:0,0:0:0:0:
58,82,59414,2,0,L|42:155,1,75,2|0,3:0|0:0,0:0:0:0:
173,318,59693,2,0,P|187:297|195:274,1,50,0|0,1:0|0:0,0:0:0:0:
129,235,59972,2,0,L|118:186,1,50
147,31,60251,5,0,3:0:0:0:
155,25,60344,1,2,0:0:0:0:
164,21,60437,1,2,0:0:0:0:
173,19,60540,2,0,P|243:22|307:49,1,139.999995727539,6|0,3:0|0:0,0:0:0:0:
313,63,61100,2,0,L|175:42,1,139.999995727539,0|0,1:0|0:0,0:0:0:0:
425,89,61661,5,0,3:0:0:0:
433,94,61754,1,2,0:0:0:0:
441,99,61848,1,2,0:0:0:0:
447,106,61941,2,0,P|414:173|357:220,1,150,0|0,3:0|0:0,0:0:0:0:
359,206,62499,2,0,P|433:201|533:239,1,175,2|0,3:0|0:0,0:0:0:0:
278,131,63057,2,0,L|169:147,1,100,0|0,1:0|0:0,0:0:0:0:
97,225,63615,6,0,P|82:215|67:209,2,33.3333333333333,0|2|2,3:0|0:0|0:0,0:0:0:0:
1,247,63894,2,0,P|8:281|27:310,1,69.9999978637696,6|0,3:0|0:0,0:0:0:0:
109,300,64175,2,0,P|143:302|175:316,1,69.9999978637696
231,367,64457,2,0,P|257:378|283:381,1,50,0|0,1:0|0:0,0:0:0:0:
285,373,64739,2,0,P|309:371|334:375,1,50
406,353,65020,6,0,P|413:367|424:380,2,33.3333333333333,0|2|2,3:0|0:0|0:0,0:0:0:0:
355,296,65302,2,0,L|246:279,1,100,0|0,3:0|0:0,0:0:0:0:
226,212,65857,2,0,L|233:162,1,50,0|0,3:0|0:0,0:0:0:0:
249,154,66135,2,0,L|260:73,1,75,2|0,3:0|0:0,0:0:0:0:
59,46,66413,2,0,P|76:92|73:141,1,100,0|0,1:0|0:0,0:0:0:0:
1,247,66968,5,0,3:0:0:0:
4,250,67061,1,2,0:0:0:0:
7,253,67153,1,2,0:0:0:0:
10,256,67246,2,0,P|62:278|137:273,1,129.999994049073,0|0,3:0|0:0,0:0:0:0:
232,214,67804,1,0,1:0:0:0:
215,295,68083,1,0,0:0:0:0:
338,352,68362,5,0,3:0:0:0:
341,355,68455,1,2,0:0:0:0:
344,358,68548,1,2,0:0:0:0:
347,361,68641,1,0,3:0:0:0:
372,252,68918,2,0,P|381:221|377:189,1,64.9999970245363
296,284,69196,2,0,P|408:278|500:342,1,227.499989585877,2|0,3:0|0:0,0:0:0:0:
474,145,69752,1,0,1:0:0:0:
512,230,70029,1,0,0:0:0:0:
376,116,70307,5,0,3:0:0:0:
379,119,70400,1,2,0:0:0:0:
382,122,70492,1,2,0:0:0:0:
385,125,70585,1,0,3:0:0:0:
282,149,70861,1,0,0:0:0:0:
308,33,71137,1,0,1:0:0:0:
228,14,71414,1,0,0:0:0:0:
99,87,71690,5,0,3:0:0:0:
102,90,71783,1,2,0:0:0:0:
105,93,71875,1,2,0:0:0:0:
108,96,71967,1,0,3:0:0:0:
175,166,72246,1,0,0:0:0:0:
71,197,72525,2,0,P|45:215|28:242,1,64.9999970245363,0|0,3:0|0:0,0:0:0:0:
37,258,72804,2,0,P|43:305|72:344,1,97.4999955368044,2|0,3:0|0:0,0:0:0:0:
230,299,73083,2,0,P|179:260|116:266,1,129.999994049073,0|0,1:0|0:0,0:0:0:0:
291,236,73641,5,0,3:0:0:0:
294,239,73734,1,2,0:0:0:0:
297,242,73827,1,2,0:0:0:0:
300,245,73930,1,0,3:0:0:0:
376,304,74207,1,0,0:0:0:0:
291,380,74485,1,0,1:0:0:0:
286,364,74763,1,0,0:0:0:0:
422,374,75041,5,0,3:0:0:0:
425,377,75133,1,2,0:0:0:0:
428,380,75226,1,2,0:0:0:0:
431,383,75318,2,0,P|450:322|502:286,1,129.999994049073,0|0,3:0|0:0,0:0:0:0:
511,362,75876,2,0,P|451:268|452:156,1,227.499989585877,2|0,3:0|0:0,0:0:0:0:
272,262,76434,2,0,L|262:302,1,32.4999985122681,0|0,1:0|0:0,0:0:0:0:
245,162,76992,5,0,3:0:0:0:
248,165,77085,1,2,0:0:0:0:
251,168,77178,1,2,0:0:0:0:
254,171,77271,1,0,3:0:0:0:
139,140,77548,1,0,0:0:0:0:
238,24,77826,1,0,1:0:0:0:
292,93,78104,1,0,0:0:0:0:
471,20,78382,5,0,3:0:0:0:
474,23,78474,1,2,0:0:0:0:
477,26,78567,1,2,0:0:0:0:
480,29,78659,2,0,L|452:155,1,129.999994049073,0|0,3:0|0:0,0:0:0:0:
314,165,79217,2,0,P|343:176|365:200,1,64.9999970245363,0|0,3:0|0:0,0:0:0:0:
381,208,79496,2,0,L|359:112,1,97.4999955368044,2|0,3:0|0:0,0:0:0:0:
464,254,79775,1,0,1:0:0:0:
260,268,80333,5,0,3:0:0:0:
245,256,80426,1,0,3:0:0:0:
234,241,80519,1,0,3:0:0:0:
226,223,80622,2,0,B|195:126|195:126|153:101,2,150.000005722046,2|2|2,1:3|0:0|0:0,0:0:0:0:
30,267,81467,2,0,P|111:188|217:229,1,240,4|0,3:0|0:0,0:0:0:0:
220,317,82030,5,0,3:0:0:0:
240,315,82124,1,2,0:0:0:0:
259,309,82218,1,2,0:0:0:0:
276,299,82312,2,0,L|333:153,1,139.999995727539,0|0,3:0|0:0,0:0:0:0:
366,78,82878,2,0,L|462:200,1,139.999995727539,0|0,1:0|0:0,0:0:0:0:
512,266,83444,2,0,L|368:285,1,139.999995727539,0|0,3:0|0:0,0:0:0:0:
148,221,84010,5,0,3:0:0:0:
154,202,84104,1,0,3:0:0:0:
165,186,84198,1,0,3:0:0:0:
180,172,84293,2,0,B|281:159|281:159|321:186,2,150.000005722046,0|2|0,1:0|0:0|3:0,0:0:0:0:
28,168,85130,2,0,P|142:164|194:62,1,240,4|0,3:0|0:0,0:0:0:0:
304,47,85688,5,0,3:0:0:0:
311,64,85781,1,2,0:0:0:0:
315,83,85874,1,2,0:0:0:0:
314,100,85967,2,0,L|261:229,1,139.999995727539,0|0,3:0|0:0,0:0:0:0:
321,310,86527,2,0,L|459:287,1,139.999995727539,0|0,1:0|0:0,0:0:0:0:
498,198,87088,2,0,L|412:86,1,139.999995727539,0|0,3:0|0:0,0:0:0:0:
283,161,87649,5,0,3:0:0:0:
275,180,87742,1,0,3:0:0:0:
268,199,87836,1,0,3:0:0:0:
261,217,87929,2,0,B|229:313|229:313|248:358,2,150.000005722046,0|2|0,1:0|0:0|3:0,0:0:0:0:
454,286,88766,2,0,P|340:297|271:206,1,240,4|0,3:0|0:0,0:0:0:0:
235,129,89324,5,0,3:0:0:0:
214,127,89417,1,0,3:0:0:0:
193,130,89510,1,0,3:0:0:0:
176,136,89603,2,0,L|88:245,1,139.999995727539,0|0,1:0|0:0,0:0:0:0:
53,153,90163,2,0,L|-1:23,1,139.999995727539,0|0,3:0|3:0,0:0:0:0:
96,37,90724,2,0,L|234:56,1,139.999995727539,0|0,1:0|0:0,0:0:0:0:
394,142,91285,5,0,3:0:0:0:
380,156,91378,1,0,3:0:0:0:
365,168,91472,1,0,3:0:0:0:
346,176,91565,2,0,B|245:162|245:162|213:125,2,150.000005722046,0|2|0,1:0|0:0|3:0,0:0:0:0:
492,218,92402,2,0,P|380:192|304:277,1,240,4|0,3:0|0:0,0:0:0:0:
180,374,92960,5,0,3:0:0:0:
200,379,93053,1,0,3:0:0:0:
220,379,93146,1,0,3:0:0:0:
239,372,93239,2,0,L|186:242,1,139.999995727539,0|0,1:0|0:0,0:0:0:0:
421,274,93794,2,0,L|334:384,1,139.999995727539,0|0,3:0|0:0,0:0:0:0:
151,153,94350,1,0,1:0:0:0:
304,276,94627,1,0,0:0:0:0:
149,317,94905,5,0,3:0:0:0:
147,310,94975,5,0,3:0:0:0:
152,301,95044,5,0,3:0:0:0:
85,289,95183,6,0,P|58:249|67:201,1,100,4|0,3:0|0:0,0:0:0:0:
57,53,95743,2,0,B|104:35|140:84|125:87|149:132|182:121,1,150,0|0,1:0|0:0,0:0:0:0:
256,50,96304,5,0,3:0:0:0:
259,35,96397,1,2,0:0:0:0:
262,20,96491,1,2,0:0:0:0:
263,3,96584,2,0,P|324:13|383:12,1,100,0|0,3:0|0:0,0:0:0:0:
493,8,97147,2,0,P|454:85|476:168,1,175,2|0,3:0|0:0,0:0:0:0:
264,133,97710,1,0,1:0:0:0:
326,88,97992,1,0,0:0:0:0:
350,208,98274,5,0,3:0:0:0:
366,216,98368,1,2,0:0:0:0:
382,220,98461,1,2,0:0:0:0:
398,221,98555,2,0,P|442:243|450:253,1,50,0|0,3:0|0:0,0:0:0:0:
454,311,98836,1,0,0:0:0:0:
332,378,99118,2,0,P|259:355|222:354,1,100,0|0,1:0|0:0,0:0:0:0:
97,383,99681,5,0,3:0:0:0:
88,369,99775,1,2,0:0:0:0:
88,351,99869,1,2,0:0:0:0:
92,334,99963,2,0,P|107:305|139:288,1,50,0|0,3:0|0:0,0:0:0:0:
182,319,100242,1,0,0:0:0:0:
18,215,100521,2,0,P|39:227|63:234,1,50,0|0,3:0|0:0,0:0:0:0:
88,223,100800,2,0,P|121:208|144:178,1,75,2|0,3:0|0:0,0:0:0:0:
21,299,101079,1,0,1:0:0:0:
88,341,101358,1,0,0:0:0:0:
181,247,101637,6,0,P|197:248|213:245,2,33.3333333333333,0|2|2,3:0|0:0|0:0,0:0:0:0:
276,282,101916,2,0,P|312:315|360:309,1,100,0|0,3:0|0:0,0:0:0:0:
454,158,102490,2,0,L|487:260,1,100,0|0,1:0|0:0,0:0:0:0:
376,228,103053,5,0,3:0:0:0:
365,217,103144,1,2,0:0:0:0:
350,207,103236,1,2,0:0:0:0:
336,202,103328,2,0,P|307:194|275:194,1,50,0|0,3:0|0:0,0:0:0:0:
229,134,103611,1,0,0:0:0:0:
98,240,103894,2,0,P|89:154|37:85,1,175,2|0,3:0|0:0,0:0:0:0:
240,33,104460,2,0,P|197:58|168:99,1,100,0|0,1:0|0:0,0:0:0:0:
332,83,105018,5,0,3:0:0:0:
349,80,105107,1,0,0:0:0:0:
361,76,105197,1,2,2:0:0:0:
372,68,105287,2,0,L|361:123,1,50,0|0,3:0|0:0,0:0:0:0:
353,184,105567,2,0,L|342:239,1,50
471,85,105847,1,0,1:0:0:0:
491,153,106128,1,0,0:0:0:0:
437,318,106408,5,0,3:0:0:0:
445,327,106501,1,2,0:0:0:0:
459,330,106595,1,2,0:0:0:0:
472,326,106688,2,0,L|491:216,1,100,0|0,3:0|0:0,0:0:0:0:
353,184,107248,2,0,L|288:196,1,50,0|0,3:0|0:0,0:0:0:0:
290,202,107529,2,0,P|322:219|344:250,1,75,2|0,3:0|0:0,0:0:0:0:
420,146,107809,1,0,1:0:0:0:
352,104,108089,1,0,0:0:0:0:
229,142,108362,5,0,3:0:0:0:
217,149,108455,1,2,0:0:0:0:
209,161,108548,1,2,0:0:0:0:
206,173,108641,2,0,L|213:227,1,50,4|0,3:0|0:0,0:0:0:0:
156,276,108921,2,0,L|94:284,1,50
202,367,109201,1,0,1:0:0:0:
228,291,109482,1,0,0:0:0:0:
127,190,109762,5,0,3:0:0:0:
119,197,109855,1,2,0:0:0:0:
110,204,109949,1,2,0:0:0:0:
100,208,110036,2,0,P|75:203|52:193,1,50,0|0,3:0|0:0,0:0:0:0:
17,131,110321,1,0,0:0:0:0:
161,74,110607,2,0,P|171:159|232:219,1,175,2|0,3:0|0:0,0:0:0:0:
296,74,111178,1,0,1:0:0:0:
243,126,111464,1,0,0:0:0:0:
188,275,111726,5,0,3:0:0:0:
204,282,111819,1,2,0:0:0:0:
217,287,111913,1,2,0:0:0:0:
231,293,111996,2,0,L|289:274,1,50,0|0,3:0|0:0,0:0:0:0:
351,252,112285,2,0,L|409:233,1,50
459,283,112575,1,0,1:0:0:0:
398,334,112865,1,0,0:0:0:0:
472,207,113144,6,0,P|487:213|503:215,2,33.3333333333333,0|2|2,3:0|0:0|0:0,0:0:0:0:
458,130,113416,2,0,P|461:102|472:69,1,50,0|0,3:0|0:0,0:0:0:0:
425,26,113697,1,0,0:0:0:0:
307,86,113979,2,0,P|301:111|301:136,1,50,0|0,3:0|0:0,0:0:0:0:
314,136,114261,2,0,P|350:147|381:167,1,75,2|0,3:0|0:0,0:0:0:0:
232,219,114542,1,0,1:0:0:0:
188,275,114824,1,0,0:0:0:0:
99,155,115086,5,0,3:0:0:0:
82,147,115178,1,2,0:0:0:0:
65,146,115271,1,2,0:0:0:0:
50,153,115363,1,0,3:0:0:0:
104,235,115644,1,0,0:0:0:0:
182,126,115926,2,0,L|250:113,1,50,0|0,1:0|0:0,0:0:0:0:
301,146,116208,1,0,0:0:0:0:
453,156,116489,5,0,3:0:0:0:
464,166,116583,1,2,0:0:0:0:
469,180,116677,1,2,0:0:0:0:
466,196,116771,2,0,P|441:238|446:287,1,100,0|0,3:0|0:0,0:0:0:0:
251,302,117316,2,0,P|313:292|361:179,1,175,2|0,3:0|0:0,0:0:0:0:
396,354,117884,2,0,L|400:378,1,25,0|0,1:0|0:0,0:0:0:0:
482,40,118453,5,0,3:0:0:0:
482,53,118543,1,2,0:0:0:0:
477,61,118634,1,0,0:0:0:0:
468,64,118724,2,0,L|399:45,1,50,0|0,3:0|0:0,0:0:0:0:
351,30,119005,2,0,L|282:11,1,50
376,126,119287,1,0,1:0:0:0:
301,146,119569,1,0,0:0:0:0:
191,31,119850,5,0,3:0:0:0:
194,44,119944,1,2,0:0:0:0:
194,60,120038,1,2,0:0:0:0:
192,75,120132,2,0,P|172:99|106:67,1,110.000003356934,0|2,3:0|0:0,0:0:0:0:
355,201,120695,2,0,P|357:232|377:257,1,64.9999970245363,0|0,3:0|0:0,0:0:0:0:
449,279,120977,2,0,P|488:253|496:206,1,97.4999955368044,0|0,3:0|0:0,0:0:0:0:
307,297,121258,2,0,L|143:335,1,139.999995727539,4|0,1:3|0:0,0:0:0:0:
72,215,121838,5,0,3:0:0:0:
80,202,121932,1,0,3:0:0:0:
87,186,122027,1,0,3:0:0:0:
91,173,122122,2,0,B|110:65|110:65|80:26,2,150.000005722046,0|2|2,1:0|0:0|0:0,0:0:0:0:
5,136,122963,2,0,P|81:146|140:295,1,240,4|0,3:0|0:0,0:0:0:0:
220,317,123523,5,0,3:0:0:0:
240,315,123617,1,2,0:0:0:0:
259,309,123710,1,2,0:0:0:0:
276,299,123809,2,0,L|336:144,1,150.000005722046,0|0,3:0|0:0,0:0:0:0:
366,78,124369,2,0,L|462:201,1,150.000005722046,0|0,1:0|0:0,0:0:0:0:
512,266,124930,2,0,L|364:288,1,150.000005722046,0|0,3:0|0:0,0:0:0:0:
278,93,125491,5,0,3:0:0:0:
284,74,125584,1,0,3:0:0:0:
295,58,125678,1,0,3:0:0:0:
310,44,125771,2,0,B|411:31|411:31|451:58,2,150.000005722046,0|0|0,1:0|3:0|3:0,0:0:0:0:
214,171,126616,2,0,P|328:167|380:65,1,240,4|0,3:0|0:0,0:0:0:0:
247,2,127179,5,0,3:0:0:0:
240,19,127271,1,2,0:0:0:0:
236,38,127364,1,2,0:0:0:0:
237,55,127456,2,0,L|298:198,1,150.000005722046,0|0,3:0|0:0,0:0:0:0:
251,255,128016,2,0,L|100:230,1,150.000005722046,0|0,1:0|0:0,0:0:0:0:
69,158,128577,2,0,L|157:37,1,150.000005722046,0|0,3:0|0:0,0:0:0:0:
201,164,129138,5,0,3:0:0:0:
220,172,129231,1,0,3:0:0:0:
239,179,129325,1,0,3:0:0:0:
257,186,129418,2,0,B|353:218|353:218|398:199,2,150.000005722046,0|0|0,1:0|0:0|3:0,0:0:0:0:
131,298,130251,2,0,P|257:314|322:206,1,240,4|0,3:0|0:0,0:0:0:0:
260,140,130806,5,0,3:0:0:0:
243,153,130899,1,0,3:0:0:0:
231,170,130992,1,0,3:0:0:0:
223,186,131084,2,0,L|239:343,1,150.000005722046,0|0,1:0|0:0,0:0:0:0:
302,376,131642,2,0,L|443:320,1,150.000005722046,0|0,3:0|0:0,0:0:0:0:
457,249,132200,2,0,L|365:130,1,150.000005722046,0|0,1:0|0:0,0:0:0:0:
271,79,132774,5,0,3:0:0:0:
257,93,132866,1,0,3:0:0:0:
242,105,132959,1,0,3:0:0:0:
223,113,133051,2,0,B|122:99|122:99|90:62,2,150.000005722046,0|0|0,1:0|0:0|3:0,0:0:0:0:
343,14,133869,2,0,P|231:-12|155:73,1,240,4|0,3:0|0:0,0:0:0:0:
252,204,134439,5,0,3:0:0:0:
272,209,134530,1,0,3:0:0:0:
292,209,134622,1,0,3:0:0:0:
311,202,134714,2,0,L|252:53,1,150.000005722046,0|0,1:0|0:0,0:0:0:0:
479,101,135259,2,0,L|384:225,1,150.000005722046,0|0,3:0|0:0,0:0:0:0:
382,31,135804,5,0,1:0:0:0:
321,264,136077,1,0,3:0:0:0:
357,139,136350,1,0,3:0:0:0:
291,373,136623,6,0,L|129:332,1,127.50000243187,6|0,3:0|0:0,3:0:0:0:
134,280,136908,1,0,0:0:0:0:
138,269,137051,1,0,0:0:0:0:
288,360,137194,6,0,L|210:258,1,127.50000243187,8|0,3:0|0:0,0:0:0:0:
221,190,137480,1,0,0:0:0:0:
231,183,137623,1,0,0:0:0:0:
292,347,137765,6,0,L|296:220,1,127.50000243187,0|0,3:0|0:0,0:0:0:0:
153,73,138044,2,0,L|150:201,1,127.50000243187,0|0,3:0|0:0,0:0:0:0:
83,220,138323,1,0,0:0:0:0:
73,213,138462,1,0,0:0:0:0:
27,91,138602,6,0,L|168:71,1,127.50000243187,8|0,3:0|0:0,0:0:0:0:
203,23,138881,2,0,L|339:44,1,127.50000243187,0|0,3:0|0:0,0:0:0:0:
352,116,139160,2,0,L|501:89,1,127.50000243187,0|0,3:0|0:0,0:0:0:0:
487,86,139439,5,0,3:0:0:0:
494,67,139532,1,0,3:0:0:0:
483,44,139625,1,0,3:0:0:0:
457,32,139718,2,0,B|442:102|442:102|461:178,1,150,8|0,3:0|0:0,0:0:0:0:
365,256,140010,6,0,L|203:291,1,127.50000243187,6|0,3:0|0:0,0:0:0:0:
182,249,140293,1,0,0:0:0:0:
173,242,140434,1,0,0:0:0:0:
362,239,140576,6,0,L|289:132,1,127.50000243187,8|0,3:0|0:0,0:0:0:0:
256,204,140859,1,0,0:0:0:0:
245,211,141000,1,0,0:0:0:0:
141,123,141142,6,0,L|267:137,1,127.50000243187,0|0,3:0|0:0,0:0:0:0:
240,282,141425,2,0,L|113:267,1,127.50000243187,0|0,3:0|0:0,0:0:0:0:
61,309,141708,1,0,0:0:0:0:
50,303,141847,1,0,0:0:0:0:
16,184,141987,6,0,L|69:60,1,127.50000243187,8|0,0:3|0:0,0:0:0:0:
134,103,142266,2,0,L|246:27,1,127.50000243187,0|0,3:0|0:0,0:0:0:0:
300,70,142545,2,0,L|425:94,1,127.50000243187,0|0,3:0|0:0,0:0:0:0:
433,103,142824,5,0,3:0:0:0:
440,120,142917,1,0,3:0:0:0:
433,142,143010,1,0,3:0:0:0:
409,157,143103,2,0,B|389:191|389:191|436:291,1,150,8|0,3:0|0:0,0:0:0:0:
241,243,143382,6,0,L|249:115,1,127.50000243187,6|0,3:0|0:0,0:0:0:0:
190,65,143661,1,0,0:0:0:0:
181,72,143801,1,0,0:0:0:0:
232,224,143940,6,0,L|353:284,1,127.50000243187,8|0,3:0|0:0,0:0:0:0:
417,252,144219,1,0,0:0:0:0:
412,241,144359,1,0,0:0:0:0:
252,225,144498,6,0,L|131:270,1,127.50000243187,0|0,3:0|0:0,0:0:0:0:
363,361,144777,2,0,L|484:316,1,127.50000243187,0|0,3:0|0:0,0:0:0:0:
512,254,145056,1,0,0:0:0:0:
512,242,145196,1,0,0:0:0:0:
503,95,145337,6,0,L|388:39,1,127.50000243187,8|0,3:0|0:0,0:0:0:0:
363,105,145619,2,0,L|226:135,1,127.50000243187,0|0,3:0|0:0,0:0:0:0:
188,70,145901,2,0,L|60:51,1,127.50000243187,0|0,3:0|0:0,0:0:0:0:
51,42,146182,5,0,3:0:0:0:
57,25,146276,1,0,3:0:0:0:
75,15,146370,1,0,3:0:0:0:
99,4,146464,2,0,B|196:26|196:26|222:69,1,150,8|0,0:3|0:0,0:0:0:0:
119,197,146746,6,0,L|91:331,1,127.50000243187,6|0,3:0|0:0,0:0:0:0:
29,338,147023,1,0,0:0:0:0:
17,332,147162,1,0,0:0:0:0:
107,203,147301,6,0,L|212:273,1,127.50000243187,8|0,0:3|0:0,0:0:0:0:
239,336,147579,1,0,0:0:0:0:
250,343,147718,1,0,0:0:0:0:
292,187,147857,6,0,L|198:273,1,127.50000243187,0|0,3:0|0:0,0:0:0:0:
386,311,148134,2,0,L|480:224,1,127.50000243187,0|0,3:0|0:0,0:0:0:0:
484,157,148412,1,0,0:0:0:0:
489,146,148551,1,0,0:0:0:0:
385,22,148691,6,0,L|358:147,1,127.50000243187,8|0,3:0|0:0,0:0:0:0:
286,127,148970,2,0,L|223:0,1,127.50000243187,2|0,3:0|0:0,0:0:0:0:
179,73,149249,2,0,L|118:192,1,127.50000243187,2|0,3:0|0:0,0:0:0:0:
78,117,149528,5,0,3:0:0:0:
68,120,149598,5,0,0:0:0:0:
61,114,149667,5,0,0:0:0:0:
51,187,149807,5,8,3:0:0:0:
4,242,150095,1,0,0:0:0:0:
102,264,150383,1,0,0:0:0:0:
112,277,150672,1,0,0:0:0:0:
170,231,150960,2,0,P|166:215|166:199,2,33.3333333333333
285,282,151235,1,2,0:0:0:0:
212,291,151516,1,0,0:0:0:0:
271,370,151798,1,0,0:0:0:0:
282,384,152080,1,0,0:0:0:0:
468,155,152361,6,0,B|349:94|349:94|274:207,1,269.999991760254,12|0,3:0|0:0,0:0:0:0:
239,105,152912,5,0,3:0:0:0:
234,89,153005,1,2,0:0:0:0:
222,74,153099,1,2,0:0:0:0:
204,65,153193,2,0,L|149:58,1,50,0|0,3:0|0:0,0:0:0:0:
68,91,153470,1,0,0:0:0:0:
146,184,153748,2,0,P|152:208|155:232,1,50,0|0,1:0|0:0,0:0:0:0:
130,298,154026,1,0,0:0:0:0:
205,375,154304,6,0,P|217:364|232:356,2,33.3333333333333,0|2|2,3:0|0:0|0:0,0:0:0:0:
233,282,154581,2,0,L|337:287,1,100,0|0,3:0|0:0,0:0:0:0:
512,337,155141,2,0,P|432:259|431:200,1,175,2|0,3:0|0:0,0:0:0:0:
486,19,155702,1,0,1:0:0:0:
512,113,155982,1,0,0:0:0:0:
351,84,156263,5,0,3:0:0:0:
335,78,156356,1,2,0:0:0:0:
321,67,156450,1,2,0:0:0:0:
306,55,156543,2,0,P|284:44|260:38,1,50,0|0,3:0|0:0,0:0:0:0:
171,65,156820,1,0,0:0:0:0:
260,150,157098,2,0,P|307:164|357:160,1,100,0|0,1:0|0:0,0:0:0:0:
479,189,157654,5,0,3:0:0:0:
464,196,157746,1,2,0:0:0:0:
448,202,157839,1,2,0:0:0:0:
429,201,157931,2,0,P|410:216|400:239,1,50,0|0,3:0|0:0,0:0:0:0:
356,311,158207,1,0,0:0:0:0:
232,281,158483,2,0,P|211:269|195:250,1,50,0|0,3:0|0:0,0:0:0:0:
182,265,158760,2,0,P|145:265|111:280,1,75,2|0,3:0|0:0,0:0:0:0:
27,355,159036,2,0,P|76:356|122:376,1,100,0|0,1:0|0:0,0:0:0:0:
33,277,159589,5,0,3:0:0:0:
27,261,159682,1,2,0:0:0:0:
27,244,159774,1,2,0:0:0:0:
30,227,159896,2,0,L|52:129,1,100,0|0,3:0|0:0,0:0:0:0:
136,15,160454,2,0,L|164:110,1,100,0|0,1:0|0:0,0:0:0:0:
260,150,161012,5,0,3:0:0:0:
276,149,161105,1,2,0:0:0:0:
292,146,161198,1,2,0:0:0:0:
307,139,161291,2,0,P|325:122|340:102,1,50,0|0,3:0|0:0,0:0:0:0:
310,15,161572,1,0,0:0:0:0:
488,33,161854,2,0,P|449:109|475:190,1,175,2|0,3:0|0:0,0:0:0:0:
261,73,162417,2,0,L|227:64,1,25,0|0,1:0|0:0,0:0:0:0:
375,185,162981,5,0,3:0:0:0:
381,200,163075,1,2,0:0:0:0:
387,215,163168,1,2,0:0:0:0:
395,229,163262,2,0,L|413:275,1,50,0|0,3:0|0:0,0:0:0:0:
479,337,163545,2,0,L|496:387,1,50
362,353,163828,2,0,P|340:340|322:323,1,50,0|0,1:0|0:0,0:0:0:0:
250,297,164111,2,0,P|237:275|229:251,1,50
75,215,164394,5,0,3:0:0:0:
58,214,164488,1,2,0:0:0:0:
42,218,164582,1,2,0:0:0:0:
27,227,164677,2,0,P|20:276|36:322,1,100,0|0,3:0|0:0,0:0:0:0:
142,261,165227,2,0,P|154:233|155:212,1,50,0|0,3:0|0:0,0:0:0:0:
168,197,165502,2,0,P|158:160|136:130,1,75,0|0,3:0|0:0,0:0:0:0:
227,250,165777,1,0,1:0:0:0:
300,218,166053,1,0,0:0:0:0:
379,108,166328,5,0,3:0:0:0:
385,92,166420,1,2,0:0:0:0:
387,75,166511,1,2,0:0:0:0:
383,58,166603,2,0,P|369:36|352:18,1,50,0|0,3:0|0:0,0:0:0:0:
258,26,166880,1,0,0:0:0:0:
236,152,167158,1,0,1:0:0:0:
164,137,167436,2,0,P|145:120|129:100,1,50
8,12,167714,5,0,3:0:0:0:
19,24,167806,1,2,0:0:0:0:
26,39,167899,1,2,0:0:0:0:
26,55,167991,2,0,L|21:108,1,50,0|0,3:0|0:0,0:0:0:0:
64,175,168272,2,0,L|71:224,1,50
0,358,168554,2,0,P|63:301|147:310,1,175,2|0,0:0|0:0,0:0:0:0:
290,200,169117,2,0,L|191:208,1,100,0|0,1:0|0:0,0:0:0:0:
264,304,169681,5,0,3:0:0:0:
276,314,169775,1,2,0:0:0:0:
290,322,169868,1,2,0:0:0:0:
306,321,169962,2,0,P|330:318|352:306,1,50,0|0,3:0|0:0,0:0:0:0:
443,328,170247,2,0,P|433:350|431:375,1,50
412,258,170533,1,0,1:0:0:0:
395,187,170819,2,0,P|379:167|358:153,1,50
395,90,171104,6,0,P|409:82|423:68,2,33.3333333333333,0|2|2,3:0|0:0|0:0,0:0:0:0:
272,22,171390,2,0,L|204:12,1,50,0|0,3:0|0:0,0:0:0:0:
130,34,171669,2,0,P|114:53|105:76,1,50
161,179,171948,2,0,P|158:203|148:226,1,50,0|0,3:0|0:0,0:0:0:0:
138,241,172227,2,0,P|174:234|211:242,1,75,2|0,3:0|0:0,0:0:0:0:
77,310,172506,2,0,P|54:299|36:282,1,50,0|0,1:0|0:0,0:0:0:0:
4,193,172785,2,0,L|-1:143,1,50
84,23,173064,5,0,3:0:0:0:
100,23,173157,1,2,0:0:0:0:
116,25,173250,1,2,0:0:0:0:
130,34,173343,1,0,3:0:0:0:
200,94,173619,1,0,0:0:0:0:
331,41,173895,2,0,P|319:63|315:87,1,50,0|0,1:0|3:0,0:0:0:0:
358,153,174172,1,0,0:0:0:0:
485,125,174448,5,0,3:0:0:0:
496,112,174541,1,2,0:0:0:0:
502,96,174633,1,2,0:0:0:0:
504,79,174725,2,0,P|487:32|450:0,1,100,0|0,3:0|0:0,0:0:0:0:
282,160,175275,2,0,P|363:186|406:260,1,175,2|0,3:0|0:0,0:0:0:0:
282,367,175825,2,0,P|321:337|329:289,1,100,0|0,1:0|0:0,0:0:0:0:
200,257,176376,5,0,3:0:0:0:
189,269,176468,1,2,0:0:0:0:
173,274,176559,1,2,0:0:0:0:
155,270,176651,2,0,L|103:249,1,50,0|0,3:0|0:0,0:0:0:0:
54,181,176927,2,0,L|2:160,1,50
109,93,177203,2,0,L|161:72,1,50,0|0,1:0|0:0,0:0:0:0:
235,82,177480,2,0,L|287:61,1,50
424,119,177756,5,0,3:0:0:0:
440,117,177849,1,2,0:0:0:0:
454,125,177941,1,2,0:0:0:0:
463,136,178033,2,0,P|490:174|548:153,1,110.000003356934,0|0,3:0|0:0,0:0:0:0:
415,377,178599,2,0,P|404:350|382:329,1,59.9999981689454,0|0,3:0|0:0,0:0:0:0:
356,239,178882,2,0,P|380:255|410:259,1,59.9999981689454,0|0,3:0|3:0,0:0:0:0:
200,257,179165,1,6,3:0:0:0:
458,206,179731,5,0,3:0:0:0:
450,193,179825,1,0,3:0:0:0:
443,177,179919,1,0,3:0:0:0:
439,164,180014,2,0,B|420:56|420:56|450:17,2,150.000005722046,4|0|0,1:3|0:0|3:0,0:0:0:0:
290,287,180867,2,0,P|214:277|155:128,1,240,4|0,3:0|0:0,0:0:0:0:
313,148,181435,5,0,3:0:0:0:
293,150,181530,1,2,0:0:0:0:
274,156,181625,1,2,0:0:0:0:
257,166,181720,2,0,L|197:321,1,139.999995727539,0|0,3:0|0:0,0:0:0:0:
131,318,182283,2,0,L|39:200,1,139.999995727539,0|0,1:0|0:0,0:0:0:0:
64,126,182846,2,0,L|212:104,1,139.999995727539,0|0,3:0|0:0,0:0:0:0:
312,279,183410,5,0,3:0:0:0:
318,298,183504,1,0,3:0:0:0:
329,314,183597,1,0,3:0:0:0:
344,328,183691,2,0,B|445:341|445:341|485:314,2,150.000005722046,0|0|0,1:0|0:0|3:0,0:0:0:0:
200,36,184540,2,0,P|314:40|368:144,1,240,4|0,3:0|0:0,0:0:0:0:
230,240,185106,5,0,3:0:0:0:
223,223,185200,1,2,0:0:0:0:
219,204,185294,1,2,0:0:0:0:
220,187,185389,2,0,L|281:44,1,139.999995727539,0|0,3:0|0:0,0:0:0:0:
403,269,185952,2,0,L|252:244,1,139.999995727539,0|0,1:0|0:0,0:0:0:0:
429,77,186515,2,0,L|454:215,1,139.999995727539,0|0,3:0|0:0,0:0:0:0:
278,326,187079,5,0,3:0:0:0:
259,334,187173,1,0,3:0:0:0:
240,341,187266,1,0,3:0:0:0:
222,348,187360,2,0,B|126:380|126:380|81:361,2,150.000005722046,0|0|0,1:0|0:0|3:0,0:0:0:0:
479,248,188189,2,0,P|403:161|290:183,1,240,4|0,3:0|0:0,0:0:0:0:
345,324,188742,5,0,3:0:0:0:
362,311,188834,1,2,0:0:0:0:
374,294,188926,1,2,0:0:0:0:
382,278,189018,2,0,L|366:121,1,139.999995727539,0|0,3:0|0:0,0:0:0:0:
300,97,189578,2,0,L|155:139,1,139.999995727539,0|0,1:0|0:0,0:0:0:0:
135,209,190139,2,0,L|225:341,1,139.999995727539,0|0,3:0|0:0,0:0:0:0:
0,59,190700,5,0,3:0:0:0:
14,45,190793,1,0,3:0:0:0:
29,33,190887,1,0,3:0:0:0:
48,25,190980,2,0,B|149:39|149:39|181:76,2,150.000005722046,0|0|0,1:0|0:0|3:0,0:0:0:0:
15,243,191825,2,0,P|127:269|203:184,1,240,4|0,3:0|0:0,0:0:0:0:
301,20,192388,5,0,3:0:0:0:
281,15,192482,1,0,3:0:0:0:
261,15,192576,1,0,3:0:0:0:
242,22,192670,2,0,L|301:171,1,139.999995727539,0|0,1:0|3:0,0:0:0:0:
322,216,193070,1,0,3:0:0:0:
433,195,193203,2,0,L|338:319,1,139.999995727539,0|0,3:0|3:0,0:0:0:0:
304,358,193603,1,0,3:0:0:0:
322,216,193736,2,0,L|162:245,1,139.999995727539,0|0,3:0|3:0,0:0:0:0:
115,260,194136,1,0,3:0:0:0:
41,278,194270,1,0,3:0:0:0:
13,46,194536,1,0,3:0:0:0:
108,63,194674,1,0,3:0:0:0:
206,81,194813,6,0,B|245:89|286:69|253:57|308:26|379:40,1,175,4|0,3:0|0:0,0:0:0:0:
374,47,195369,1,0,1:0:0:0:
139,220,195647,2,0,P|133:141|103:68,1,150,4|0,3:0|0:0,0:0:0:0:
50,102,196202,2,0,P|62:131|71:154,1,50,0|0,3:0|0:0,0:0:0:0:
27,207,196480,1,4,3:0:0:0:
209,264,196759,1,0,1:0:0:0:
256,101,197038,1,0,3:0:0:0:
479,28,197317,6,0,P|391:39|352:118,1,175,4|0,3:0|0:0,0:0:0:0:
361,116,197875,1,0,3:0:0:0:
478,297,198154,2,0,P|403:281|304:281,1,175,4|0,1:3|0:0,0:0:0:0:
306,350,198712,2,0,P|346:348|365:353,1,50,0|0,3:0|0:0,0:0:0:0:
420,374,198991,1,0,0:0:0:0:
423,367,199270,1,0,1:0:0:0:
209,242,199549,2,0,P|169:240|150:245,1,50,4|0,3:0|0:0,0:0:0:0:
105,272,199828,2,0,P|144:258|180:258,1,75
187,268,200107,1,0,3:0:0:0:
216,273,200200,1,2,0:0:0:0:
253,248,200293,1,2,0:0:0:0:
268,197,200386,1,0,3:0:0:0:
233,11,200662,1,0,1:0:0:0:
416,99,200938,1,0,3:0:0:0:
485,310,201215,6,0,P|399:307|335:250,1,175,4|0,3:0|0:0,0:0:0:0:
337,243,201768,1,0,3:0:0:0:
164,384,202044,2,0,P|176:358|183:325,2,50,4|0|0,1:3|0:0|0:0,0:0:0:0:
417,216,202600,2,0,P|367:229|249:243,1,150,4|0,3:0|0:0,0:0:0:0:
321,327,203158,2,0,P|363:322|402:311,1,75,0|0,1:0|0:0,0:0:0:0:
220,173,203437,2,0,P|145:164|72:146,1,150,4|0,3:0|0:0,0:0:0:0:
58,212,203995,2,0,P|94:221|128:224,1,50,0|0,3:0|0:0,0:0:0:0:
158,175,204274,1,0,3:0:0:0:
88,32,204551,1,0,1:0:0:0:
264,15,204829,1,0,3:0:0:0:
192,185,205107,6,0,B|169:200|168:283|191:245|221:291|188:355,1,175,4|0,3:0|0:0,0:0:0:0:
185,358,205662,1,0,3:0:0:0:
66,237,205940,2,0,P|52:212|32:204,2,50,4|0|0,1:3|0:0|0:0,0:0:0:0:
177,370,206490,6,0,L|262:354,1,75,4|0,3:0|0:0,0:0:0:0:
258,362,206762,1,0,1:0:0:0:
332,251,206899,2,0,L|246:235,1,75,0|0,3:0|0:0,0:0:0:0:
251,243,207171,1,0,3:0:0:0:
211,189,207308,2,0,P|200:157|179:115,1,75,4|0,3:3|0:0,0:0:0:0:
174,116,207580,1,0,1:0:0:0:
335,59,207717,2,0,P|318:92|305:127,1,75,0|0,3:0|0:0,0:0:0:0:
306,137,207990,1,0,3:0:0:0:
256,0,208126,5,2,3:0:0:0:
256,0,208399,1,0,3:0:0:0:
256,0,208671,1,0,3:0:0:0:
259,3,208944,1,4,0:0:0:0:
256,192,209012,12,0,212476,0:0:0:0:
69,346,241962,6,0,B|109:344|109:344|141:330,2,75.0000028610231,2|0|0,0:0|0:0|0:0,0:0:0:0:
122,210,242807,6,0,B|35:173|35:173|27:128,2,135.000000514984,2|0|0,0:0|0:0|0:0,0:0:0:0:
75,314,243655,6,0,B|32:308|32:308|0:312,2,75.0000028610231,2|0|0,0:0|0:0|0:0,0:0:0:0:
108,111,244512,6,0,B|165:25|165:25|192:66,2,150.000005722046,2|0|0,0:0|0:0|0:0,0:0:0:0:
235,253,245370,6,0,B|208:257|208:257|174:264,2,59.9999981689454,2|0|0,0:0|0:0|0:0,0:0:0:0:
184,138,246215,6,0,B|229:128|229:128|251:110,2,75.0000028610231,2|0|0,0:0|0:0|0:0,0:0:0:0:
214,357,247038,6,0,L|265:361,2,44.999998626709,2|0|0,0:0|0:0|0:0,0:0:0:0:
252,261,247879,6,0,B|282:256|282:256|311:246,1,59.9999981689454,2|0,0:0|0:0,0:0:0:0:
315,360,248439,6,0,L|272:378,1,44.999998626709,2|0,0:0|0:0,0:0:0:0:
322,254,249000,6,0,B|352:249|352:249|388:247,1,59.9999981689454,2|0,0:0|0:0,0:0:0:0:
490,160,249561,6,0,B|490:194|490:194|510:235,2,75.0000028610231,2|0|0,0:0|0:0|0:0,0:0:0:0:
305,45,250406,6,0,B|333:76|333:76|313:169,2,135.000000514984,2|0|0,0:0|0:0|0:0,0:0:0:0:
475,172,251251,6,0,B|479:130|479:130|493:100,2,75.0000028610231,2|0|0,0:0|0:0|0:0,0:0:0:0:
251,225,252096,6,0,B|202:238|202:238|226:141,2,150.000005722046,2|0|0,0:0|0:0|0:0,0:0:0:0:
52,91,252932,6,0,B|57:59|57:59|64:32,2,59.9999981689454,2|0|0,0:0|0:0|0:0,0:0:0:0:
208,62,253777,6,0,B|219:98|219:98|246:132,2,75.0000028610231,2|0|0,0:0|0:0|0:0,0:0:0:0:
133,229,254622,6,0,L|129:273,2,44.999998626709,2|0|0,0:0|0:0|0:0,0:0:0:0:
38,107,255467,6,0,B|36:137|36:137|30:166,1,59.9999981689454,2|0,0:0|0:0,0:0:0:0:
145,219,256030,6,0,L|157:174,1,44.999998626709,2|0,0:0|0:0,0:0:0:0:
22,182,256593,6,0,B|24:209|24:209|31:246,1,59.9999981689454,2|0,0:0|0:0,0:0:0:0:
198,309,257157,6,0,B|233:290|233:290|268:286,2,75.0000028610231,2|0|0,0:0|0:0|0:0,0:0:0:0:
45,346,258002,6,0,B|27:322|-9:335|12:382|63:365,1,100,2|0,0:0|0:0,0:0:0:0:
274,306,258847,6,0,B|232:300|232:300|195:283,2,75.0000028610231
265,58,259696,6,0,B|278:15|228:-4|219:42|247:93,1,125,2|0,0:0|0:0,0:0:0:0:
336,196,260545,6,0,B|313:180|313:180|285:166,2,59.9999981689454
288,383,261394,6,0,B|273:348|273:348|268:311,2,75.0000028610231,2|0|0,0:0|0:0|0:0,0:0:0:0:
435,308,262243,6,0,L|431:355,2,44.999998626709,2|0|0,0:0|0:0|0:0,0:0:0:0:
355,198,263092,6,0,B|341:168|341:168|334:140,1,59.9999981689454,2|0,0:0|0:0,0:0:0:0:
467,259,263658,6,0,L|431:287,1,44.999998626709
344,148,264224,6,0,B|364:127|364:127|382:101,1,59.9999981689454,2|0,0:0|0:0,0:0:0:0:
177,82,264790,6,0,B|139:100|139:100|106:101,2,75.0000028610231,2|0|0,0:0|0:0|0:0,0:0:0:0:
27,234,265643,6,0,B|3:284|-47:218|29:207|29:207,1,100,2|0,0:0|0:0,0:0:0:0:
181,107,266496,6,0,B|213:124|213:124|241:158,2,75.0000028610231,2|0|0,0:0|0:0|0:0,0:0:0:0:
455,148,267349,6,0,B|521:164|499:97|441:118|432:155,1,125,2|0,0:0|0:0,0:0:0:0:
382,267,268202,6,0,B|354:256|354:256|328:240,2,59.9999981689454,2|0|0,0:0|0:0|0:0,0:0:0:0:
196,147,269051,5,2,0:0:0:0:
225,157,269192,2,0,B|218:182|218:182|218:207,1,37.5000014305115,2|0,0:0|0:0,0:0:0:0:
246,379,269900,6,0,L|293:377,2,44.999998626709,2|0|0,0:0|0:0|0:0,0:0:0:0:
316,257,270749,6,0,B|342:269|342:269|379:294,1,59.9999981689454,2|0,0:0|0:0,0:0:0:0:
256,192,271315,12,0,272164,0:0:0:0:
103,355,272407,5,2,0:0:0:0:
133,242,272688,2,0,B|109:287|111:316|121:376,1,134.999995880127
66,98,273252,6,0,B|-3:106|-11:169|71:189|99:145|104:71|104:71,1,200,2|0,0:0|0:0,0:0:0:0:
385,67,274942,6,0,B|336:101|295:89|300:47|343:53,1,125,2|0,0:0|0:0,0:0:0:0:
333,44,275787,6,0,L|274:32,1,59.9999981689454
411,66,276636,2,0,L|343:53,1,69.9999978637696
495,86,277296,1,0,0:0:0:0:
497,88,277390,1,0,0:0:0:0:
499,90,277485,2,0,L|421:75,1,80
276,204,278322,6,0,B|301:210|301:210|342:213,1,59.9999981689454
485,214,278880,6,0,P|449:230|424:261,1,80
330,363,279438,6,0,B|338:339|338:339|340:305,1,59.9999981689454,2|0,0:0|0:0,0:0:0:0:
189,205,279996,5,2,0:0:0:0:
188,372,280280,2,0,B|261:325|264:170|263:218|328:229|172:287|159:185|81:184|29:244,1,400
32,360,282270,6,0,B|37:294|111:253|146:287|159:353|75:336,1,209.999993591309
30,227,283408,6,0,B|76:136|81:77|21:11|21:11,1,220
0,33,284249,2,0,B|36:27|3:66|103:41|251:94,1,247.4999924469
124,39,285090,2,0,B|165:53|184:58|212:72|246:106,1,139.999995727539
472,144,285923,6,0,B|507:108|514:71|497:67,1,80,2|0,0:0|0:0,0:0:0:0:
276,6,286478,6,0,B|284:38|315:59|331:57|370:25,1,100
470,119,287034,6,0,B|475:144|475:144|478:187,1,59.9999981689454
315,192,287590,5,2,0:0:0:0:
244,256,287871,2,0,B|257:239|283:197|326:214|358:222,1,120
434,361,288435,6,0,B|469:388|523:358|528:295|460:243|364:256|355:372,1,299.999990844727,2|0,0:0|0:0,0:0:0:0:
142,346,290125,6,0,B|92:403|-5:337|59:256|148:245|127:329|166:360|229:344,1,300,2|0,0:0|0:0,0:0:0:0:
62,92,292378,5,0,0:0:0:0:
58,83,292444,5,0,0:0:0:0:
62,70,292511,5,0,0:0:0:0:
22,57,292644,2,0,B|103:49|138:55|184:65,1,160
352,161,293468,6,0,B|376:167|376:167|411:168,1,59.9999981689454,2|0,0:0|0:0,0:0:0:0:
494,17,294036,6,0,B|459:-11|426:16|433:63,1,89.9999972534181
488,175,294605,6,0,B|461:186|461:186|431:194,1,59.9999981689454,2|0,0:0|0:0,0:0:0:0:
247,190,295165,6,0,B|262:194|274:207|282:237,1,60,2|0,0:0|0:0,0:0:0:0:
352,178,295448,2,0,B|321:203|284:268|276:306|251:336|189:370,1,250
275,112,297429,6,0,B|306:73|294:18|214:6|184:38|224:43|265:45|264:106,1,209.999993591309
352,196,298561,6,0,B|319:198|326:221|327:200|269:219|239:194|186:182|127:215,1,220
163,219,299394,2,0,B|148:196|158:200|139:107|68:55|81:62|-5:41,1,250
146,100,300231,2,0,B|136:98|135:84|127:100|77:98|54:61|19:37,1,139.999995727539
4,174,301068,6,0,B|38:178|50:187|74:225,1,80,2|0,0:0|0:0,0:0:0:0:
167,380,301626,6,0,B|156:362|163:337|177:329|194:308,1,75
204,310,301905,2,0,B|214:299|221:294|242:284,1,44.999998626709
174,224,302184,6,0,B|181:198|181:198|187:164,1,59.9999981689454
324,330,302737,6,0,L|331:369,1,40,2|0,0:0|0:0,0:0:0:0:
324,330,303303,1,0,0:0:0:0:
377,285,303586,6,0,L|388:225,1,59.9999981689454,2|0,0:0|0:0,0:0:0:0:
377,285,304152,1,0,0:0:0:0:
324,330,304435,6,0,L|331:369,1,40,2|0,0:0|0:0,0:0:0:0:
324,330,304995,1,0,0:0:0:0:
377,285,305276,6,0,L|388:225,1,59.9999981689454,2|0,0:0|0:0,0:0:0:0:
377,285,305836,1,0,0:0:0:0:
324,330,306117,6,0,L|331:369,1,40,2|0,0:0|0:0,0:0:0:0:
255,330,306675,6,0,L|248:291,1,40,2|0,0:0|0:0,0:0:0:0:
181,330,307222,6,0,L|189:377,1,44.999998626709,2|0,0:0|0:0,0:0:0:0:
186,325,307782,1,0,0:0:0:0:
120,285,308063,6,0,L|131:221,1,64.9999970245363,2|0,0:0|0:0,0:0:0:0:
115,290,308623,1,0,0:0:0:0:
186,325,308904,6,0,L|196:381,1,50,2|0,0:0|0:0,0:0:0:0:
194,317,309459,1,0,0:0:0:0:
115,290,309737,6,0,L|127:221,1,69.9999978637696,2|0,0:0|0:0,0:0:0:0:
107,298,310292,1,0,0:0:0:0:
194,317,310570,6,0,L|203:370,1,55.0000016784668,2|0,0:0|0:0,0:0:0:0:
275,317,311115,6,0,L|267:276,1,41.2500012588501
317,213,311388,5,0,3:0:0:0:
330,200,311479,1,0,3:0:0:0:
339,184,311570,1,0,3:0:0:0:
340,165,311660,1,0,1:0:0:0:
405,285,311933,1,0,3:0:0:0:
211,222,312206,1,0,3:0:0:0:
193,308,312479,1,0,3:0:0:0:
46,291,312751,6,0,P|28:322|23:360,1,69.9999978637696,0|0,3:0|3:0,0:0:0:0:
99,244,313298,1,0,3:0:0:0:
212,158,313572,6,0,P|205:114|176:80,1,89.9999972534181,0|0,3:0|3:0,0:0:0:0:
178,252,314120,1,0,3:0:0:0:
256,343,314394,6,0,P|291:361|330:361,1,80,0|0,3:0|3:0,0:0:0:0:
257,253,314936,1,0,3:0:0:0:
72,178,315208,6,0,P|24:165|-24:176,1,100,0|0,3:0|3:0,0:0:0:0:
131,316,315751,1,0,3:0:0:0:
257,253,316022,6,0,P|263:209|291:173,1,89.9999972534181,0|0,3:0|3:0,0:0:0:0:
450,137,316567,2,0,P|443:181|416:217,1,89.9999972534181,0|0,3:0|3:0,0:0:0:0:
401,0,317112,5,0,3:0:0:0:
462,37,317381,1,0,3:0:0:0:
406,81,317650,1,0,3:0:0:0:
217,93,317919,5,0,3:0:0:0:
266,29,318188,1,0,3:0:0:0:
344,44,318457,1,0,3:0:0:0:
256,240,318726,5,0,3:0:0:0:
354,197,318995,1,0,3:0:0:0:
295,108,319264,1,0,3:0:0:0:
50,80,319533,5,0,3:0:0:0:
107,211,319802,1,0,3:0:0:0:
242,164,320071,1,0,3:0:0:0:
473,327,320340,5,0,3:0:0:0:
512,147,320612,1,0,3:0:0:0:
157,148,320885,5,0,3:0:0:0:
224,348,321158,5,0,3:0:0:0:
230,353,321226,5,0,3:0:0:0:
237,353,321294,5,0,3:0:0:0:
243,358,321362,5,0,0:0:0:0:
248,359,321430,6,0,P|269:275|301:227,1,127.50000243187,14|0,3:3|0:0,0:0:0:0:
412,106,321699,2,0,P|368:224|271:305,1,255.000004863739,14|0,3:3|3:0,0:0:0:0:
67,235,322237,6,0,P|120:251|176:248,1,112.500004291535,14|0,3:0|0:0,0:0:0:0:
308,164,322506,2,0,P|198:181|100:236,1,225.000008583069,14|0,3:0|3:0,0:0:0:0:
0,29,323044,6,0,P|67:-1|139:17,1,150,14|0,3:0|0:0,0:0:0:0:
239,95,323313,2,0,P|164:96|94:70,1,150,14|0,3:0|0:0,0:0:0:0:
290,40,323582,2,0,P|305:59|315:82,1,50,4|0,3:0|0:0,0:0:0:0:
472,236,323859,6,0,L|512:0,1,239.999992675781,6|0,3:0|3:0,0:0:0:0:
360,236,324680,6,0,P|238:180|82:146,1,279.999991455078,0|0,1:0|3:0,0:0:0:0:
366,347,325502,2,0,L|506:337,1,139.999995727539,0|0,3:0|1:0,0:0:0:0:
74,287,326312,2,0,L|94:47,1,239.999992675781,0|0,3:0|1:0,0:0:0:0:
280,234,327123,2,0,P|222:222|173:188,1,119.999996337891,0|0,0:0|3:0,0:0:0:0:
100,66,327664,1,0,3:0:0:0:
350,123,327934,2,0,P|305:210|328:305,1,200,0|0,1:0|3:0,0:0:0:0:
508,71,328884,5,0,0:0:0:0:
503,65,328952,5,0,3:0:0:0:
509,60,329019,6,0,P|449:37|386:32,1,127.50000243187,14|0,3:0|0:0,0:0:0:0:
455,183,329288,2,0,P|393:73|281:15,1,255.000004863739,14|0,3:0|3:0,0:0:0:0:
117,92,329826,6,0,P|172:101|222:125,1,112.500004291535,14|0,3:0|0:0,0:0:0:0:
73,179,330095,2,0,P|179:148|289:167,1,225.000008583069,14|0,3:0|3:0,0:0:0:0:
245,358,330633,6,0,P|232:286|179:233,1,150,14|0,3:0|0:0,0:0:0:0:
2,159,330902,2,0,P|83:195|85:274,1,150,14|0,3:0|0:0,0:0:0:0:
48,358,331171,2,0,P|25:351|0:348,1,50,4|0,3:0|0:0,0:0:0:0:
255,274,331440,6,0,L|491:314,1,239.999992675781,6|0,3:0|3:0,0:0:0:0:
215,162,332247,6,0,P|342:108|433:4,1,279.999991455078,0|0,1:0|3:0,0:0:0:0:
83,25,333054,2,0,B|10:54|10:54|89:69,1,160,0|0,3:0|1:0,0:0:0:0:
369,260,333862,6,0,P|332:147|268:45,1,239.999992675781,0|0,3:0|1:0,0:0:0:0:
97,191,334672,2,0,L|214:162,1,119.999996337891,0|0,0:0|3:0,0:0:0:0:
360,173,335213,1,0,3:0:0:0:
184,339,335483,2,0,P|113:274|21:303,1,200,0|0,1:0|3:0,0:0:0:0:
339,259,336437,5,0,3:0:0:0:
347,254,336505,5,0,3:0:0:0:
354,257,336573,6,0,P|398:212|417:152,1,127.50000243187,14|0,3:0|0:0,0:0:0:0:
491,370,336844,2,0,P|421:266|435:141,1,255.000004863739,14|0,3:0|3:0,0:0:0:0:
277,174,337387,6,0,P|263:228|266:284,1,112.500004291535,14|0,3:0|0:0,0:0:0:0:
165,95,337658,2,0,P|232:184|259:292,1,225.000008583069,14|0,3:0|3:0,0:0:0:0:
131,338,338187,6,0,P|157:268|153:194,1,150,14|0,3:0|0:0,0:0:0:0:
288,81,338452,2,0,P|226:121|152:117,1,150,14|0,3:0|0:0,0:0:0:0:
277,174,338717,2,0,P|287:202|306:224,1,59.9999981689454,4|0,3:0|0:0,0:0:0:0:
499,357,338983,6,0,B|505:367|505:367|505:375|505:375|512:384,1,29.9999990844727,6|0,3:0|0:0,0:0:0:0:
451,231,339775,5,0,1:0:0:0:
405,286,339908,2,0,L|397:322,1,37.5000014305115,0|0,3:0|3:0,0:0:0:0:
362,116,340172,6,0,L|426:86,1,59.9999981689454,6|0,3:0|0:0,0:0:0:0:
484,110,340436,1,0,3:0:0:0:
379,221,340568,2,0,L|315:251,1,59.9999981689454,6|0,3:0|3:0,0:0:0:0:
167,181,340833,5,0,1:0:0:0:
223,225,340965,2,0,L|232:265,1,37.5000014305115,0|0,3:0|3:0,0:0:0:0:
328,316,341229,1,0,1:0:0:0:
264,348,341361,2,0,L|255:387,1,37.5000014305115,0|0,3:0|3:0,0:0:0:0:
223,225,341621,5,0,1:0:0:0:
324,246,341752,1,0,3:0:0:0:
267,159,341882,5,0,1:0:0:0:
295,181,342013,1,0,3:0:0:0:
340,119,342143,5,0,3:0:0:0:
347,136,342274,1,0,3:0:0:0:
367,119,342404,6,0,P|337:183|336:254,1,142.49999619484,14|0,3:0|0:0,0:0:0:0:
158,154,342669,2,0,P|214:231|228:324,1,189.999994926453,14|0,3:0|0:0,0:0:0:0:
63,277,343067,5,0,3:0:0:0:
67,273,343134,5,0,0:0:0:0:
65,267,343200,6,0,P|124:244|188:242,1,127.50000243187,14|0,3:0|0:0,0:0:0:0:
90,102,343465,2,0,P|165:138|249:132,1,170.000003242493,14|0,3:0|0:0,0:0:0:0:
461,64,343864,5,0,3:0:0:0:
466,71,343930,5,0,0:0:0:0:
475,72,343996,6,0,P|462:152|406:211,1,165.000005035401,14|0,3:0|0:0,0:0:0:0:
291,43,344266,2,0,P|267:120|294:197,1,165.000005035401,14|0,3:0|0:0,0:0:0:0:
446,195,344536,2,0,P|429:213|407:224,1,50,4|0,3:0|0:0,0:0:0:0:
142,339,344806,6,0,B|126:357|126:357|126:359|126:359|117:369,1,40,6|0,3:0|0:0,0:0:0:0:
91,383,345667,6,0,P|137:243|108:97,1,300,6|0,1:3|0:0,0:0:0:0:
225,59,346241,6,0,L|304:71,1,80,0|0,3:0|0:0,0:0:0:0:
372,0,346786,1,0,1:0:0:0:
338,140,347059,2,0,L|253:156,1,80,4|0,3:0|0:0,0:0:0:0:
212,68,347604,1,0,3:0:0:0:
235,232,347877,6,0,L|312:242,1,60,0|0,3:0|0:0,0:0:0:0:
187,134,348150,2,0,L|165:212,1,75,0|0,1:0|0:0,0:0:0:0:
349,153,348422,2,0,L|369:240,1,89.9999972534181,0|0,3:0|0:0,0:0:0:0:
142,339,348695,6,0,B|126:357|126:357|126:359|126:359|117:369,1,40,4|0,3:0|3:0,0:0:0:0:
91,383,349516,6,0,P|137:243|108:97,1,300,4|0,1:3|0:0,0:0:0:0:
225,59,350064,6,0,L|304:71,1,80,4|0,3:0|0:0,0:0:0:0:
372,0,350619,1,0,1:0:0:0:
338,140,350897,2,0,L|253:156,1,80,4|0,3:0|0:0,0:0:0:0:
212,68,351452,1,0,3:0:0:0:
235,232,351730,6,0,L|312:242,1,60,0|0,3:0|0:0,0:0:0:0:
187,134,352000,2,0,L|165:212,1,75,0|0,1:0|0:0,0:0:0:0:
349,153,352270,2,0,L|369:240,1,89.9999972534181,0|0,3:0|0:0,0:0:0:0:
142,339,352540,6,0,B|126:357|126:357|126:359|126:359|117:369,1,40,4|0,3:0|3:0,0:0:0:0:
91,383,353389,6,0,P|137:243|108:97,1,300,4|0,1:3|0:0,0:0:0:0:
225,59,353955,6,0,L|304:71,1,80,4|0,3:0|0:0,0:0:0:0:
372,0,354510,1,0,1:0:0:0:
338,140,354788,2,0,L|253:156,1,80,4|0,3:0|0:0,0:0:0:0:
212,68,355343,1,0,3:0:0:0:
235,232,355621,2,0,L|312:242,1,60,0|0,3:0|0:0,0:0:0:0:
187,134,355899,2,0,L|165:212,1,75,0|0,1:0|0:0,0:0:0:0:
349,153,356177,2,0,L|369:240,1,89.9999972534181,0|0,3:0|0:0,0:0:0:0:
142,339,356455,6,0,B|126:357|126:357|126:359|126:359|117:369,1,40,4|0,3:0|3:0,0:0:0:0:
91,383,357273,6,0,P|137:243|108:97,1,300,4|0,1:3|3:0,0:0:0:0:
225,59,357806,6,0,L|274:66,1,50,0|0,1:0|0:0,0:0:0:0:
355,77,358073,2,0,L|404:84,1,50,0|0,1:0|0:0,0:0:0:0:
374,0,358341,1,0,3:0:0:0:
311,134,358609,2,0,L|261:143,1,50,0|0,3:0|0:0,0:0:0:0:
194,161,358877,2,0,L|144:170,1,50,0|0,3:0|0:0,0:0:0:0:
74,188,359145,1,0,3:0:0:0:
111,239,359425,6,0,P|114:268|123:297,1,59.9999981689454,0|0,3:0|0:0,0:0:0:0:
180,326,359828,1,0,3:0:0:0:
185,329,359963,2,0,L|253:332,1,59.9999981689454,0|0,1:0|0:0,0:0:0:0:
307,348,360366,1,0,3:0:0:0:
312,352,360501,2,0,L|315:377,2,19.9999993896485,0|0|0,3:0|3:0|3:0,0:0:0:0:
335,290,360770,2,0,P|365:285|392:272,1,59.9999981689454,0|0,3:0|0:0,0:0:0:0:
457,278,361173,1,0,3:0:0:0:
462,281,361308,2,0,L|476:307,1,29.9999990844727,0|0,3:0|0:0,0:0:0:0:
512,241,361577,2,0,L|516:221,2,19.9999993896485
512,215,361846,2,0,P|483:206|453:209,1,59.9999981689454,0|0,1:0|0:0,0:0:0:0:
445,111,362384,5,0,3:0:0:0:
447,95,362474,1,0,3:0:0:0:
443,79,362563,1,0,3:0:0:0:
437,66,362653,2,0,L|367:57,1,69.9999978637696,0|0,3:0|0:0,0:0:0:0:
301,64,363053,1,0,3:0:0:0:
296,66,363186,2,0,P|282:98|279:133,1,69.9999978637696,0|0,3:0|0:0,0:0:0:0:
237,188,363586,1,0,3:0:0:0:
242,191,363719,2,0,L|226:196,3,17.4999994659424,0|0|0|0,3:0|0:0|0:0|0:0,0:0:0:0:
211,125,363986,2,0,P|176:117|146:99,1,69.9999978637696,0|0,3:0|0:0,0:0:0:0:
82,81,364389,1,0,3:0:0:0:
78,87,364524,2,0,P|82:121|102:150,1,69.9999978637696,0|0,3:0|0:0,0:0:0:0:
159,187,364927,1,0,3:0:0:0:
163,191,365062,2,0,P|132:208|110:235,1,69.9999978637696,0|0,1:0|0:0,0:0:0:0:
126,340,365600,5,0,3:0:0:0:
143,347,365690,1,0,3:0:0:0:
161,347,365779,1,0,3:0:0:0:
176,343,365869,2,0,P|189:305|186:265,1,80,0|0,3:0|0:0,0:0:0:0:
254,242,366270,1,0,3:0:0:0:
260,247,366404,2,0,P|276:282|309:304,1,80,0|0,1:0|0:0,0:0:0:0:
408,276,366940,1,0,3:0:0:0:
427,266,367029,1,0,3:0:0:0:
443,252,367119,1,0,3:0:0:0:
457,236,367208,2,0,L|466:156,1,80,0|0,3:0|0:0,0:0:0:0:
404,119,367611,1,0,3:0:0:0:
400,124,367746,2,0,L|390:203,1,80,0|0,3:0|0:0,0:0:0:0:
323,180,368149,1,0,3:0:0:0:
318,183,368284,2,0,L|220:173,1,80,0|0,1:0|0:0,0:0:0:0:
126,165,368822,5,0,3:0:0:0:
107,154,368912,1,0,3:0:0:0:
95,136,369001,1,0,3:0:0:0:
92,117,369091,2,0,P|102:75|138:49,1,89.9999972534181,0|0,3:0|0:0,0:0:0:0:
206,83,369498,1,0,3:0:0:0:
212,86,369633,2,0,P|252:68|270:28,1,89.9999972534181,0|0,1:0|0:0,0:0:0:0:
291,17,369995,1,0,3:0:0:0:
314,11,370086,1,0,3:0:0:0:
337,15,370176,1,0,3:0:0:0:
359,23,370267,1,0,3:0:0:0:
374,41,370357,1,0,3:0:0:0:
382,58,370448,2,0,P|377:102|403:138,1,89.9999972534181,0|0,3:0|0:0,0:0:0:0:
461,186,370849,1,0,3:0:0:0:
465,191,370983,2,0,P|423:203|400:240,1,89.9999972534181,0|0,3:0|0:0,0:0:0:0:
343,186,371385,1,0,3:0:0:0:
337,182,371519,1,0,1:0:0:0:
244,163,371787,6,0,L|235:199,1,25,0|0,3:0|3:0,3:0:0:0:
235,168,371921,6,0,L|231:206,1,25,0|0,3:0|3:0,3:0:0:0:
226,174,372055,6,0,L|232:207,1,25,0|0,3:0|3:0,3:0:0:0:
220,178,372189,6,0,L|216:215,1,25,0|0,3:0|3:0,3:0:0:0:
146,205,372323,6,0,L|161:323,1,119.999996337891,0|0,3:0|0:0,0:0:0:0:
228,362,372728,1,0,0:0:0:0:
236,359,372863,2,0,L|247:269,1,89.9999972534181,0|0,1:0|0:0,0:0:0:0:
256,276,373133,6,0,L|285:269,1,29.9999990844727,0|0,3:0|3:0,3:0:0:0:
272,282,373268,6,0,L|303:287,1,29.9999990844727,0|0,3:0|3:0,3:0:0:0:
288,276,373404,6,0,L|314:262,1,29.9999990844727,0|0,3:0|3:0,3:0:0:0:
304,282,373539,6,0,L|334:282,1,29.9999990844727,0|0,3:0|3:0,3:0:0:0:
402,246,373674,6,0,P|434:199|412:146,1,119.999996337891,0|0,3:0|0:0,0:0:0:0:
436,71,374068,1,0,3:0:0:0:
442,66,374200,2,0,P|417:13|360:7,1,119.999996337891,0|0,3:0|3:0,0:0:0:0:
319,70,374595,1,0,3:0:0:0:
313,75,374726,2,0,P|271:77|248:41,1,89.9999972534181,0|0,1:0|0:0,0:0:0:0:
234,32,374989,6,0,L|200:43,1,29.9999990844727,0|0,3:0|3:0,3:0:0:0:
216,25,375121,6,0,L|184:24,1,29.9999990844727,0|0,3:0|3:0,3:0:0:0:
205,32,375252,6,0,L|179:60,1,29.9999990844727,0|0,3:0|3:0,3:0:0:0:
188,30,375384,6,0,L|153:41,1,29.9999990844727,0|0,3:0|3:0,3:0:0:0:
94,86,375516,6,0,P|99:149|67:205,1,129.999994049073,0|0,3:0|0:0,0:0:0:0:
41,282,375912,1,0,0:0:0:0:
37,290,376044,2,0,L|133:277,1,97.4999955368044,0|0,1:0|0:0,0:0:0:0:
149,265,376308,6,0,L|160:234,1,32.4999985122681,0|0,3:0|3:0,3:0:0:0:
163,267,376441,6,0,L|168:298,1,32.4999985122681,0|0,3:0|3:0,3:0:0:0:
179,264,376573,6,0,L|196:223,1,32.4999985122681,0|0,3:0|3:0,3:0:0:0:
193,268,376705,6,0,L|213:302,1,32.4999985122681,0|0,3:0|3:0,3:0:0:0:
273,244,376837,6,0,P|292:184|351:163,1,129.999994049073,0|0,3:0|0:0,0:0:0:0:
428,189,377231,1,0,3:0:0:0:
434,192,377363,2,0,L|468:332,1,129.999994049073,0|0,3:0|3:0,0:0:0:0:
384,310,377758,1,0,3:0:0:0:
376,304,377889,2,0,P|331:289|296:319,1,97.4999955368044,0|0,1:0|0:0,0:0:0:0:
272,315,378152,6,0,L|240:305,1,32.4999985122681,0|0,3:0|3:0,3:0:0:0:
252,328,378284,6,0,L|228:305,1,32.4999985122681,0|0,3:0|3:0,3:0:0:0:
230,319,378415,6,0,L|180:344,1,32.4999985122681,0|0,3:0|3:0,3:0:0:0:
215,312,378547,6,0,L|170:343,1,32.4999985122681,0|0,3:0|3:0,3:0:0:0:
105,339,378679,6,0,L|64:190,1,139.999995727539,0|0,3:0|0:0,0:0:0:0:
76,120,379072,1,0,0:0:0:0:
83,114,379203,2,0,P|130:108|142:155,1,104.999996795654,0|0,1:0|0:0,0:0:0:0:
158,168,379465,6,0,L|168:201,1,34.9999989318848,0|0,3:0|3:0,3:0:0:0:
176,165,379596,6,0,L|210:171,1,34.9999989318848,0|0,3:0|3:0,3:0:0:0:
195,172,379727,6,0,L|245:216,1,34.9999989318848,0|0,3:0|3:0,3:0:0:0:
202,156,379858,6,0,L|248:132,1,34.9999989318848,0|0,3:0|3:0,3:0:0:0:
316,157,379989,2,0,P|378:146|371:83,1,139.999995727539,0|0,3:0|0:0,0:0:0:0:
291,67,380378,1,0,3:0:0:0:
297,72,380508,2,0,L|439:28,1,139.999995727539,0|0,1:0|3:0,0:0:0:0:
493,88,380898,1,0,3:0:0:0:
490,97,381027,2,0,P|464:139|488:183,1,104.999996795654,0|0,1:0|0:0,0:0:0:0:
500,195,381287,6,0,L|530:211,1,34.9999989318848,0|0,3:0|3:0,3:0:0:0:
497,212,381417,6,0,L|514:250,1,34.9999989318848,0|0,3:0|3:0,3:0:0:0:
485,222,381547,6,0,L|484:280,1,34.9999989318848,0|0,3:0|3:0,3:0:0:0:
470,226,381677,6,0,L|446:269,1,34.9999989318848,0|0,3:0|3:0,3:0:0:0:
362,241,381807,6,0,P|323:293|383:317,1,150.000005722046,0|0,3:0|0:0,0:0:0:0:
301,377,382203,1,0,0:0:0:0:
292,375,382335,2,0,L|208:300,1,112.500004291535,0|0,1:0|0:0,0:0:0:0:
182,303,382599,6,0,L|146:315,1,37.5000014305115,0|0,3:0|3:0,3:0:0:0:
168,280,382732,6,0,L|138:256,1,37.5000014305115,0|0,3:0|3:0,3:0:0:0:
141,278,382864,6,0,L|102:267,1,37.5000014305115,0|0,3:0|3:0,3:0:0:0:
141,252,382996,6,0,L|114:191,1,37.5000014305115,0|0,3:0|3:0,3:0:0:0:
37,206,383128,6,0,P|15:145|79:143,1,150.000005722046,0|0,3:0|0:0,0:0:0:0:
171,152,383526,1,0,3:0:0:0:
176,156,383658,2,0,P|224:110|173:68,1,150.000005722046,0|0,3:0|3:0,0:0:0:0:
291,2,384057,1,0,3:0:0:0:
296,6,384189,2,0,P|274:209|370:28,1,575.000010967255,0|0,1:0|0:0,0:0:0:0:
478,237,384986,6,0,L|508:335,1,97.4999955368044,2|0,3:0|0:0,0:0:0:0:
458,380,385253,5,0,3:0:0:0:
441,384,385343,1,0,3:0:0:0:
423,384,385432,1,0,3:0:0:0:
425,354,385521,6,0,P|367:330|336:275,1,127.50000243187,4|0,1:3|0:0,0:0:0:0:
344,267,385789,2,0,L|335:341,1,75,0|0,3:0|0:0,0:0:0:0:
269,301,386057,5,0,3:0:0:0:
265,284,386146,1,0,3:0:0:0:
262,266,386236,1,0,3:0:0:0:
233,275,386325,6,0,P|172:287|143:341,1,127.50000243187,4|0,1:0|0:0,0:0:0:0:
88,285,386593,5,0,3:0:0:0:
70,287,386682,1,0,3:0:0:0:
52,288,386771,1,0,3:0:0:0:
40,260,386861,6,0,P|87:250|128:224,1,97.4999955368044,4|0,1:3|0:0,0:0:0:0:
102,27,387128,6,0,L|72:125,1,97.4999955368044,4|0,3:0|0:0,0:0:0:0:
148,122,387393,5,0,3:0:0:0:
165,119,387481,1,0,3:0:0:0:
182,116,387570,1,0,3:0:0:0:
176,86,387658,6,0,P|212:36|273:39,1,127.50000243187,4|0,1:3|0:0,0:0:0:0:
272,28,387924,2,0,P|260:63|262:100,1,75,0|0,3:0|0:0,0:0:0:0:
342,151,388189,5,0,3:0:0:0:
349,166,388278,1,0,3:0:0:0:
356,181,388366,1,0,3:0:0:0:
323,182,388455,6,0,L|196:194,1,127.50000243187,4|0,1:3|0:0,0:0:0:0:
233,275,388720,5,0,3:0:0:0:
232,292,388809,1,0,3:0:0:0:
230,309,388897,1,0,3:0:0:0:
262,296,388986,6,0,L|359:302,1,97.4999955368044,4|0,1:3|0:0,0:0:0:0:
512,274,389251,6,0,P|463:271|420:250,1,97.4999955368044,4|0,3:0|0:0,0:0:0:0:
470,186,389516,5,0,3:0:0:0:
485,179,389604,1,0,3:0:0:0:
500,171,389693,1,0,3:0:0:0:
473,150,389781,6,0,P|466:88|414:56,1,127.50000243187,4|0,1:3|0:0,0:0:0:0:
423,48,390047,2,0,P|444:78|455:114,1,75,0|0,3:0|0:0,0:0:0:0:
342,74,390312,5,0,3:0:0:0:
325,70,390401,1,0,3:0:0:0:
307,66,390489,1,0,3:0:0:0:
321,38,390578,6,0,L|203:103,1,113.333335494995,4|0,1:3|0:0,0:0:0:0:
153,131,390843,5,0,3:0:0:0:
145,115,390932,1,0,3:0:0:0:
137,99,391020,1,0,3:0:0:0:
117,118,391109,6,0,L|196:174,1,97.4999955368044,4|0,1:3|0:0,0:0:0:0:
289,295,391374,6,0,L|318:202,1,97.4999955368044,4|0,3:0|0:0,0:0:0:0:
229,241,391640,5,0,3:0:0:0:
218,254,391729,1,0,3:0:0:0:
207,267,391818,1,0,3:0:0:0:
181,249,391907,6,0,P|211:295|204:350,1,113.333335494995,4|0,1:3|0:0,0:0:0:0:
190,355,392174,2,0,P|227:356|262:369,1,75,0|0,3:0|0:0,0:0:0:0:
343,349,392440,5,0,3:0:0:0:
355,337,392529,1,0,3:0:0:0:
368,325,392618,1,0,3:0:0:0:
377,347,392707,6,0,L|486:376,1,113.333335494995,4|0,1:3|0:0,0:0:0:0:
434,275,392974,5,0,3:0:0:0:
421,263,393062,1,0,3:0:0:0:
408,251,393151,1,0,3:0:0:0:
378,252,393240,6,0,P|410:223|449:205,1,86.6666626993817,6|0,1:3|0:0,0:0:0:0:
296,132,393529,6,0,L|267:148,2,33.3333333333333,0|0|0,3:0|3:0|3:0,0:0:0:0:
364,140,393792,5,0,3:0:0:0:
373,143,393879,1,0,3:0:0:0:
382,146,393967,1,0,3:0:0:0:
435,89,394055,6,0,P|437:69|445:51,2,39.9999987792969,0|0|0,1:0|3:0|3:0,3:0:0:0:
324,48,394318,2,0,L|336:78,2,33.3333333333333,0|0|0,3:0|3:0|3:0,3:0:0:0:
258,77,394581,5,0,3:0:0:0:
247,76,394669,1,0,3:0:0:0:
237,75,394757,1,0,3:0:0:0:
181,12,394844,6,0,P|197:2|216:-4,2,39.9999987792969,0|0|0,1:0|3:0|3:0,3:0:0:0:
168,81,395107,5,0,3:0:0:0:
166,90,395195,1,0,3:0:0:0:
164,99,395283,1,0,3:0:0:0:
222,148,395371,6,0,P|236:161|246:178,2,39.9999987792969,0|0|0,1:0|3:0|3:0,3:0:0:0:
131,309,395634,6,0,P|115:309|99:306,2,33.3333333333333,0|0|0,3:0|3:0|3:0,3:0:0:0:
175,253,395897,5,0,3:0:0:0:
177,243,395985,1,0,3:0:0:0:
179,233,396072,1,0,3:0:0:0:
122,171,396160,6,0,P|106:160|88:152,2,39.9999987792969,0|0|0,1:0|3:0|3:0,3:0:0:0:
62,72,396423,2,0,P|78:75|94:82,2,33.3333333333333,0|0|0,3:0|3:0|3:0,3:0:0:0:
24,132,396686,5,0,3:0:0:0:
14,136,396774,1,0,3:0:0:0:
4,139,396862,1,0,3:0:0:0:
0,221,396950,6,0,P|1:240|10:258,2,39.9999987792969,0|0|0,1:0|3:0|3:0,3:0:0:0:
68,216,397213,5,0,3:0:0:0:
71,227,397300,1,0,3:0:0:0:
75,238,397388,1,0,3:0:0:0:
98,306,397476,6,0,P|79:311|60:311,2,39.9999987792969,0|0|0,1:0|3:0|3:0,3:0:0:0:
291,368,397739,6,0,P|309:361|329:359,2,39.9999987792969,0|0|0,3:0|3:0|3:0,3:0:0:0:
234,324,398002,5,0,3:0:0:0:
222,322,398090,1,0,3:0:0:0:
210,319,398178,1,0,3:0:0:0:
176,242,398265,6,0,P|176:222|180:202,2,39.9999987792969,0|0|0,1:0|3:0|3:0,3:0:0:0:
302,253,398529,2,0,P|302:272|296:292,2,39.9999987792969,0|0|0,3:0|3:0|3:0,3:0:0:0:
249,207,398792,5,0,3:0:0:0:
253,195,398879,1,0,3:0:0:0:
257,183,398967,1,0,3:0:0:0:
242,100,399055,6,0,P|223:91|204:87,2,39.9999987792969,0|0|0,1:0|3:0|3:0,3:0:0:0:
302,132,399318,5,0,3:0:0:0:
313,128,399406,1,0,3:0:0:0:
324,124,399493,1,0,3:0:0:0:
386,163,399581,6,0,P|404:170|424:172,2,39.9999987792969,0|0|0,1:0|3:0|3:0,3:0:0:0:
370,30,399851,6,0,P|365:14|357:0,2,33.3333333333333,0|0|0,3:0|3:0|3:0,3:0:0:0:
426,69,400113,5,0,3:0:0:0:
435,72,400200,1,0,3:0:0:0:
444,75,400287,1,0,3:0:0:0:
501,132,400375,6,0,P|508:150|513:169,2,39.9999987792969,0|0|0,1:0|3:0|3:0,3:0:0:0:
405,251,400637,2,0,L|375:238,2,33.3333333333333,0|0|0,3:0|3:0|3:0,3:0:0:0:
474,243,400899,5,0,3:0:0:0:
483,239,400986,1,0,3:0:0:0:
492,235,401073,1,0,3:0:0:0:
512,315,401161,5,0,1:0:0:0:
402,382,401423,5,0,3:0:0:0:
393,378,401510,1,0,3:0:0:0:
384,374,401597,1,0,3:0:0:0:
365,306,401685,5,0,1:0:0:0:
