osu file format v14

[General]
AudioFilename: audio.mp3
AudioLeadIn: 0
PreviewTime: 59045
Countdown: 0
SampleSet: Normal
StackLeniency: 0.7
Mode: 1
LetterboxInBreaks: 0
WidescreenStoryboard: 1

[Editor]
DistanceSpacing: 0.3
BeatDivisor: 4
GridSize: 32
TimelineZoom: 1.7

[Metadata]
Title:Tablet (TV Size)
TitleUnicode:錠剤 (TV Size)
Artist:TOOBOE
ArtistUnicode:TOOBOE
Creator:gaston_2199
Version:KIBITZ'S FUTSUU FIEND
Source:チェンソーマン
Tags:Chainsaw Man chainsawman csm MAPPA john Jouzai anime ending ed 4 four japanese pop jpop j-pop rock jrock j-rock Hivie Kibitz hac aceticke meiqth
BeatmapID:3864730
BeatmapSetID:1877477

[Difficulty]
HPDrainRate:7
CircleSize:2
OverallDifficulty:4
ApproachRate:10
SliderMultiplier:1.4
SliderTickRate:1

[Events]
//Background and Video events
0,0,"kibitz bg.jpg",0,80
Video,-64,"TaikoVideo.mp4"
//Break Periods
//Storyboard Layer 0 (Background)
//Storyboard Layer 1 (Fail)
//Storyboard Layer 2 (Pass)
//Storyboard Layer 3 (Foreground)
//Storyboard Layer 4 (Overlay)
//Storyboard Sound Samples

[TimingPoints]
320,300,4,1,0,80,1,0
320,-57.1428571428571,4,1,0,80,0,1
2420,-57.1428571428571,4,1,0,80,0,0
2720,-100,4,1,0,80,0,0
59120,-100,4,1,0,80,0,1
77120,-100,4,1,0,80,0,0
77420,-100,4,1,0,80,0,1
78320,-100,4,1,0,80,0,0

[HitObjects]
256,192,320,12,0,2420,0:0:0:0:
233,166,2720,5,4,0:0:0:0:
233,166,3320,1,0,0:0:0:0:
233,166,3470,1,0,0:0:0:0:
233,166,3770,1,2,0:0:0:0:
233,166,4070,5,0,0:0:0:0:
233,166,4370,1,2,0:0:0:0:
233,166,4670,1,2,0:0:0:0:
233,166,4820,1,0,0:0:0:0:
233,166,5120,1,6,0:0:0:0:
233,166,5720,1,2,0:0:0:0:
233,166,5870,1,2,0:0:0:0:
233,166,6170,1,0,0:0:0:0:
233,166,6470,1,2,0:0:0:0:
233,166,6770,1,0,0:0:0:0:
233,166,7070,1,0,0:0:0:0:
233,166,7220,1,2,0:0:0:0:
233,166,7520,1,4,0:0:0:0:
233,166,8120,1,2,0:0:0:0:
233,166,8270,1,0,0:0:0:0:
233,166,8570,1,2,0:0:0:0:
233,166,8870,1,2,0:0:0:0:
246,169,9170,1,0,0:0:0:0:
246,169,9470,1,0,0:0:0:0:
246,169,9620,1,2,0:0:0:0:
246,169,9920,1,6,0:0:0:0:
232,165,10520,1,2,0:0:0:0:
225,163,10670,1,0,0:0:0:0:
232,165,10970,1,0,0:0:0:0:
232,165,11270,1,2,0:0:0:0:
225,163,11570,1,0,0:0:0:0:
232,165,11870,1,2,0:0:0:0:
232,165,12020,1,0,0:0:0:0:
225,163,12320,1,4,0:0:0:0:
221,135,12920,1,0,0:0:0:0:
225,163,13070,1,2,0:0:0:0:
225,163,13370,1,0,0:0:0:0:
225,163,13670,1,0,0:0:0:0:
225,163,13970,1,2,0:0:0:0:
225,163,14270,1,0,0:0:0:0:
225,163,14420,1,2,0:0:0:0:
225,163,14720,1,0,0:0:0:0:
225,163,15020,1,2,0:0:0:0:
225,163,15170,1,0,0:0:0:0:
232,163,15320,1,0,0:0:0:0:
225,163,15620,1,2,0:0:0:0:
225,163,15920,1,2,0:0:0:0:
225,163,16070,1,0,0:0:0:0:
225,163,16370,5,2,0:0:0:0:
238,164,16670,1,2,0:0:0:0:
225,163,16820,1,0,0:0:0:0:
225,163,17120,1,6,0:0:0:0:
221,135,17720,1,2,0:0:0:0:
225,163,17870,1,0,0:0:0:0:
225,163,18170,1,2,0:0:0:0:
225,163,18470,1,2,0:0:0:0:
225,163,18770,1,0,0:0:0:0:
225,163,19070,1,2,0:0:0:0:
225,163,19220,1,0,0:0:0:0:
225,163,19520,1,2,0:0:0:0:
225,163,19820,1,0,0:0:0:0:
225,163,19970,1,2,0:0:0:0:
232,163,20120,1,2,0:0:0:0:
225,163,20420,1,0,0:0:0:0:
225,163,20720,1,0,0:0:0:0:
225,163,20870,1,2,0:0:0:0:
225,163,21170,5,0,0:0:0:0:
238,164,21470,1,0,0:0:0:0:
225,163,21620,1,2,0:0:0:0:
225,163,21920,1,4,0:0:0:0:
238,164,22520,1,2,0:0:0:0:
238,164,22670,1,2,0:0:0:0:
225,138,22970,1,0,0:0:0:0:
238,141,23270,1,2,0:0:0:0:
251,144,23570,1,0,0:0:0:0:
251,144,23870,1,2,0:0:0:0:
238,141,24020,1,2,0:0:0:0:
251,144,24320,1,0,0:0:0:0:
251,144,24620,1,2,0:0:0:0:
251,144,24920,1,0,0:0:0:0:
251,144,25070,1,0,0:0:0:0:
238,164,25370,5,0,0:0:0:0:
238,164,25670,1,2,0:0:0:0:
238,164,25970,1,0,0:0:0:0:
238,164,26420,1,0,0:0:0:0:
238,164,26570,1,0,0:0:0:0:
238,164,26720,1,6,0:0:0:0:
238,164,27020,1,0,0:0:0:0:
238,164,27320,1,2,0:0:0:0:
238,164,27470,1,2,0:0:0:0:
238,164,27770,1,2,0:0:0:0:
238,164,28070,1,0,0:0:0:0:
238,164,28370,1,2,0:0:0:0:
238,164,28820,1,2,0:0:0:0:
257,187,29120,1,4,0:0:0:0:
221,135,29720,1,0,0:0:0:0:
225,163,29870,1,2,0:0:0:0:
225,163,30170,1,0,0:0:0:0:
225,163,30470,1,0,0:0:0:0:
225,163,30770,1,2,0:0:0:0:
225,163,31070,1,0,0:0:0:0:
225,163,31220,1,2,0:0:0:0:
225,163,31520,1,0,0:0:0:0:
225,163,31820,1,2,0:0:0:0:
225,163,31970,1,0,0:0:0:0:
232,163,32120,1,0,0:0:0:0:
225,163,32420,1,2,0:0:0:0:
225,163,32720,1,2,0:0:0:0:
225,163,32870,1,0,0:0:0:0:
225,163,33170,5,2,0:0:0:0:
238,164,33470,1,2,0:0:0:0:
225,163,33620,1,0,0:0:0:0:
225,163,33920,1,4,0:0:0:0:
249,175,34520,1,2,0:0:0:0:
225,163,34670,1,2,0:0:0:0:
225,163,34970,1,0,0:0:0:0:
249,175,35270,1,2,0:0:0:0:
249,175,35570,1,2,0:0:0:0:
249,175,35870,1,0,0:0:0:0:
249,175,36020,1,0,0:0:0:0:
249,175,36320,1,2,0:0:0:0:
249,175,36620,1,0,0:0:0:0:
249,175,36920,1,2,0:0:0:0:
249,175,37070,1,0,0:0:0:0:
249,175,37220,1,2,0:0:0:0:
249,175,37520,1,2,0:0:0:0:
249,175,37820,1,0,0:0:0:0:
249,175,37970,1,2,0:0:0:0:
249,175,38270,1,2,0:0:0:0:
249,175,38420,1,0,0:0:0:0:
225,163,38720,1,6,0:0:0:0:
238,164,39320,1,0,0:0:0:0:
238,164,39470,1,0,0:0:0:0:
225,138,39770,1,2,0:0:0:0:
238,141,40070,1,0,0:0:0:0:
251,144,40370,1,2,0:0:0:0:
251,144,40670,1,0,0:0:0:0:
238,141,40820,1,0,0:0:0:0:
251,144,41120,1,2,0:0:0:0:
251,144,41420,1,0,0:0:0:0:
251,144,41720,1,2,0:0:0:0:
251,144,41870,1,2,0:0:0:0:
238,164,42170,5,2,0:0:0:0:
238,164,42470,1,0,0:0:0:0:
238,164,42770,1,2,0:0:0:0:
238,164,43220,1,2,0:0:0:0:
238,164,43370,1,2,0:0:0:0:
238,164,43520,1,4,0:0:0:0:
238,164,44120,1,0,0:0:0:0:
238,164,44270,1,0,0:0:0:0:
238,164,44570,1,0,0:0:0:0:
238,164,44870,1,2,0:0:0:0:
238,164,45170,1,0,0:0:0:0:
238,164,45620,1,0,0:0:0:0:
238,164,45770,1,0,0:0:0:0:
257,187,45920,1,2,0:0:0:0:
257,187,46220,1,0,0:0:0:0:
249,175,46520,5,2,0:0:0:0:
249,175,46670,1,2,0:0:0:0:
249,175,46970,1,2,0:0:0:0:
249,175,47270,1,0,0:0:0:0:
249,175,47570,1,2,0:0:0:0:
249,175,47870,1,0,0:0:0:0:
249,175,48020,1,0,0:0:0:0:
249,175,48170,1,2,0:0:0:0:
249,175,48320,1,4,0:0:0:0:
249,175,48770,1,2,0:0:0:0:
249,175,48920,1,2,0:0:0:0:
249,175,49370,1,0,0:0:0:0:
249,175,49520,1,2,0:0:0:0:
249,175,49970,1,2,0:0:0:0:
249,175,50120,1,0,0:0:0:0:
249,175,50570,1,0,0:0:0:0:
249,175,50720,1,0,0:0:0:0:
249,175,51170,1,0,0:0:0:0:
249,175,51320,1,2,0:0:0:0:
277,205,51770,1,2,0:0:0:0:
277,205,51920,1,0,0:0:0:0:
277,205,52220,1,0,0:0:0:0:
277,205,52520,1,2,0:0:0:0:
277,205,52820,1,2,0:0:0:0:
254,182,53120,5,4,0:0:0:0:
254,182,53720,1,2,0:0:0:0:
254,182,54020,1,2,0:0:0:0:
254,182,54320,1,0,0:0:0:0:
254,182,54620,1,2,0:0:0:0:
254,182,54920,1,0,0:0:0:0:
254,182,55220,1,0,0:0:0:0:
254,182,55520,1,2,0:0:0:0:
254,182,55820,1,2,0:0:0:0:
254,182,56120,1,0,0:0:0:0:
254,182,56420,1,2,0:0:0:0:
254,182,56720,1,0,0:0:0:0:
254,182,57020,1,2,0:0:0:0:
254,182,57320,1,0,0:0:0:0:
254,182,57470,1,0,0:0:0:0:
254,182,57770,1,2,0:0:0:0:
254,182,58070,1,0,0:0:0:0:
254,182,58370,1,2,0:0:0:0:
254,182,58520,1,2,0:0:0:0:
254,182,59120,1,4,0:0:0:0:
254,182,59420,1,2,0:0:0:0:
254,182,59720,1,2,0:0:0:0:
254,182,60020,1,0,0:0:0:0:
254,182,60320,1,2,0:0:0:0:
254,182,60470,1,0,0:0:0:0:
254,182,60620,1,0,0:0:0:0:
254,182,60770,1,2,0:0:0:0:
254,182,61070,1,0,0:0:0:0:
254,182,61220,1,0,0:0:0:0:
254,182,61520,1,2,0:0:0:0:
254,182,61970,1,2,0:0:0:0:
254,182,62120,1,2,0:0:0:0:
254,182,62420,1,0,0:0:0:0:
254,182,62720,1,0,0:0:0:0:
254,182,62870,1,0,0:0:0:0:
254,182,63020,1,2,0:0:0:0:
254,182,63170,1,2,0:0:0:0:
254,182,63320,1,0,0:0:0:0:
254,182,63920,1,6,0:0:0:0:
254,182,64220,1,8,0:0:0:0:
254,182,64520,1,0,0:0:0:0:
295,187,64820,1,2,0:0:0:0:
295,187,65120,1,0,0:0:0:0:
295,187,65420,1,0,0:0:0:0:
295,187,65570,1,2,0:0:0:0:
295,187,65870,1,2,0:0:0:0:
295,187,66020,1,0,0:0:0:0:
254,182,66320,1,2,0:0:0:0:
254,182,66470,1,8,0:0:0:0:
254,182,66620,1,0,0:0:0:0:
254,182,66770,1,0,0:0:0:0:
254,182,66920,1,8,0:0:0:0:
254,182,67220,1,2,0:0:0:0:
254,182,67520,1,0,0:0:0:0:
254,182,67820,1,0,0:0:0:0:
254,182,68120,1,2,0:0:0:0:
254,182,68420,1,2,0:0:0:0:
254,182,68720,1,4,0:0:0:0:
254,182,69320,1,2,0:0:0:0:
254,182,69470,1,2,0:0:0:0:
254,182,69620,1,0,0:0:0:0:
254,182,69920,1,0,0:0:0:0:
254,182,70220,1,2,0:0:0:0:
254,182,70520,1,0,0:0:0:0:
254,182,70670,1,0,0:0:0:0:
254,182,70820,1,2,0:0:0:0:
254,182,71120,1,0,0:0:0:0:
213,191,71420,1,0,0:0:0:0:
213,191,71720,1,2,0:0:0:0:
254,182,72020,1,2,0:0:0:0:
254,182,72320,5,0,0:0:0:0:
254,182,72470,1,0,0:0:0:0:
254,182,72620,1,2,0:0:0:0:
254,182,72920,1,2,0:0:0:0:
254,182,73070,1,2,0:0:0:0:
254,182,73220,1,0,0:0:0:0:
285,197,73520,5,6,0:0:0:0:
285,197,74120,1,2,0:0:0:0:
285,197,74270,1,2,0:0:0:0:
285,197,74420,1,0,0:0:0:0:
285,197,74720,1,2,0:0:0:0:
285,197,75020,1,0,0:0:0:0:
285,197,75320,1,2,0:0:0:0:
285,197,75620,1,0,0:0:0:0:
245,181,75920,1,0,0:0:0:0:
245,181,76220,1,2,0:0:0:0:
245,181,76370,1,2,0:0:0:0:
245,181,76520,1,0,0:0:0:0:
245,181,76820,1,2,0:0:0:0:
245,181,76970,1,0,0:0:0:0:
256,192,77420,12,0,78170,0:0:0:0:
225,163,78320,5,4,0:0:0:0:
225,163,78545,1,0,0:0:0:0:
225,163,78770,5,0,0:0:0:0:
225,163,79220,1,0,0:0:0:0:
225,163,79445,1,0,0:0:0:0:
225,163,79670,1,0,0:0:0:0:
225,163,79895,1,0,0:0:0:0:
225,163,80120,1,0,0:0:0:0:
225,163,80720,1,6,0:0:0:0:
225,163,80945,1,2,0:0:0:0:
225,163,81170,1,2,0:0:0:0:
225,163,81620,1,2,0:0:0:0:
225,163,81845,1,2,0:0:0:0:
225,163,82070,1,2,0:0:0:0:
225,163,82295,1,2,0:0:0:0:
225,163,82520,1,2,0:0:0:0:
225,163,83120,1,4,0:0:0:0:
225,163,83345,1,2,0:0:0:0:
225,163,83570,1,0,0:0:0:0:
225,163,84020,1,0,0:0:0:0:
225,163,84245,1,2,0:0:0:0:
225,163,84470,1,0,0:0:0:0:
225,163,84695,1,2,0:0:0:0:
225,163,84920,1,0,0:0:0:0:
225,163,85520,1,6,0:0:0:0:
225,163,85745,1,0,0:0:0:0:
225,163,85970,1,2,0:0:0:0:
225,163,86420,1,8,0:0:0:0:
225,163,86645,1,0,0:0:0:0:
225,163,86870,1,2,0:0:0:0:
225,163,87095,1,2,0:0:0:0:
225,163,87320,1,0,0:0:0:0:
233,169,87545,1,4,0:0:0:0:
