osu file format v14

[General]
AudioFilename: audio.mp3
AudioLeadIn: 0
PreviewTime: 59045
Countdown: 0
SampleSet: Normal
StackLeniency: 0.7
Mode: 1
LetterboxInBreaks: 0
WidescreenStoryboard: 1

[Editor]
Bookmarks: 320,2720,7520,12320,17120,21920,26720,29120,33920,38720,43520,48320,53120,59120,68720,73520,78320
DistanceSpacing: 0.3
BeatDivisor: 4
GridSize: 32
TimelineZoom: 2.899999

[Metadata]
Title:Tablet (TV Size)
TitleUnicode:錠剤 (TV Size)
Artist:TOOBOE
ArtistUnicode:TOOBOE
Creator:gaston_2199
Version:HIVIE'S ONI FIEND
Source:チェンソーマン
Tags:Chainsaw Man chainsawman csm MAPPA john Jouzai anime ending ed 4 four japanese pop jpop j-pop rock jrock j-rock Hivie Kibitz hac aceticke meiqth
BeatmapID:3865674
BeatmapSetID:1877477

[Difficulty]
HPDrainRate:6
CircleSize:10
OverallDifficulty:6
ApproachRate:10
SliderMultiplier:1.4
SliderTickRate:1

[Events]
//Background and Video events
Video,-64,"TaikoVideo.mp4"
0,0,"hivie bg.jpg",0,20
//Break Periods
//Storyboard Layer 0 (Background)
//Storyboard Layer 1 (Fail)
//Storyboard Layer 2 (Pass)
//Storyboard Layer 3 (Foreground)
//Storyboard Layer 4 (Overlay)
//Storyboard Sound Samples

[TimingPoints]
320,300,4,1,0,100,1,0
320,-57.1428571428571,4,1,0,100,0,1
2420,-57.1428571428571,4,1,0,80,0,0
2720,-100,4,1,0,80,0,0
12470,-105.263157894737,4,1,0,80,0,0
28817,-103.448275862069,4,1,0,80,0,0
28892,-102.564102564103,4,1,0,80,0,0
28967,-101.694915254237,4,1,0,80,0,0
29117,-100,4,1,0,80,0,0
48470,-111.111111111111,4,1,0,80,0,0
53120,-100,4,1,0,80,0,0
56792,-99.5850622406639,4,1,0,80,0,0
56867,-99.1735537190083,4,1,0,80,0,0
57017,-98.3606557377049,4,1,0,80,0,0
57092,-97.9591836734694,4,1,0,80,0,0
57167,-97.5609756097561,4,1,0,80,0,0
57317,-96.7741935483871,4,1,0,80,0,0
57467,-96,4,1,0,80,0,0
57617,-95.2380952380952,4,1,0,80,0,0
57692,-94.8616600790514,4,1,0,80,0,0
57767,-94.488188976378,4,1,0,80,0,0
57842,-94.1176470588235,4,1,0,80,0,0
57917,-93.75,4,1,0,80,0,0
57992,-93.3852140077821,4,1,0,80,0,0
58067,-93.0232558139535,4,1,0,80,0,0
58217,-92.3076923076923,4,1,0,80,0,0
58367,-91.6030534351145,4,1,0,80,0,0
58442,-91.254752851711,4,1,0,80,0,0
58517,-90.9090909090909,4,1,0,80,0,0
59120,-100,4,1,0,90,0,1
77120,-100,4,1,0,80,0,0
77420,-57.1428571428571,4,1,0,90,0,1
78320,-83.3333333333333,4,1,0,90,0,0
78542,-86.0215053763441,4,1,0,80,0,0
78767,-88.8888888888889,4,1,0,80,0,0
78992,-91.9540229885058,4,1,0,80,0,0
79217,-95.2380952380952,4,1,0,80,0,0
79442,-98.7654320987654,4,1,0,80,0,0
79517,-100,4,1,0,80,0,0
79667,-102.564102564103,4,1,0,80,0,0
79892,-106.666666666667,4,1,0,80,0,0
80117,-111.111111111111,4,1,0,80,0,0
80270,-83.3333333333333,4,1,0,80,0,1
80720,-83.3333333333333,4,1,0,90,0,0
80942,-86.0215053763441,4,1,0,80,0,0
81167,-88.8888888888889,4,1,0,80,0,0
81392,-91.9540229885058,4,1,0,80,0,0
81617,-95.2380952380952,4,1,0,80,0,0
81842,-98.7654320987654,4,1,0,80,0,0
81917,-100,4,1,0,80,0,0
82067,-102.564102564103,4,1,0,80,0,0
82292,-106.666666666667,4,1,0,80,0,0
82517,-111.111111111111,4,1,0,80,0,0
82670,-83.3333333333333,4,1,0,80,0,1
83120,-83.3333333333333,4,1,0,90,0,0
83342,-86.0215053763441,4,1,0,80,0,0
83567,-88.8888888888889,4,1,0,80,0,0
83792,-91.9540229885058,4,1,0,80,0,0
84017,-95.2380952380952,4,1,0,80,0,0
84242,-98.7654320987654,4,1,0,80,0,0
84317,-100,4,1,0,80,0,0
84467,-102.564102564103,4,1,0,80,0,0
84692,-106.666666666667,4,1,0,80,0,0
84917,-111.111111111111,4,1,0,80,0,0
85070,-83.3333333333333,4,1,0,80,0,1
85520,-83.3333333333333,4,1,0,80,0,0
85742,-85.7142857142857,4,1,0,80,0,0
85967,-88.2352941176471,4,1,0,80,0,0
86192,-90.9090909090909,4,1,0,80,0,0
86417,-93.75,4,1,0,80,0,0
86642,-96.7741935483871,4,1,0,80,0,0
86717,-97.8260869565217,4,1,0,80,0,0
86867,-100,4,1,0,80,0,0
87092,-103.448275862069,4,1,0,80,0,0
87317,-107.142857142857,4,1,0,80,0,0
87542,-83.3333333333333,4,1,0,80,0,0

[HitObjects]
288,512,320,6,4,L|360:672,28,61.2500005841255
288,512,2720,1,4,0:0:0:0:
288,512,3020,1,8,0:0:0:0:
288,512,3170,1,8,0:0:0:0:
288,512,3320,1,0,0:0:0:0:
285,512,3395,1,0,0:0:0:0:
288,512,3470,1,0,0:0:0:0:
288,512,3620,1,8,0:0:0:0:
288,512,3770,1,0,0:0:0:0:
288,512,4070,1,8,0:0:0:0:
288,512,4220,1,0,0:0:0:0:
288,512,4370,1,8,0:0:0:0:
285,512,4445,1,8,0:0:0:0:
288,512,4520,1,0,0:0:0:0:
288,512,4670,1,8,0:0:0:0:
288,512,4820,1,0,0:0:0:0:
288,512,4895,1,0,0:0:0:0:
288,512,4970,1,0,0:0:0:0:
288,512,5045,1,0,0:0:0:0:
288,512,5120,1,8,0:0:0:0:
274,512,5420,1,8,0:0:0:0:
274,512,5570,1,8,0:0:0:0:
274,512,5720,1,0,0:0:0:0:
288,512,5795,1,0,0:0:0:0:
274,512,5870,1,0,0:0:0:0:
274,512,6020,1,8,0:0:0:0:
274,512,6170,1,0,0:0:0:0:
274,512,6470,1,0,0:0:0:0:
274,512,6620,1,8,0:0:0:0:
274,512,6695,1,0,0:0:0:0:
274,512,6770,1,8,0:0:0:0:
274,512,6920,1,0,0:0:0:0:
274,512,7070,1,0,0:0:0:0:
274,512,7220,1,8,0:0:0:0:
274,512,7295,1,8,0:0:0:0:
274,512,7370,1,8,0:0:0:0:
274,512,7445,1,8,0:0:0:0:
288,512,7520,1,0,0:0:0:0:
288,512,7820,1,8,0:0:0:0:
288,512,7970,1,8,0:0:0:0:
288,512,8120,1,0,0:0:0:0:
274,512,8195,1,0,0:0:0:0:
288,512,8270,1,0,0:0:0:0:
288,512,8420,1,8,0:0:0:0:
288,512,8570,1,0,0:0:0:0:
288,512,8870,1,8,0:0:0:0:
288,512,9020,1,0,0:0:0:0:
288,512,9170,1,8,0:0:0:0:
285,512,9245,1,8,0:0:0:0:
288,512,9320,1,0,0:0:0:0:
288,512,9470,1,8,0:0:0:0:
288,512,9620,1,0,0:0:0:0:
288,512,9695,1,0,0:0:0:0:
288,512,9770,1,0,0:0:0:0:
288,512,9845,1,0,0:0:0:0:
288,512,9920,1,8,0:0:0:0:
274,512,10220,1,8,0:0:0:0:
274,512,10370,1,8,0:0:0:0:
274,512,10520,1,0,0:0:0:0:
288,512,10595,1,0,0:0:0:0:
274,512,10670,1,0,0:0:0:0:
274,512,10820,1,8,0:0:0:0:
274,512,10970,1,0,0:0:0:0:
274,512,11270,1,0,0:0:0:0:
274,512,11420,1,8,0:0:0:0:
274,512,11495,1,0,0:0:0:0:
274,512,11570,1,8,0:0:0:0:
274,512,11720,1,0,0:0:0:0:
274,512,11870,1,0,0:0:0:0:
274,512,12020,1,8,0:0:0:0:
274,512,12095,1,8,0:0:0:0:
274,512,12170,1,8,0:0:0:0:
274,512,12245,1,8,0:0:0:0:
274,512,12320,1,0,0:0:0:0:
274,512,12620,1,8,0:0:0:0:
274,512,12770,1,8,0:0:0:0:
274,512,12920,1,0,0:0:0:0:
274,512,13070,1,0,0:0:0:0:
274,512,13370,1,8,0:0:0:0:
274,512,13670,1,0,0:0:0:0:
274,512,13820,1,0,0:0:0:0:
274,512,13970,1,8,0:0:0:0:
274,512,14270,1,8,0:0:0:0:
274,512,14420,1,0,0:0:0:0:
274,512,14495,1,0,0:0:0:0:
274,512,14570,1,0,0:0:0:0:
274,512,14720,1,8,0:0:0:0:
274,512,14870,1,0,0:0:0:0:
274,512,15020,1,8,0:0:0:0:
268,512,15170,1,8,0:0:0:0:
274,512,15320,1,0,0:0:0:0:
274,512,15470,1,0,0:0:0:0:
274,512,15620,1,8,0:0:0:0:
274,512,15770,1,0,0:0:0:0:
274,512,16070,1,8,0:0:0:0:
274,512,16220,1,8,0:0:0:0:
274,512,16370,1,0,0:0:0:0:
274,512,16670,1,0,0:0:0:0:
274,512,16820,1,8,0:0:0:0:
274,512,16895,1,8,0:0:0:0:
274,512,16970,1,8,0:0:0:0:
274,512,17120,1,4,0:0:0:0:
274,512,17420,1,8,0:0:0:0:
274,512,17570,1,8,0:0:0:0:
274,512,17720,1,0,0:0:0:0:
274,512,17870,1,8,0:0:0:0:
274,512,18170,1,0,0:0:0:0:
274,512,18470,1,8,0:0:0:0:
274,512,18620,1,0,0:0:0:0:
274,512,18770,1,8,0:0:0:0:
274,512,18920,1,0,0:0:0:0:
274,512,19070,1,8,0:0:0:0:
274,512,19220,1,0,0:0:0:0:
274,512,19295,1,0,0:0:0:0:
274,512,19370,1,0,0:0:0:0:
274,512,19520,1,8,0:0:0:0:
274,512,19670,1,0,0:0:0:0:
274,512,19820,1,8,0:0:0:0:
268,512,19970,1,8,0:0:0:0:
274,512,20120,1,0,0:0:0:0:
274,512,20270,1,0,0:0:0:0:
274,512,20420,1,8,0:0:0:0:
274,512,20570,1,0,0:0:0:0:
274,512,20870,1,0,0:0:0:0:
274,512,21020,1,8,0:0:0:0:
274,512,21170,1,8,0:0:0:0:
274,512,21470,1,0,0:0:0:0:
274,512,21620,1,8,0:0:0:0:
274,512,21695,1,8,0:0:0:0:
274,512,21770,1,8,0:0:0:0:
274,512,21920,1,4,0:0:0:0:
274,512,22220,1,8,0:0:0:0:
274,512,22370,1,8,0:0:0:0:
274,512,22520,1,0,0:0:0:0:
274,512,22670,1,0,0:0:0:0:
274,512,22970,1,8,0:0:0:0:
274,512,23270,1,0,0:0:0:0:
274,512,23420,1,8,0:0:0:0:
274,512,23570,1,8,0:0:0:0:
274,512,23870,1,0,0:0:0:0:
274,512,24020,1,8,0:0:0:0:
274,512,24095,1,8,0:0:0:0:
274,512,24170,1,8,0:0:0:0:
274,512,24320,1,0,0:0:0:0:
274,512,24470,1,0,0:0:0:0:
274,512,24620,1,8,0:0:0:0:
274,512,24770,1,8,0:0:0:0:
274,512,24920,1,0,0:0:0:0:
274,512,25070,1,0,0:0:0:0:
274,512,25220,1,8,0:0:0:0:
274,512,25370,1,0,0:0:0:0:
274,512,25670,1,0,0:0:0:0:
274,512,25820,1,8,0:0:0:0:
274,512,25970,1,8,0:0:0:0:
274,512,26270,1,8,0:0:0:0:
274,512,26420,1,0,0:0:0:0:
274,512,26495,1,0,0:0:0:0:
274,512,26570,1,0,0:0:0:0:
274,512,26720,1,12,0:0:0:0:
274,512,27020,1,8,0:0:0:0:
274,512,27170,1,8,0:0:0:0:
274,512,27320,1,0,0:0:0:0:
274,512,27470,1,0,0:0:0:0:
274,512,27620,1,8,0:0:0:0:
274,512,27770,1,0,0:0:0:0:
274,512,28070,1,0,0:0:0:0:
274,512,28220,1,8,0:0:0:0:
274,512,28370,1,8,0:0:0:0:
274,512,28670,1,0,0:0:0:0:
274,512,28820,1,8,0:0:0:0:
274,512,28895,1,8,0:0:0:0:
274,512,28970,1,8,0:0:0:0:
274,512,29120,1,4,0:0:0:0:
274,512,29420,1,8,0:0:0:0:
274,512,29570,1,8,0:0:0:0:
274,512,29720,1,0,0:0:0:0:
274,512,29870,1,0,0:0:0:0:
274,512,30020,1,8,0:0:0:0:
274,512,30170,1,8,0:0:0:0:
274,512,30245,1,8,0:0:0:0:
274,512,30320,1,0,0:0:0:0:
274,512,30470,1,8,0:0:0:0:
274,512,30620,1,0,0:0:0:0:
274,512,30770,1,8,0:0:0:0:
274,512,31070,1,8,0:0:0:0:
274,512,31220,1,0,0:0:0:0:
274,512,31295,1,0,0:0:0:0:
274,512,31370,1,0,0:0:0:0:
274,512,31445,1,0,0:0:0:0:
274,512,31520,1,8,0:0:0:0:
274,512,31670,1,0,0:0:0:0:
274,512,31820,1,8,0:0:0:0:
268,512,31970,1,0,0:0:0:0:
274,512,32120,1,8,0:0:0:0:
268,512,32195,1,8,0:0:0:0:
274,512,32270,1,0,0:0:0:0:
274,512,32420,1,8,0:0:0:0:
288,512,32570,1,0,0:0:0:0:
271,512,32720,1,8,0:0:0:0:
274,512,33020,1,8,0:0:0:0:
274,512,33170,1,8,0:0:0:0:
274,512,33320,1,0,0:0:0:0:
274,512,33470,1,0,0:0:0:0:
274,512,33620,1,8,0:0:0:0:
274,512,33695,1,8,0:0:0:0:
274,512,33770,1,8,0:0:0:0:
274,512,33845,1,8,0:0:0:0:
274,512,33920,1,0,0:0:0:0:
274,512,34220,1,8,0:0:0:0:
274,512,34370,1,8,0:0:0:0:
274,512,34520,1,0,0:0:0:0:
274,512,34670,1,0,0:0:0:0:
274,512,34820,1,8,0:0:0:0:
274,512,34970,1,0,0:0:0:0:
274,512,35045,1,0,0:0:0:0:
272,512,35120,1,8,0:0:0:0:
274,512,35270,1,0,0:0:0:0:
274,512,35420,1,8,0:0:0:0:
274,512,35570,1,0,0:0:0:0:
274,512,35870,1,8,0:0:0:0:
274,512,36020,1,0,0:0:0:0:
274,512,36095,1,0,0:0:0:0:
274,512,36170,1,0,0:0:0:0:
274,512,36245,1,0,0:0:0:0:
274,512,36320,1,8,0:0:0:0:
274,512,36470,1,0,0:0:0:0:
274,512,36620,1,8,0:0:0:0:
274,512,36770,1,0,0:0:0:0:
271,512,36845,1,8,0:0:0:0:
274,512,36920,1,0,0:0:0:0:
274,512,37070,1,8,0:0:0:0:
274,512,37220,1,0,0:0:0:0:
274,512,37370,1,8,0:0:0:0:
274,512,37670,1,8,0:0:0:0:
274,512,37820,1,0,0:0:0:0:
274,512,37895,1,0,0:0:0:0:
274,512,37970,1,8,0:0:0:0:
274,512,38120,1,0,0:0:0:0:
274,512,38270,1,0,0:0:0:0:
274,512,38420,1,8,0:0:0:0:
274,512,38495,1,8,0:0:0:0:
274,512,38570,1,8,0:0:0:0:
274,512,38720,1,4,0:0:0:0:
274,512,39020,1,8,0:0:0:0:
274,512,39170,1,8,0:0:0:0:
274,512,39320,1,0,0:0:0:0:
274,512,39470,1,0,0:0:0:0:
274,512,39620,1,8,0:0:0:0:
274,512,39770,1,0,0:0:0:0:
274,512,39845,1,8,0:0:0:0:
274,512,39920,1,0,0:0:0:0:
274,512,39995,1,0,0:0:0:0:
274,512,40070,1,8,0:0:0:0:
274,512,40220,1,0,0:0:0:0:
274,512,40370,1,8,0:0:0:0:
274,512,40520,1,0,0:0:0:0:
274,512,40820,1,8,0:0:0:0:
274,512,40895,1,8,0:0:0:0:
274,512,40970,1,8,0:0:0:0:
274,512,41045,1,8,0:0:0:0:
274,512,41120,1,0,0:0:0:0:
274,512,41270,1,0,0:0:0:0:
274,512,41420,1,8,0:0:0:0:
274,512,41570,1,0,0:0:0:0:
288,512,41645,1,0,0:0:0:0:
274,512,41720,1,8,0:0:0:0:
274,512,41870,1,0,0:0:0:0:
274,512,42020,1,8,0:0:0:0:
274,512,42170,1,8,0:0:0:0:
274,512,42320,1,0,0:0:0:0:
274,512,42470,1,0,0:0:0:0:
274,512,42620,1,8,0:0:0:0:
274,512,42695,1,0,0:0:0:0:
274,512,42770,1,8,0:0:0:0:
274,512,42920,1,0,0:0:0:0:
274,512,43070,1,8,0:0:0:0:
274,512,43220,1,0,0:0:0:0:
274,512,43295,1,0,0:0:0:0:
274,512,43370,1,0,0:0:0:0:
274,512,43445,1,0,0:0:0:0:
274,512,43520,1,8,0:0:0:0:
274,512,43820,1,8,0:0:0:0:
274,512,43970,1,8,0:0:0:0:
274,512,44120,1,0,0:0:0:0:
271,512,44195,1,0,0:0:0:0:
274,512,44270,1,0,0:0:0:0:
274,512,44420,1,8,0:0:0:0:
274,512,44570,1,8,0:0:0:0:
272,512,44720,1,0,0:0:0:0:
274,512,44870,1,0,0:0:0:0:
274,512,45020,1,8,0:0:0:0:
274,512,45170,1,0,0:0:0:0:
270,512,45245,1,0,0:0:0:0:
274,512,45320,1,8,0:0:0:0:
274,512,45470,1,0,0:0:0:0:
274,512,45620,1,8,0:0:0:0:
274,512,45695,1,8,0:0:0:0:
274,512,45770,1,8,0:0:0:0:
274,512,45845,1,8,0:0:0:0:
274,512,45920,1,0,0:0:0:0:
274,512,46220,1,8,0:0:0:0:
274,512,46370,1,8,0:0:0:0:
274,512,46520,1,0,0:0:0:0:
274,512,46670,1,0,0:0:0:0:
274,512,46820,1,8,0:0:0:0:
274,512,46970,1,8,0:0:0:0:
274,512,47045,1,8,0:0:0:0:
274,512,47120,1,0,0:0:0:0:
274,512,47270,1,0,0:0:0:0:
274,512,47420,1,8,0:0:0:0:
274,512,47570,1,0,0:0:0:0:
269,512,47645,1,8,0:0:0:0:
274,512,47720,1,0,0:0:0:0:
274,512,47870,1,8,0:0:0:0:
274,512,48020,1,0,0:0:0:0:
274,512,48095,1,0,0:0:0:0:
274,512,48170,1,0,0:0:0:0:
274,512,48320,1,12,0:0:0:0:
260,512,48620,1,0,0:0:0:0:
274,512,48770,1,8,0:0:0:0:
274,512,48920,1,0,0:0:0:0:
274,512,49070,1,0,0:0:0:0:
274,512,49220,1,8,0:0:0:0:
274,512,49370,1,8,0:0:0:0:
274,512,49445,1,8,0:0:0:0:
274,512,49520,1,0,0:0:0:0:
267,512,49670,1,8,0:0:0:0:
267,512,49970,1,8,0:0:0:0:
267,512,50120,1,0,0:0:0:0:
267,512,50270,1,0,0:0:0:0:
267,512,50420,1,8,0:0:0:0:
267,512,50570,1,8,0:0:0:0:
267,512,50720,1,0,0:0:0:0:
267,512,51020,1,8,0:0:0:0:
267,512,51170,1,8,0:0:0:0:
267,512,51320,1,0,0:0:0:0:
267,512,51470,1,0,0:0:0:0:
262,512,51620,1,8,0:0:0:0:
267,512,51770,1,0,0:0:0:0:
267,512,51845,1,0,0:0:0:0:
267,512,51920,1,0,0:0:0:0:
267,512,52070,1,8,0:0:0:0:
267,512,52220,1,0,0:0:0:0:
267,512,52370,1,0,0:0:0:0:
267,512,52520,1,8,0:0:0:0:
267,512,52595,1,8,0:0:0:0:
267,512,52670,1,0,0:0:0:0:
267,512,52745,1,0,0:0:0:0:
267,512,52820,1,8,0:0:0:0:
267,512,52970,1,8,0:0:0:0:
267,512,53120,1,4,0:0:0:0:
255,512,53420,1,8,0:0:0:0:
255,512,53570,1,8,0:0:0:0:
255,512,53720,1,0,0:0:0:0:
255,512,53870,1,0,0:0:0:0:
251,512,54020,1,8,0:0:0:0:
251,512,54170,1,0,0:0:0:0:
251,512,54245,1,0,0:0:0:0:
251,512,54320,1,0,0:0:0:0:
251,512,54470,1,8,0:0:0:0:
251,512,54620,1,0,0:0:0:0:
251,512,54770,1,8,0:0:0:0:
249,512,54845,1,8,0:0:0:0:
251,512,54920,1,0,0:0:0:0:
248,512,54995,1,0,0:0:0:0:
248,512,55070,1,8,0:0:0:0:
248,512,55220,1,0,0:0:0:0:
248,512,55370,1,8,0:0:0:0:
248,512,55520,1,0,0:0:0:0:
243,512,55820,1,8,0:0:0:0:
243,512,55970,1,0,0:0:0:0:
243,512,56120,1,8,0:0:0:0:
248,512,56195,1,8,0:0:0:0:
243,512,56270,1,0,0:0:0:0:
243,512,56345,1,0,0:0:0:0:
243,512,56420,1,8,0:0:0:0:
243,512,56570,1,0,0:0:0:0:
243,512,56720,1,8,0:0:0:0:
243,512,56795,1,8,0:0:0:0:
243,512,56870,1,0,0:0:0:0:
243,512,57020,1,8,0:0:0:0:
243,512,57095,1,8,0:0:0:0:
243,512,57170,1,0,0:0:0:0:
243,512,57320,1,8,0:0:0:0:
243,512,57470,1,8,0:0:0:0:
243,512,57620,1,0,0:0:0:0:
243,512,57695,1,0,0:0:0:0:
243,512,57770,1,8,0:0:0:0:
243,512,57845,1,0,0:0:0:0:
243,512,57920,1,8,0:0:0:0:
243,512,57995,1,8,0:0:0:0:
243,512,58070,1,0,0:0:0:0:
243,512,58220,1,8,0:0:0:0:
243,512,58370,1,0,0:0:0:0:
243,512,58445,1,0,0:0:0:0:
243,512,58520,1,8,0:0:0:0:
243,512,59120,1,12,0:0:0:0:
251,512,59420,1,8,0:0:0:0:
251,512,59570,1,0,0:0:0:0:
251,512,59720,1,8,0:0:0:0:
255,512,59795,1,8,0:0:0:0:
255,512,59870,1,0,0:0:0:0:
261,512,60020,1,8,0:0:0:0:
261,512,60170,1,0,0:0:0:0:
261,512,60320,1,8,0:0:0:0:
263,512,60470,1,0,0:0:0:0:
261,512,60545,1,0,0:0:0:0:
261,512,60620,1,8,0:0:0:0:
262,512,60695,1,0,0:0:0:0:
265,512,60770,1,8,0:0:0:0:
270,512,60920,1,0,0:0:0:0:
275,512,61070,1,8,0:0:0:0:
276,512,61145,1,0,0:0:0:0:
281,512,61220,1,8,0:0:0:0:
283,512,61295,1,8,0:0:0:0:
286,512,61370,1,0,0:0:0:0:
292,512,61520,1,8,0:0:0:0:
302,512,61820,1,8,0:0:0:0:
305,512,61970,1,0,0:0:0:0:
305,512,62120,1,8,0:0:0:0:
305,512,62195,1,8,0:0:0:0:
305,512,62270,1,0,0:0:0:0:
301,512,62345,1,0,0:0:0:0:
305,512,62420,1,8,0:0:0:0:
305,512,62570,1,0,0:0:0:0:
305,512,62645,1,0,0:0:0:0:
305,512,62720,1,0,0:0:0:0:
305,512,62870,1,8,0:0:0:0:
305,512,63020,1,0,0:0:0:0:
305,512,63170,1,0,0:0:0:0:
305,512,63320,1,8,0:0:0:0:
305,512,63395,1,8,0:0:0:0:
305,512,63470,1,8,0:0:0:0:
305,512,63620,1,0,0:0:0:0:
305,512,63770,1,8,0:0:0:0:
305,512,63920,1,4,0:0:0:0:
305,512,64220,1,8,0:0:0:0:
305,512,64370,1,0,0:0:0:0:
297,512,64520,1,8,0:0:0:0:
293,512,64595,1,8,0:0:0:0:
297,512,64670,1,0,0:0:0:0:
290,512,64820,1,8,0:0:0:0:
290,512,64970,1,8,0:0:0:0:
290,512,65120,1,0,0:0:0:0:
285,512,65195,1,0,0:0:0:0:
290,512,65270,1,0,0:0:0:0:
284,512,65420,1,8,0:0:0:0:
281,512,65495,1,0,0:0:0:0:
279,512,65570,1,8,0:0:0:0:
275,512,65645,1,8,0:0:0:0:
273,512,65720,1,0,0:0:0:0:
279,512,65870,1,8,0:0:0:0:
273,512,66020,1,0,0:0:0:0:
268,512,66095,1,0,0:0:0:0:
265,512,66170,1,8,0:0:0:0:
258,512,66320,1,0,0:0:0:0:
251,512,66620,1,8,0:0:0:0:
251,512,66770,1,0,0:0:0:0:
251,512,66920,1,8,0:0:0:0:
249,512,67070,1,0,0:0:0:0:
243,512,67145,1,0,0:0:0:0:
249,512,67220,1,8,0:0:0:0:
249,512,67295,1,8,0:0:0:0:
246,512,67370,1,0,0:0:0:0:
246,512,67520,1,8,0:0:0:0:
246,512,67670,1,0,0:0:0:0:
242,512,67745,1,0,0:0:0:0:
237,512,67820,1,8,0:0:0:0:
230,512,67970,1,0,0:0:0:0:
223,512,68120,1,8,0:0:0:0:
223,512,68270,1,8,0:0:0:0:
256,512,68345,1,0,0:0:0:0:
223,512,68420,1,8,0:0:0:0:
223,512,68570,1,0,0:0:0:0:
215,512,68720,1,12,0:0:0:0:
202,512,69020,1,0,0:0:0:0:
202,512,69320,1,8,0:0:0:0:
202,512,69470,1,0,0:0:0:0:
202,512,69620,1,8,0:0:0:0:
202,512,69770,1,0,0:0:0:0:
202,512,69845,1,8,0:0:0:0:
202,512,69920,1,0,0:0:0:0:
202,512,70070,1,8,0:0:0:0:
202,512,70220,1,0,0:0:0:0:
202,512,70370,1,8,0:0:0:0:
203,512,70445,1,8,0:0:0:0:
202,512,70520,1,0,0:0:0:0:
203,512,70670,1,0,0:0:0:0:
204,512,70820,1,8,0:0:0:0:
205,512,70970,1,0,0:0:0:0:
204,512,71045,1,0,0:0:0:0:
205,512,71120,1,8,0:0:0:0:
205,512,71420,1,0,0:0:0:0:
205,512,71570,1,8,0:0:0:0:
205,512,71645,1,8,0:0:0:0:
205,512,71720,1,0,0:0:0:0:
191,512,71795,1,0,0:0:0:0:
205,512,71870,1,8,0:0:0:0:
205,512,72020,1,0,0:0:0:0:
205,512,72170,1,8,0:0:0:0:
205,512,72320,1,0,0:0:0:0:
206,512,72395,1,0,0:0:0:0:
209,512,72470,1,0,0:0:0:0:
209,512,72620,1,8,0:0:0:0:
209,512,72770,1,8,0:0:0:0:
209,512,72920,1,8,0:0:0:0:
209,512,73070,1,0,0:0:0:0:
209,512,73220,1,8,0:0:0:0:
209,512,73295,1,8,0:0:0:0:
209,512,73370,1,0,0:0:0:0:
209,512,73520,1,12,0:0:0:0:
202,512,73820,1,0,0:0:0:0:
202,512,74120,1,8,0:0:0:0:
202,512,74270,1,0,0:0:0:0:
202,512,74420,1,8,0:0:0:0:
202,512,74570,1,8,0:0:0:0:
202,512,74645,1,8,0:0:0:0:
202,512,74720,1,0,0:0:0:0:
202,512,74870,1,8,0:0:0:0:
202,512,75020,1,0,0:0:0:0:
202,512,75170,1,0,0:0:0:0:
202,512,75245,1,0,0:0:0:0:
202,512,75320,1,8,0:0:0:0:
203,512,75470,1,0,0:0:0:0:
204,512,75620,1,8,0:0:0:0:
203,512,75695,1,8,0:0:0:0:
205,512,75770,1,0,0:0:0:0:
205,512,75920,1,8,0:0:0:0:
202,512,76070,1,0,0:0:0:0:
205,512,76220,1,8,0:0:0:0:
202,512,76295,1,0,0:0:0:0:
205,512,76370,1,8,0:0:0:0:
205,512,76445,1,8,0:0:0:0:
205,512,76520,1,0,0:0:0:0:
205,512,76670,1,0,0:0:0:0:
205,512,76820,1,8,0:0:0:0:
205,512,76970,1,8,0:0:0:0:
205,512,77120,1,0,0:0:0:0:
288,512,77420,2,4,L|352:672,10,61.2500005841255
209,512,78320,1,4,0:0:0:0:
209,512,78545,1,8,0:0:0:0:
207,512,78770,1,0,0:0:0:0:
203,512,78995,1,8,0:0:0:0:
209,512,79220,1,8,0:0:0:0:
209,512,79445,1,8,0:0:0:0:
207,512,79670,1,0,0:0:0:0:
203,512,79895,1,8,0:0:0:0:
209,512,80120,1,0,0:0:0:0:
240,512,80720,5,4,0:0:0:0:
240,512,80945,1,8,0:0:0:0:
240,512,81170,1,0,0:0:0:0:
240,512,81395,1,8,0:0:0:0:
240,512,81620,1,8,0:0:0:0:
240,512,81845,1,8,0:0:0:0:
240,512,82070,1,0,0:0:0:0:
240,512,82295,1,8,0:0:0:0:
240,512,82520,1,0,0:0:0:0:
240,512,83120,5,4,0:0:0:0:
240,512,83345,1,8,0:0:0:0:
240,512,83570,1,0,0:0:0:0:
230,512,83795,1,8,0:0:0:0:
230,512,84020,1,8,0:0:0:0:
222,512,84245,1,8,0:0:0:0:
230,512,84470,1,0,0:0:0:0:
230,512,84695,1,8,0:0:0:0:
230,512,84920,1,0,0:0:0:0:
230,512,85520,5,4,0:0:0:0:
230,512,85745,1,8,0:0:0:0:
230,512,85970,1,0,0:0:0:0:
230,512,86195,1,8,0:0:0:0:
230,512,86420,1,8,0:0:0:0:
230,512,86645,1,8,0:0:0:0:
230,512,86870,1,8,0:0:0:0:
230,512,87095,1,0,0:0:0:0:
230,512,87320,1,8,0:0:0:0:
230,512,87545,1,4,0:0:0:0:
