osu file format v14

[General]
AudioFilename: audio.mp3
AudioLeadIn: 0
PreviewTime: 59045
Countdown: 0
SampleSet: Normal
StackLeniency: 0.7
Mode: 1
LetterboxInBreaks: 0
WidescreenStoryboard: 1

[Editor]
DistanceSpacing: 0.3
BeatDivisor: 4
GridSize: 32
TimelineZoom: 2.4

[Metadata]
Title:Tablet (TV Size)
TitleUnicode:錠剤 (TV Size)
Artist:TOOBOE
ArtistUnicode:TOOBOE
Creator:gaston_2199
Version:HAC'S MUZUKASHII FIEND
Source:チェンソーマン
Tags:Chainsaw Man chainsawman csm MAPPA john Jouzai anime ending ed 4 four japanese pop jpop j-pop rock jrock j-rock Hivie Kibitz hac aceticke meiqth
BeatmapID:3864729
BeatmapSetID:1877477

[Difficulty]
HPDrainRate:6
CircleSize:2
OverallDifficulty:5
ApproachRate:10
SliderMultiplier:1.4
SliderTickRate:1

[Events]
//Background and Video events
0,0,"hac bg.jpg",0,40
Video,-64,"TaikoVideo.mp4"
//Break Periods
//Storyboard Layer 0 (Background)
//Storyboard Layer 1 (Fail)
//Storyboard Layer 2 (Pass)
//Storyboard Layer 3 (Foreground)
//Storyboard Layer 4 (Overlay)
//Storyboard Sound Samples

[TimingPoints]
320,300,4,1,0,80,1,0
320,-100,4,1,0,80,0,1
2420,-100,4,1,0,80,0,0
59120,-100,4,1,0,80,0,1
77120,-100,4,1,0,80,0,0
77420,-100,4,1,0,80,0,1
78320,-100,4,1,0,80,0,0

[HitObjects]
256,192,320,8,0,2420,0:0:0:0:
256,64,2720,5,4,0:0:0:0:
256,192,3020,1,8,0:0:0:0:
256,192,3170,1,0,0:0:0:0:
256,192,3320,1,8,0:0:0:0:
256,192,3470,1,0,0:0:0:0:
256,192,3770,1,8,0:0:0:0:
256,192,4070,1,8,0:0:0:0:
256,192,4220,1,0,0:0:0:0:
256,192,4370,1,8,0:0:0:0:
256,192,4670,1,0,0:0:0:0:
256,192,4820,1,8,0:0:0:0:
256,192,4895,1,8,0:0:0:0:
256,192,4970,1,8,0:0:0:0:
256,64,5120,1,4,0:0:0:0:
256,192,5420,1,8,0:0:0:0:
256,192,5570,1,8,0:0:0:0:
256,192,5720,1,0,0:0:0:0:
256,192,5870,1,8,0:0:0:0:
256,192,6170,1,0,0:0:0:0:
256,192,6470,1,8,0:0:0:0:
256,192,6770,1,0,0:0:0:0:
256,192,7070,1,8,0:0:0:0:
256,192,7220,1,0,0:0:0:0:
256,192,7295,1,0,0:0:0:0:
256,192,7370,1,0,0:0:0:0:
256,192,7520,1,12,0:0:0:0:
256,192,7820,1,8,0:0:0:0:
256,192,7970,1,0,0:0:0:0:
256,192,8120,1,8,0:0:0:0:
256,192,8270,1,0,0:0:0:0:
256,192,8420,1,0,0:0:0:0:
256,192,8570,1,8,0:0:0:0:
256,192,8870,1,8,0:0:0:0:
256,192,9020,1,0,0:0:0:0:
256,192,9170,1,8,0:0:0:0:
256,192,9470,1,0,0:0:0:0:
256,192,9620,1,8,0:0:0:0:
256,192,9695,1,8,0:0:0:0:
256,192,9770,1,8,0:0:0:0:
256,192,9920,1,4,0:0:0:0:
256,192,10220,1,0,0:0:0:0:
256,192,10370,1,0,0:0:0:0:
256,192,10520,1,8,0:0:0:0:
256,192,10670,1,0,0:0:0:0:
256,192,10970,1,0,0:0:0:0:
256,192,11270,1,8,0:0:0:0:
256,192,11570,1,0,0:0:0:0:
256,192,11870,1,8,0:0:0:0:
256,192,12020,1,0,0:0:0:0:
256,192,12095,1,0,0:0:0:0:
256,192,12170,1,0,0:0:0:0:
256,64,12320,1,12,0:0:0:0:
256,192,12920,1,8,0:0:0:0:
256,192,13220,1,8,0:0:0:0:
256,192,13370,1,0,0:0:0:0:
256,192,13670,1,8,0:0:0:0:
256,192,13970,1,8,0:0:0:0:
256,192,14270,1,0,0:0:0:0:
256,192,14420,1,0,0:0:0:0:
256,192,14570,1,8,0:0:0:0:
256,192,14870,1,0,0:0:0:0:
256,192,15020,1,8,0:0:0:0:
256,192,15320,1,8,0:0:0:0:
256,192,15620,1,8,0:0:0:0:
256,192,15770,1,8,0:0:0:0:
256,192,15920,1,0,0:0:0:0:
256,192,16220,1,8,0:0:0:0:
256,192,16370,1,0,0:0:0:0:
256,192,16820,1,8,0:0:0:0:
256,192,16895,1,8,0:0:0:0:
256,192,16970,1,8,0:0:0:0:
256,192,17120,1,4,0:0:0:0:
256,192,17720,1,0,0:0:0:0:
256,192,18020,1,8,0:0:0:0:
256,192,18170,1,0,0:0:0:0:
256,192,18470,1,8,0:0:0:0:
256,192,18770,1,8,0:0:0:0:
256,192,19070,1,0,0:0:0:0:
256,192,19220,1,0,0:0:0:0:
256,192,19370,1,8,0:0:0:0:
256,192,19670,1,0,0:0:0:0:
256,192,19820,1,8,0:0:0:0:
256,192,20120,1,8,0:0:0:0:
256,192,20420,1,8,0:0:0:0:
256,192,20720,1,0,0:0:0:0:
256,192,20870,1,8,0:0:0:0:
256,192,21170,1,8,0:0:0:0:
256,192,21470,1,0,0:0:0:0:
256,192,21620,1,8,0:0:0:0:
256,192,21695,1,8,0:0:0:0:
256,192,21770,1,8,0:0:0:0:
256,64,21920,1,4,0:0:0:0:
256,192,22220,1,8,0:0:0:0:
256,192,22520,1,0,0:0:0:0:
256,192,22670,1,8,0:0:0:0:
256,192,22970,1,8,0:0:0:0:
256,192,23270,1,0,0:0:0:0:
256,192,23570,1,8,0:0:0:0:
256,192,23870,1,0,0:0:0:0:
256,192,24020,1,8,0:0:0:0:
256,192,24170,1,8,0:0:0:0:
256,192,24320,1,0,0:0:0:0:
256,192,24620,1,8,0:0:0:0:
256,192,24770,1,0,0:0:0:0:
256,192,25070,1,8,0:0:0:0:
256,192,25370,1,0,0:0:0:0:
256,192,25670,1,0,0:0:0:0:
256,192,25970,1,8,0:0:0:0:
256,192,26120,1,0,0:0:0:0:
256,192,26270,1,8,0:0:0:0:
256,192,26420,1,0,0:0:0:0:
256,192,26495,1,0,0:0:0:0:
256,192,26570,1,0,0:0:0:0:
256,64,26720,1,12,0:0:0:0:
256,192,27020,1,8,0:0:0:0:
256,192,27170,1,0,0:0:0:0:
256,192,27470,1,0,0:0:0:0:
256,192,27620,1,8,0:0:0:0:
256,192,27770,1,0,0:0:0:0:
256,192,28220,1,8,0:0:0:0:
256,192,28370,1,0,0:0:0:0:
256,192,28670,1,0,0:0:0:0:
256,192,28820,1,8,0:0:0:0:
256,192,28895,1,8,0:0:0:0:
256,192,28970,1,8,0:0:0:0:
256,64,29120,1,4,0:0:0:0:
256,192,29720,1,8,0:0:0:0:
256,192,30020,1,0,0:0:0:0:
256,192,30170,1,8,0:0:0:0:
256,192,30470,1,0,0:0:0:0:
256,192,30770,1,8,0:0:0:0:
256,192,31070,1,0,0:0:0:0:
256,192,31220,1,0,0:0:0:0:
256,192,31370,1,8,0:0:0:0:
256,192,31670,1,0,0:0:0:0:
256,192,31820,1,8,0:0:0:0:
256,192,32120,1,0,0:0:0:0:
256,192,32270,1,0,0:0:0:0:
256,192,32420,1,8,0:0:0:0:
256,192,32720,1,0,0:0:0:0:
256,192,33020,1,0,0:0:0:0:
256,192,33170,1,8,0:0:0:0:
256,192,33470,1,8,0:0:0:0:
256,192,33620,1,0,0:0:0:0:
256,192,33695,1,0,0:0:0:0:
256,192,33770,1,0,0:0:0:0:
256,64,33920,1,12,0:0:0:0:
256,192,34520,1,8,0:0:0:0:
256,192,34820,1,0,0:0:0:0:
256,192,34970,1,8,0:0:0:0:
256,192,35270,1,0,0:0:0:0:
256,192,35570,1,8,0:0:0:0:
256,192,35870,1,8,0:0:0:0:
256,192,36020,1,0,0:0:0:0:
256,192,36170,1,8,0:0:0:0:
256,192,36620,1,0,0:0:0:0:
256,192,36920,1,8,0:0:0:0:
256,192,37220,1,0,0:0:0:0:
256,192,37520,1,8,0:0:0:0:
256,192,37670,1,0,0:0:0:0:
256,192,37820,1,8,0:0:0:0:
256,192,37970,1,0,0:0:0:0:
256,192,38270,1,8,0:0:0:0:
256,192,38420,1,0,0:0:0:0:
256,192,38495,1,0,0:0:0:0:
256,192,38570,1,0,0:0:0:0:
256,64,38720,1,12,0:0:0:0:
256,192,39020,1,0,0:0:0:0:
256,192,39170,1,0,0:0:0:0:
256,192,39320,1,8,0:0:0:0:
256,192,39620,1,8,0:0:0:0:
256,192,39770,1,0,0:0:0:0:
256,192,40220,1,8,0:0:0:0:
256,192,40370,1,0,0:0:0:0:
256,192,40520,1,8,0:0:0:0:
256,192,40820,1,8,0:0:0:0:
256,192,40970,1,8,0:0:0:0:
256,192,41120,1,0,0:0:0:0:
256,192,41420,1,0,0:0:0:0:
256,192,41570,1,8,0:0:0:0:
256,192,41870,1,8,0:0:0:0:
256,192,42170,1,0,0:0:0:0:
256,192,42470,1,0,0:0:0:0:
256,192,42620,1,8,0:0:0:0:
256,192,42920,1,8,0:0:0:0:
256,192,43070,1,8,0:0:0:0:
256,192,43220,1,0,0:0:0:0:
256,192,43295,1,0,0:0:0:0:
256,192,43370,1,0,0:0:0:0:
256,64,43520,1,12,0:0:0:0:
256,192,43820,1,8,0:0:0:0:
256,192,43970,1,0,0:0:0:0:
256,192,44420,1,0,0:0:0:0:
256,192,44570,1,0,0:0:0:0:
256,192,44720,1,8,0:0:0:0:
256,192,45020,1,0,0:0:0:0:
256,192,45170,1,8,0:0:0:0:
256,192,45620,1,8,0:0:0:0:
256,192,45770,1,8,0:0:0:0:
256,192,45920,1,0,0:0:0:0:
256,192,46220,1,8,0:0:0:0:
256,192,46370,1,0,0:0:0:0:
256,192,46670,1,0,0:0:0:0:
256,192,46820,1,8,0:0:0:0:
256,192,46970,1,0,0:0:0:0:
256,192,47270,1,8,0:0:0:0:
256,192,47570,1,8,0:0:0:0:
256,192,47720,1,0,0:0:0:0:
256,192,47870,1,8,0:0:0:0:
256,192,48020,1,0,0:0:0:0:
256,192,48170,1,0,0:0:0:0:
256,192,48320,1,12,0:0:0:0:
256,192,48920,1,8,0:0:0:0:
256,192,49220,1,0,0:0:0:0:
256,192,49370,1,8,0:0:0:0:
256,192,49670,1,0,0:0:0:0:
256,192,50120,1,0,0:0:0:0:
256,192,50270,1,8,0:0:0:0:
256,192,50420,1,8,0:0:0:0:
256,192,50570,1,0,0:0:0:0:
256,192,51020,1,8,0:0:0:0:
256,192,51170,1,0,0:0:0:0:
256,192,51320,1,0,0:0:0:0:
256,192,51470,1,8,0:0:0:0:
256,192,51770,1,8,0:0:0:0:
256,192,52220,1,8,0:0:0:0:
256,192,52370,1,8,0:0:0:0:
256,192,52520,1,0,0:0:0:0:
256,192,52670,1,8,0:0:0:0:
256,192,52745,1,8,0:0:0:0:
256,192,52820,1,8,0:0:0:0:
256,192,52970,1,0,0:0:0:0:
256,64,53120,1,12,0:0:0:0:
256,192,53420,1,0,0:0:0:0:
256,192,53570,1,8,0:0:0:0:
256,192,53720,1,0,0:0:0:0:
256,192,54020,1,8,0:0:0:0:
256,192,54170,1,0,0:0:0:0:
256,192,54470,1,0,0:0:0:0:
256,192,54770,1,8,0:0:0:0:
256,192,54920,1,0,0:0:0:0:
256,192,55070,1,0,0:0:0:0:
256,192,55220,1,8,0:0:0:0:
256,192,55370,1,8,0:0:0:0:
256,64,55520,1,4,0:0:0:0:
256,192,55820,1,8,0:0:0:0:
256,192,56120,1,8,0:0:0:0:
256,192,56420,1,0,0:0:0:0:
256,192,56570,1,0,0:0:0:0:
256,192,56720,1,8,0:0:0:0:
256,192,57020,1,8,0:0:0:0:
256,192,57320,1,0,0:0:0:0:
256,192,57470,1,8,0:0:0:0:
256,192,57770,1,0,0:0:0:0:
256,192,57920,1,8,0:0:0:0:
256,192,58070,1,0,0:0:0:0:
256,192,58145,1,0,0:0:0:0:
256,192,58220,1,0,0:0:0:0:
256,192,58370,1,0,0:0:0:0:
256,64,58520,1,12,0:0:0:0:
256,64,59120,1,4,0:0:0:0:
256,192,59420,1,8,0:0:0:0:
256,192,59570,1,8,0:0:0:0:
256,192,59720,1,0,0:0:0:0:
256,192,60020,1,8,0:0:0:0:
256,192,60170,1,0,0:0:0:0:
256,192,60320,1,8,0:0:0:0:
256,192,60395,1,8,0:0:0:0:
256,192,60470,1,8,0:0:0:0:
256,192,60620,1,0,0:0:0:0:
256,192,60770,1,0,0:0:0:0:
256,192,61070,1,0,0:0:0:0:
256,192,61220,1,8,0:0:0:0:
256,192,61370,1,0,0:0:0:0:
256,192,61520,1,8,0:0:0:0:
256,192,61820,1,0,0:0:0:0:
256,192,61970,1,0,0:0:0:0:
256,192,62120,1,8,0:0:0:0:
256,192,62420,1,0,0:0:0:0:
256,192,62570,1,0,0:0:0:0:
256,192,62720,1,8,0:0:0:0:
256,192,62870,1,8,0:0:0:0:
256,192,62945,1,8,0:0:0:0:
256,192,63020,1,8,0:0:0:0:
256,192,63170,1,0,0:0:0:0:
256,192,63320,1,8,0:0:0:0:
256,64,63920,1,4,0:0:0:0:
256,192,64220,1,8,0:0:0:0:
256,192,64370,1,8,0:0:0:0:
256,192,64520,1,0,0:0:0:0:
256,192,64820,1,8,0:0:0:0:
256,192,64970,1,0,0:0:0:0:
256,192,65120,1,8,0:0:0:0:
256,192,65420,1,0,0:0:0:0:
256,192,65570,1,0,0:0:0:0:
256,192,65870,1,0,0:0:0:0:
256,192,66020,1,8,0:0:0:0:
256,192,66170,1,0,0:0:0:0:
256,192,66320,1,8,0:0:0:0:
256,192,66620,1,0,0:0:0:0:
256,192,66770,1,0,0:0:0:0:
256,192,66920,1,8,0:0:0:0:
256,192,66995,1,8,0:0:0:0:
256,192,67070,1,8,0:0:0:0:
256,192,67220,1,0,0:0:0:0:
256,192,67520,1,8,0:0:0:0:
256,192,67820,1,0,0:0:0:0:
256,192,67970,1,0,0:0:0:0:
256,192,68120,1,8,0:0:0:0:
256,192,68420,1,0,0:0:0:0:
256,64,68720,1,12,0:0:0:0:
256,192,69320,1,8,0:0:0:0:
256,192,69470,1,0,0:0:0:0:
256,192,69620,1,8,0:0:0:0:
256,192,69770,1,0,0:0:0:0:
256,192,70070,1,8,0:0:0:0:
256,192,70370,1,0,0:0:0:0:
256,192,70670,1,0,0:0:0:0:
256,192,70820,1,0,0:0:0:0:
256,192,71120,1,8,0:0:0:0:
256,192,71420,1,0,0:0:0:0:
256,192,71570,1,0,0:0:0:0:
256,192,71720,1,8,0:0:0:0:
256,192,71870,1,0,0:0:0:0:
256,192,72170,1,0,0:0:0:0:
256,192,72320,1,8,0:0:0:0:
256,192,72620,1,0,0:0:0:0:
256,192,72920,1,8,0:0:0:0:
256,192,73070,1,8,0:0:0:0:
256,192,73145,1,8,0:0:0:0:
256,192,73220,1,8,0:0:0:0:
256,192,73370,1,0,0:0:0:0:
256,64,73520,1,12,0:0:0:0:
256,192,74120,1,8,0:0:0:0:
256,192,74270,1,8,0:0:0:0:
256,192,74420,1,0,0:0:0:0:
256,192,74570,1,0,0:0:0:0:
256,192,74870,1,8,0:0:0:0:
256,192,75170,1,0,0:0:0:0:
256,192,75470,1,0,0:0:0:0:
256,192,75620,1,8,0:0:0:0:
256,192,75770,1,0,0:0:0:0:
256,192,75920,1,8,0:0:0:0:
256,192,76220,1,8,0:0:0:0:
256,192,76370,1,0,0:0:0:0:
256,192,76520,1,8,0:0:0:0:
256,192,76595,1,8,0:0:0:0:
256,192,76670,1,8,0:0:0:0:
256,192,76820,1,0,0:0:0:0:
256,192,76970,1,8,0:0:0:0:
256,192,77420,1,8,0:0:0:0:
256,192,77570,1,0,0:0:0:0:
256,192,77645,1,0,0:0:0:0:
256,192,77720,1,0,0:0:0:0:
256,192,77870,1,0,0:0:0:0:
256,192,78020,1,8,0:0:0:0:
256,192,78095,1,8,0:0:0:0:
256,192,78170,1,8,0:0:0:0:
256,192,78320,1,0,0:0:0:0:
256,192,78545,1,0,0:0:0:0:
256,192,78770,1,8,0:0:0:0:
256,192,78995,1,0,0:0:0:0:
256,192,79220,1,0,0:0:0:0:
256,192,79445,1,8,0:0:0:0:
256,192,79670,1,0,0:0:0:0:
256,192,79895,1,0,0:0:0:0:
256,192,80120,1,8,0:0:0:0:
256,192,80720,1,8,0:0:0:0:
256,192,80945,1,8,0:0:0:0:
256,192,81170,1,0,0:0:0:0:
256,192,81395,1,8,0:0:0:0:
256,192,81620,1,8,0:0:0:0:
256,192,81845,1,0,0:0:0:0:
256,192,82070,1,8,0:0:0:0:
256,192,82295,1,8,0:0:0:0:
256,192,82520,1,0,0:0:0:0:
256,192,83120,1,8,0:0:0:0:
256,192,83345,1,0,0:0:0:0:
256,192,83570,1,8,0:0:0:0:
256,192,83795,1,0,0:0:0:0:
256,192,84020,1,0,0:0:0:0:
256,192,84245,1,0,0:0:0:0:
256,192,84470,1,8,0:0:0:0:
256,192,84695,1,0,0:0:0:0:
256,192,84920,1,8,0:0:0:0:
256,192,85520,1,0,0:0:0:0:
256,192,85745,1,0,0:0:0:0:
256,192,85970,1,0,0:0:0:0:
256,192,86195,1,8,0:0:0:0:
256,192,86420,1,8,0:0:0:0:
256,192,86645,1,8,0:0:0:0:
256,192,86870,1,0,0:0:0:0:
256,192,87095,1,8,0:0:0:0:
256,192,87320,1,0,0:0:0:0:
256,64,87545,1,12,0:0:0:0:
