osu file format v14

[General]
AudioFilename: audio.mp3
AudioLeadIn: 0
PreviewTime: 59045
Countdown: 0
SampleSet: Normal
StackLeniency: 0.7
Mode: 1
LetterboxInBreaks: 0
WidescreenStoryboard: 0

[Editor]
Bookmarks: 320,2720,7520,12320,17120,21920,26720,29120,33920,38720,43520,48320,53120,59120,68720,73520,78320
DistanceSpacing: 0.1
BeatDivisor: 4
GridSize: 32
TimelineZoom: 2.6

[Metadata]
Title:Tablet (TV Size)
TitleUnicode:錠剤 (TV Size)
Artist:TOOBOE
ArtistUnicode:TOOBOE
Creator:gaston_2199
Version:BLOOD FIEND
Source:チェンソーマン
Tags:Chainsaw Man chainsawman csm MAPPA john Jouzai anime ending ed 4 four japanese pop jpop j-pop rock jrock j-rock Hivie Kibitz hac aceticke meiqth
BeatmapID:3864369
BeatmapSetID:1877477

[Difficulty]
HPDrainRate:7
CircleSize:2
OverallDifficulty:7
ApproachRate:10
SliderMultiplier:1.4
SliderTickRate:1

[Events]
//Background and Video events
0,0,"gaston bg.jpg",0,30
Video,-64,"TaikoVideo.mp4"
//Break Periods
//Storyboard Layer 0 (Background)
//Storyboard Layer 1 (Fail)
//Storyboard Layer 2 (Pass)
//Storyboard Layer 3 (Foreground)
//Storyboard Layer 4 (Overlay)
//Storyboard Sound Samples

[TimingPoints]
320,300,4,1,0,100,1,0
320,-57.1428571428571,4,1,0,100,0,1
2420,-57.1428571428571,4,1,0,80,0,0
2720,-100,4,1,0,80,0,0
12470,-105.263157894737,4,1,0,80,0,0
28817,-103.448275862069,4,1,0,80,0,0
28892,-102.564102564103,4,1,0,80,0,0
28967,-101.694915254237,4,1,0,80,0,0
29042,-100.840336134454,4,1,0,80,0,0
29117,-100,4,1,0,80,0,0
48470,-111.111111111111,4,1,0,80,0,0
53120,-100,4,1,0,80,0,0
56717,-98.4848484848485,4,1,0,80,0,0
56792,-97.7443609022557,4,1,0,80,0,0
56867,-97.0149253731343,4,1,0,80,0,0
56942,-96.2962962962963,4,1,0,80,0,0
57017,-95.5882352941176,4,1,0,80,0,0
57092,-94.8905109489051,4,1,0,80,0,0
57167,-94.2028985507246,4,1,0,80,0,0
57242,-93.5251798561151,4,1,0,80,0,0
57317,-92.8571428571429,4,1,0,80,0,0
57392,-92.1985815602837,4,1,0,80,0,0
57467,-91.5492957746479,4,1,0,80,0,0
57542,-90.9090909090909,4,1,0,80,0,0
57617,-90.2777777777778,4,1,0,80,0,0
57692,-89.6551724137931,4,1,0,80,0,0
57767,-89.041095890411,4,1,0,80,0,0
57842,-88.4353741496599,4,1,0,80,0,0
57917,-87.8378378378378,4,1,0,80,0,0
57992,-87.248322147651,4,1,0,80,0,0
58067,-86.6666666666667,4,1,0,80,0,0
58142,-86.0927152317881,4,1,0,80,0,0
58217,-85.5263157894737,4,1,0,80,0,0
58292,-84.9673202614379,4,1,0,80,0,0
58367,-84.4155844155844,4,1,0,80,0,0
58442,-83.8709677419355,4,1,0,80,0,0
58517,-83.3333333333333,4,1,0,80,0,0
59120,-90.9090909090909,4,1,0,90,0,1
68945,-95.2380952380952,4,1,0,90,0,1
77120,-95.2380952380952,4,1,0,80,0,0
77420,-57.1428571428571,4,1,0,90,0,1
78320,-57.1428571428571,4,1,0,80,0,0
78542,-59.2930444697834,4,1,0,80,0,0
78767,-61.6113744075829,4,1,0,80,0,0
78992,-64.1183723797781,4,1,0,80,0,0
79217,-66.8380462724936,4,1,0,80,0,0
79367,-68.7830687830688,4,1,0,80,0,0
79442,-69.7986577181208,4,1,0,80,0,0
79667,-73.0337078651685,4,1,0,80,0,0
79892,-76.5832106038292,4,1,0,80,0,0
80117,-80.4953560371517,4,1,0,80,0,0
80270,-83.3333333333333,4,1,0,80,0,1
80720,-57.1428571428571,4,1,0,80,0,0
80942,-59.2930444697834,4,1,0,80,0,0
81167,-61.6113744075829,4,1,0,80,0,0
81392,-64.1183723797781,4,1,0,80,0,0
81617,-66.8380462724936,4,1,0,80,0,0
81767,-68.7830687830688,4,1,0,80,0,0
81842,-69.7986577181208,4,1,0,80,0,0
82067,-73.0337078651685,4,1,0,80,0,0
82292,-76.5832106038292,4,1,0,80,0,0
82517,-80.4953560371517,4,1,0,80,0,0
82670,-83.3333333333333,4,1,0,80,0,1
83120,-57.1428571428571,4,1,0,80,0,0
83342,-59.2930444697834,4,1,0,80,0,0
83567,-61.6113744075829,4,1,0,80,0,0
83792,-64.1183723797781,4,1,0,80,0,0
84017,-66.8380462724936,4,1,0,80,0,0
84167,-68.7830687830688,4,1,0,80,0,0
84242,-69.7986577181208,4,1,0,80,0,0
84467,-73.0337078651685,4,1,0,80,0,0
84692,-76.5832106038292,4,1,0,80,0,0
84917,-80.4953560371517,4,1,0,80,0,0
85070,-83.3333333333333,4,1,0,80,0,1
85520,-57.1428571428571,4,1,0,80,0,0
85742,-59.2105263157895,4,1,0,80,0,0
85967,-61.4334470989761,4,1,0,80,0,0
86192,-63.8297872340426,4,1,0,80,0,0
86417,-66.4206642066421,4,1,0,80,0,0
86567,-68.26801517067,4,1,0,80,0,0
86642,-69.2307692307692,4,1,0,80,0,0
86867,-72.289156626506,4,1,0,80,0,0
87092,-75.6302521008403,4,1,0,80,0,0
87317,-79.295154185022,4,1,0,80,0,0
87542,-83.3333333333333,4,1,0,80,0,0

[HitObjects]
256,192,320,5,8,0:0:0:0:
256,192,395,1,8,0:0:0:0:
256,192,470,1,8,0:0:0:0:
256,192,545,1,8,0:0:0:0:
256,192,620,1,8,0:0:0:0:
256,192,695,1,8,0:0:0:0:
256,192,770,1,8,0:0:0:0:
256,192,845,1,8,0:0:0:0:
256,192,920,1,8,0:0:0:0:
256,192,995,1,8,0:0:0:0:
256,192,1070,1,8,0:0:0:0:
256,192,1145,1,8,0:0:0:0:
256,192,1220,1,8,0:0:0:0:
256,192,1295,1,8,0:0:0:0:
256,192,1370,1,8,0:0:0:0:
256,192,1445,1,8,0:0:0:0:
256,192,1520,1,8,0:0:0:0:
256,192,1595,1,8,0:0:0:0:
256,192,1670,1,8,0:0:0:0:
256,192,1745,1,8,0:0:0:0:
256,192,1820,1,8,0:0:0:0:
256,192,1895,1,8,0:0:0:0:
256,192,1970,1,8,0:0:0:0:
256,192,2045,1,8,0:0:0:0:
256,192,2120,1,8,0:0:0:0:
256,192,2195,1,8,0:0:0:0:
256,192,2270,1,8,0:0:0:0:
256,192,2345,1,8,0:0:0:0:
256,192,2420,1,8,0:0:0:0:
256,192,2720,1,4,0:0:0:0:
256,192,3020,1,8,0:0:0:0:
256,192,3170,1,8,0:0:0:0:
256,192,3320,1,0,0:0:0:0:
254,189,3395,1,0,0:0:0:0:
256,192,3470,1,0,0:0:0:0:
256,192,3620,1,8,0:0:0:0:
256,192,3770,1,0,0:0:0:0:
256,192,3845,1,8,0:0:0:0:
255,185,3920,1,0,0:0:0:0:
256,192,4070,1,0,0:0:0:0:
256,192,4220,1,8,0:0:0:0:
256,192,4370,1,8,0:0:0:0:
255,189,4445,1,8,0:0:0:0:
256,192,4520,1,0,0:0:0:0:
256,192,4670,1,8,0:0:0:0:
256,192,4820,1,0,0:0:0:0:
256,192,4895,1,0,0:0:0:0:
256,192,4970,1,0,0:0:0:0:
256,192,5045,1,0,0:0:0:0:
256,192,5120,1,12,0:0:0:0:
253,178,5420,1,8,0:0:0:0:
253,178,5570,1,8,0:0:0:0:
253,178,5720,1,0,0:0:0:0:
256,192,5795,1,0,0:0:0:0:
253,178,5870,1,0,0:0:0:0:
253,178,6020,1,8,0:0:0:0:
253,178,6170,1,0,0:0:0:0:
253,178,6245,1,8,0:0:0:0:
251,176,6320,1,0,0:0:0:0:
253,178,6470,1,0,0:0:0:0:
253,178,6620,1,8,0:0:0:0:
253,178,6695,1,0,0:0:0:0:
253,178,6770,1,8,0:0:0:0:
253,178,6920,1,0,0:0:0:0:
253,178,6995,1,0,0:0:0:0:
253,178,7070,1,0,0:0:0:0:
253,178,7145,1,0,0:0:0:0:
253,178,7220,1,8,0:0:0:0:
253,178,7295,1,8,0:0:0:0:
253,178,7370,1,8,0:0:0:0:
253,178,7445,1,8,0:0:0:0:
256,192,7520,1,4,0:0:0:0:
256,192,7820,1,8,0:0:0:0:
256,192,7970,1,8,0:0:0:0:
256,192,8120,1,0,0:0:0:0:
253,178,8195,1,0,0:0:0:0:
256,192,8270,1,0,0:0:0:0:
256,192,8420,1,8,0:0:0:0:
256,192,8570,1,0,0:0:0:0:
256,192,8645,1,8,0:0:0:0:
255,185,8720,1,0,0:0:0:0:
256,192,8870,1,0,0:0:0:0:
256,192,9020,1,8,0:0:0:0:
256,192,9170,1,8,0:0:0:0:
255,189,9245,1,8,0:0:0:0:
256,192,9320,1,0,0:0:0:0:
256,192,9470,1,8,0:0:0:0:
256,192,9620,1,0,0:0:0:0:
256,192,9695,1,0,0:0:0:0:
256,192,9770,1,0,0:0:0:0:
256,192,9845,1,0,0:0:0:0:
256,192,9920,1,12,0:0:0:0:
253,178,10220,1,8,0:0:0:0:
253,178,10370,1,8,0:0:0:0:
253,178,10520,1,0,0:0:0:0:
256,192,10595,1,0,0:0:0:0:
253,178,10670,1,0,0:0:0:0:
253,178,10820,1,8,0:0:0:0:
253,178,10970,1,0,0:0:0:0:
253,178,11045,1,8,0:0:0:0:
251,176,11120,1,0,0:0:0:0:
253,178,11270,1,0,0:0:0:0:
253,178,11420,1,8,0:0:0:0:
253,178,11495,1,0,0:0:0:0:
253,178,11570,1,8,0:0:0:0:
253,178,11720,1,0,0:0:0:0:
253,178,11795,1,0,0:0:0:0:
253,178,11870,1,0,0:0:0:0:
253,178,11945,1,0,0:0:0:0:
253,178,12020,1,8,0:0:0:0:
253,178,12095,1,8,0:0:0:0:
253,178,12170,1,8,0:0:0:0:
253,178,12245,1,8,0:0:0:0:
253,178,12320,1,4,0:0:0:0:
253,178,12620,1,8,0:0:0:0:
253,178,12770,1,8,0:0:0:0:
253,178,12920,1,0,0:0:0:0:
253,178,13070,1,0,0:0:0:0:
253,178,13220,1,8,0:0:0:0:
253,178,13370,1,0,0:0:0:0:
253,178,13445,1,0,0:0:0:0:
253,178,13670,1,8,0:0:0:0:
253,178,13820,1,0,0:0:0:0:
253,178,13970,1,8,0:0:0:0:
253,174,14045,1,8,0:0:0:0:
253,178,14120,1,0,0:0:0:0:
253,178,14270,1,8,0:0:0:0:
253,178,14420,1,0,0:0:0:0:
253,178,14495,1,0,0:0:0:0:
253,178,14570,1,0,0:0:0:0:
253,178,14645,1,0,0:0:0:0:
253,178,14720,1,8,0:0:0:0:
253,178,14870,1,0,0:0:0:0:
253,178,15020,1,8,0:0:0:0:
251,172,15170,1,8,0:0:0:0:
253,178,15320,1,0,0:0:0:0:
253,178,15470,1,0,0:0:0:0:
253,178,15620,1,8,0:0:0:0:
253,178,15770,1,0,0:0:0:0:
253,178,15845,1,0,0:0:0:0:
253,178,16070,1,0,0:0:0:0:
253,178,16220,1,8,0:0:0:0:
253,178,16370,1,8,0:0:0:0:
253,178,16445,1,8,0:0:0:0:
253,178,16520,1,0,0:0:0:0:
253,178,16670,1,0,0:0:0:0:
253,178,16820,1,8,0:0:0:0:
253,178,16895,1,8,0:0:0:0:
253,178,16970,1,8,0:0:0:0:
253,178,17045,1,8,0:0:0:0:
253,178,17120,1,4,0:0:0:0:
253,178,17420,1,8,0:0:0:0:
253,178,17570,1,8,0:0:0:0:
253,178,17720,1,0,0:0:0:0:
253,178,17870,1,0,0:0:0:0:
253,178,18020,1,8,0:0:0:0:
253,178,18170,1,0,0:0:0:0:
253,178,18245,1,0,0:0:0:0:
253,178,18470,1,8,0:0:0:0:
253,178,18620,1,0,0:0:0:0:
253,178,18770,1,8,0:0:0:0:
253,174,18845,1,8,0:0:0:0:
253,178,18920,1,0,0:0:0:0:
253,178,19070,1,8,0:0:0:0:
253,178,19220,1,0,0:0:0:0:
253,178,19295,1,0,0:0:0:0:
253,178,19370,1,0,0:0:0:0:
253,178,19445,1,0,0:0:0:0:
253,178,19520,1,8,0:0:0:0:
253,178,19670,1,0,0:0:0:0:
253,178,19820,1,8,0:0:0:0:
251,172,19970,1,8,0:0:0:0:
253,178,20120,1,0,0:0:0:0:
253,178,20270,1,0,0:0:0:0:
253,178,20420,1,8,0:0:0:0:
253,178,20570,1,0,0:0:0:0:
253,178,20645,1,0,0:0:0:0:
253,178,20870,1,0,0:0:0:0:
253,178,21020,1,8,0:0:0:0:
253,178,21170,1,8,0:0:0:0:
253,178,21245,1,8,0:0:0:0:
253,178,21320,1,0,0:0:0:0:
253,178,21470,1,0,0:0:0:0:
253,178,21620,1,8,0:0:0:0:
253,178,21695,1,8,0:0:0:0:
253,178,21770,1,8,0:0:0:0:
253,178,21845,1,8,0:0:0:0:
253,178,21920,1,4,0:0:0:0:
253,178,22220,1,8,0:0:0:0:
253,178,22370,1,8,0:0:0:0:
253,178,22520,1,0,0:0:0:0:
253,178,22670,1,0,0:0:0:0:
253,178,22820,1,8,0:0:0:0:
253,178,22970,1,8,0:0:0:0:
253,178,23045,1,0,0:0:0:0:
253,178,23270,1,0,0:0:0:0:
253,178,23420,1,8,0:0:0:0:
253,178,23570,1,8,0:0:0:0:
253,178,23720,1,0,0:0:0:0:
253,178,23870,1,0,0:0:0:0:
253,178,24020,1,8,0:0:0:0:
253,178,24095,1,8,0:0:0:0:
253,178,24170,1,8,0:0:0:0:
253,178,24245,1,8,0:0:0:0:
253,178,24320,1,0,0:0:0:0:
253,178,24470,1,0,0:0:0:0:
253,178,24620,1,8,0:0:0:0:
253,178,24770,1,8,0:0:0:0:
253,178,24845,1,8,0:0:0:0:
253,178,24920,1,0,0:0:0:0:
253,178,25070,1,0,0:0:0:0:
253,178,25220,1,8,0:0:0:0:
253,178,25370,1,0,0:0:0:0:
253,178,25445,1,0,0:0:0:0:
253,178,25670,1,0,0:0:0:0:
253,178,25820,1,8,0:0:0:0:
253,178,25970,1,8,0:0:0:0:
253,178,26120,1,0,0:0:0:0:
253,178,26270,1,8,0:0:0:0:
253,178,26420,1,0,0:0:0:0:
253,178,26495,1,0,0:0:0:0:
253,178,26570,1,0,0:0:0:0:
253,178,26645,1,0,0:0:0:0:
253,178,26720,1,12,0:0:0:0:
253,178,27020,1,8,0:0:0:0:
253,178,27170,1,8,0:0:0:0:
253,178,27320,1,0,0:0:0:0:
253,178,27470,1,0,0:0:0:0:
253,178,27620,1,8,0:0:0:0:
253,178,27770,1,8,0:0:0:0:
253,178,27845,1,0,0:0:0:0:
253,178,28070,1,0,0:0:0:0:
253,178,28220,1,8,0:0:0:0:
253,178,28370,1,8,0:0:0:0:
253,178,28520,1,0,0:0:0:0:
253,178,28670,1,0,0:0:0:0:
253,178,28820,1,8,0:0:0:0:
253,178,28895,1,8,0:0:0:0:
253,178,28970,1,8,0:0:0:0:
253,178,29045,1,8,0:0:0:0:
253,178,29120,1,4,0:0:0:0:
253,178,29420,1,8,0:0:0:0:
253,178,29570,1,8,0:0:0:0:
253,178,29720,1,0,0:0:0:0:
253,178,29795,1,0,0:0:0:0:
253,178,29870,1,0,0:0:0:0:
253,178,30020,1,8,0:0:0:0:
253,178,30170,1,8,0:0:0:0:
253,178,30245,1,8,0:0:0:0:
253,178,30320,1,0,0:0:0:0:
250,175,30395,1,8,0:0:0:0:
253,178,30470,1,0,0:0:0:0:
253,178,30620,1,8,0:0:0:0:
253,178,30770,1,8,0:0:0:0:
253,174,30845,1,8,0:0:0:0:
253,178,30920,1,0,0:0:0:0:
253,178,31070,1,8,0:0:0:0:
253,178,31220,1,0,0:0:0:0:
253,178,31295,1,0,0:0:0:0:
253,178,31370,1,0,0:0:0:0:
253,178,31445,1,0,0:0:0:0:
253,178,31520,1,8,0:0:0:0:
253,178,31670,1,0,0:0:0:0:
253,178,31820,1,8,0:0:0:0:
251,172,31970,1,8,0:0:0:0:
251,172,32045,1,8,0:0:0:0:
253,178,32120,1,0,0:0:0:0:
253,178,32270,1,0,0:0:0:0:
253,178,32420,1,8,0:0:0:0:
253,178,32570,1,8,0:0:0:0:
253,178,32645,1,0,0:0:0:0:
252,175,32720,1,8,0:0:0:0:
251,173,32795,1,8,0:0:0:0:
250,169,32870,1,0,0:0:0:0:
253,178,33020,1,8,0:0:0:0:
253,178,33170,1,8,0:0:0:0:
253,178,33320,1,0,0:0:0:0:
252,175,33395,1,0,0:0:0:0:
253,178,33470,1,0,0:0:0:0:
252,175,33545,1,0,0:0:0:0:
253,178,33620,1,8,0:0:0:0:
253,178,33695,1,8,0:0:0:0:
253,178,33770,1,8,0:0:0:0:
253,178,33845,1,8,0:0:0:0:
253,178,33920,1,4,0:0:0:0:
253,178,34220,1,8,0:0:0:0:
253,178,34370,1,8,0:0:0:0:
253,178,34520,1,0,0:0:0:0:
252,175,34595,1,0,0:0:0:0:
253,178,34670,1,0,0:0:0:0:
253,178,34820,1,8,0:0:0:0:
253,178,34970,1,8,0:0:0:0:
253,178,35045,1,0,0:0:0:0:
254,176,35120,1,8,0:0:0:0:
254,176,35195,1,8,0:0:0:0:
253,178,35270,1,0,0:0:0:0:
253,178,35420,1,8,0:0:0:0:
253,178,35570,1,0,0:0:0:0:
251,173,35645,1,8,0:0:0:0:
253,178,35720,1,0,0:0:0:0:
253,178,35870,1,8,0:0:0:0:
253,178,36020,1,0,0:0:0:0:
253,178,36095,1,0,0:0:0:0:
253,178,36170,1,0,0:0:0:0:
253,178,36245,1,0,0:0:0:0:
253,178,36320,1,8,0:0:0:0:
253,178,36470,1,0,0:0:0:0:
253,178,36620,1,8,0:0:0:0:
253,178,36770,1,0,0:0:0:0:
251,175,36845,1,8,0:0:0:0:
253,178,36920,1,0,0:0:0:0:
253,178,37070,1,0,0:0:0:0:
253,178,37220,1,8,0:0:0:0:
253,178,37370,1,8,0:0:0:0:
253,178,37445,1,8,0:0:0:0:
253,178,37520,1,0,0:0:0:0:
250,177,37595,1,8,0:0:0:0:
253,178,37670,1,0,0:0:0:0:
253,178,37820,1,8,0:0:0:0:
253,178,37970,1,0,0:0:0:0:
253,178,38120,1,8,0:0:0:0:
251,174,38195,1,8,0:0:0:0:
253,178,38270,1,0,0:0:0:0:
250,174,38345,1,0,0:0:0:0:
253,178,38420,1,8,0:0:0:0:
253,178,38495,1,8,0:0:0:0:
253,178,38570,1,8,0:0:0:0:
253,178,38645,1,8,0:0:0:0:
253,178,38720,1,4,0:0:0:0:
253,178,39020,1,8,0:0:0:0:
253,178,39170,1,8,0:0:0:0:
253,178,39320,1,0,0:0:0:0:
250,174,39395,1,8,0:0:0:0:
253,178,39470,1,0,0:0:0:0:
253,178,39620,1,8,0:0:0:0:
253,178,39770,1,8,0:0:0:0:
253,178,39845,1,8,0:0:0:0:
253,178,39920,1,0,0:0:0:0:
253,178,39995,1,8,0:0:0:0:
253,178,40070,1,0,0:0:0:0:
253,178,40220,1,8,0:0:0:0:
253,178,40370,1,8,0:0:0:0:
250,174,40445,1,0,0:0:0:0:
253,178,40520,1,8,0:0:0:0:
253,178,40670,1,0,0:0:0:0:
253,178,40820,1,8,0:0:0:0:
253,178,40895,1,8,0:0:0:0:
253,178,40970,1,8,0:0:0:0:
253,178,41045,1,8,0:0:0:0:
253,178,41120,1,0,0:0:0:0:
253,178,41270,1,0,0:0:0:0:
253,178,41420,1,8,0:0:0:0:
253,178,41570,1,8,0:0:0:0:
253,178,41645,1,8,0:0:0:0:
253,178,41720,1,0,0:0:0:0:
253,178,41870,1,0,0:0:0:0:
253,178,42020,1,8,0:0:0:0:
253,178,42170,1,0,0:0:0:0:
253,178,42245,1,0,0:0:0:0:
253,178,42320,1,8,0:0:0:0:
253,178,42470,1,0,0:0:0:0:
253,178,42620,1,8,0:0:0:0:
253,178,42695,1,0,0:0:0:0:
253,178,42770,1,8,0:0:0:0:
253,178,42920,1,0,0:0:0:0:
253,178,43070,1,8,0:0:0:0:
253,178,43220,1,0,0:0:0:0:
253,178,43295,1,0,0:0:0:0:
253,178,43370,1,0,0:0:0:0:
253,178,43445,1,0,0:0:0:0:
253,178,43520,1,12,0:0:0:0:
253,178,43820,1,8,0:0:0:0:
253,178,43970,1,8,0:0:0:0:
253,178,44120,1,0,0:0:0:0:
249,175,44195,1,8,0:0:0:0:
253,178,44270,1,0,0:0:0:0:
253,178,44420,1,8,0:0:0:0:
253,178,44570,1,8,0:0:0:0:
253,178,44645,1,8,0:0:0:0:
252,176,44720,1,0,0:0:0:0:
250,172,44795,1,0,0:0:0:0:
253,178,44870,1,0,0:0:0:0:
253,178,45020,1,8,0:0:0:0:
253,178,45170,1,8,0:0:0:0:
251,174,45245,1,8,0:0:0:0:
253,178,45320,1,8,0:0:0:0:
253,178,45470,1,0,0:0:0:0:
253,178,45620,1,8,0:0:0:0:
253,178,45695,1,8,0:0:0:0:
253,178,45770,1,8,0:0:0:0:
253,178,45845,1,8,0:0:0:0:
253,178,45920,1,0,0:0:0:0:
251,174,46070,1,0,0:0:0:0:
253,178,46220,1,8,0:0:0:0:
253,178,46370,1,8,0:0:0:0:
253,178,46520,1,0,0:0:0:0:
253,178,46595,1,8,0:0:0:0:
253,178,46670,1,0,0:0:0:0:
253,178,46820,1,8,0:0:0:0:
253,178,46970,1,8,0:0:0:0:
253,178,47045,1,8,0:0:0:0:
253,178,47120,1,0,0:0:0:0:
253,178,47270,1,0,0:0:0:0:
250,175,47345,1,0,0:0:0:0:
253,178,47420,1,8,0:0:0:0:
253,178,47570,1,0,0:0:0:0:
253,174,47645,1,8,0:0:0:0:
253,178,47720,1,0,0:0:0:0:
253,178,47870,1,8,0:0:0:0:
253,178,48020,1,0,0:0:0:0:
253,178,48095,1,0,0:0:0:0:
253,178,48170,1,0,0:0:0:0:
253,178,48245,1,0,0:0:0:0:
253,178,48320,1,12,0:0:0:0:
246,165,48620,1,0,0:0:0:0:
253,178,48770,1,8,0:0:0:0:
253,178,48920,1,0,0:0:0:0:
253,178,48995,1,8,0:0:0:0:
253,178,49070,1,0,0:0:0:0:
253,178,49220,1,8,0:0:0:0:
253,178,49370,1,8,0:0:0:0:
253,178,49445,1,8,0:0:0:0:
253,178,49520,1,0,0:0:0:0:
256,171,49670,1,8,0:0:0:0:
256,171,49970,1,8,0:0:0:0:
256,171,50120,1,0,0:0:0:0:
256,171,50270,1,0,0:0:0:0:
256,171,50420,1,8,0:0:0:0:
256,171,50570,1,8,0:0:0:0:
256,171,50645,1,8,0:0:0:0:
256,171,50720,1,0,0:0:0:0:
256,171,51020,1,8,0:0:0:0:
256,171,51170,1,8,0:0:0:0:
256,171,51320,1,0,0:0:0:0:
256,171,51470,1,0,0:0:0:0:
252,166,51620,1,8,0:0:0:0:
256,171,51770,1,0,0:0:0:0:
256,171,51845,1,8,0:0:0:0:
256,171,51920,1,0,0:0:0:0:
256,171,52070,1,0,0:0:0:0:
256,171,52220,1,8,0:0:0:0:
256,171,52370,1,0,0:0:0:0:
256,171,52520,1,8,0:0:0:0:
256,171,52595,1,8,0:0:0:0:
256,171,52670,1,0,0:0:0:0:
256,171,52745,1,0,0:0:0:0:
256,171,52820,1,8,0:0:0:0:
256,171,52895,1,0,0:0:0:0:
256,171,52970,1,8,0:0:0:0:
256,171,53120,1,4,0:0:0:0:
253,159,53420,1,8,0:0:0:0:
253,159,53570,1,8,0:0:0:0:
253,159,53720,1,0,0:0:0:0:
251,157,53795,1,8,0:0:0:0:
253,159,53870,1,0,0:0:0:0:
249,155,54020,1,8,0:0:0:0:
249,155,54170,1,8,0:0:0:0:
249,155,54245,1,8,0:0:0:0:
249,155,54320,1,0,0:0:0:0:
249,155,54470,1,8,0:0:0:0:
249,155,54620,1,0,0:0:0:0:
249,155,54770,1,8,0:0:0:0:
246,153,54845,1,8,0:0:0:0:
249,155,54920,1,0,0:0:0:0:
246,152,54995,1,0,0:0:0:0:
246,152,55070,1,8,0:0:0:0:
246,152,55220,1,8,0:0:0:0:
243,150,55295,1,0,0:0:0:0:
246,152,55370,1,8,0:0:0:0:
246,152,55520,1,0,0:0:0:0:
240,149,55670,1,0,0:0:0:0:
236,148,55745,1,0,0:0:0:0:
233,147,55820,1,8,0:0:0:0:
233,147,55970,1,0,0:0:0:0:
233,147,56120,1,8,0:0:0:0:
246,152,56195,1,0,0:0:0:0:
233,147,56270,1,0,0:0:0:0:
231,147,56345,1,0,0:0:0:0:
233,147,56420,1,8,0:0:0:0:
226,147,56570,1,0,0:0:0:0:
219,147,56720,1,8,0:0:0:0:
214,147,56795,1,8,0:0:0:0:
214,147,56870,1,0,0:0:0:0:
210,147,56945,1,0,0:0:0:0:
214,147,57020,1,8,0:0:0:0:
209,147,57095,1,0,0:0:0:0:
214,147,57170,1,0,0:0:0:0:
210,147,57245,1,0,0:0:0:0:
214,147,57320,1,8,0:0:0:0:
210,147,57395,1,0,0:0:0:0:
214,147,57470,1,8,0:0:0:0:
210,147,57545,1,8,0:0:0:0:
208,147,57620,1,0,0:0:0:0:
208,147,57695,1,0,0:0:0:0:
208,147,57770,1,8,0:0:0:0:
208,147,57845,1,0,0:0:0:0:
214,147,57920,1,8,0:0:0:0:
208,147,57995,1,8,0:0:0:0:
209,147,58070,1,0,0:0:0:0:
208,147,58145,1,8,0:0:0:0:
214,147,58220,1,0,0:0:0:0:
210,147,58295,1,0,0:0:0:0:
214,147,58370,1,8,0:0:0:0:
214,147,58445,1,0,0:0:0:0:
214,147,58520,1,8,0:0:0:0:
209,147,59120,1,12,0:0:0:0:
213,142,59270,1,0,0:0:0:0:
213,155,59345,1,0,0:0:0:0:
213,155,59420,1,8,0:0:0:0:
213,155,59570,1,0,0:0:0:0:
213,155,59720,1,8,0:0:0:0:
212,159,59795,1,0,0:0:0:0:
212,159,59870,1,0,0:0:0:0:
212,157,59945,1,0,0:0:0:0:
213,165,60020,1,8,0:0:0:0:
213,165,60170,1,8,0:0:0:0:
213,165,60320,1,0,0:0:0:0:
213,165,60395,1,8,0:0:0:0:
214,167,60470,1,0,0:0:0:0:
213,165,60545,1,0,0:0:0:0:
213,165,60620,1,8,0:0:0:0:
214,166,60695,1,0,0:0:0:0:
216,169,60770,1,8,0:0:0:0:
219,174,60920,1,0,0:0:0:0:
222,179,61070,1,8,0:0:0:0:
222,180,61145,1,0,0:0:0:0:
224,185,61220,1,8,0:0:0:0:
224,187,61295,1,0,0:0:0:0:
225,190,61370,1,8,0:0:0:0:
227,196,61520,1,0,0:0:0:0:
229,203,61670,1,0,0:0:0:0:
229,205,61745,1,0,0:0:0:0:
231,206,61820,1,8,0:0:0:0:
236,209,61970,1,8,0:0:0:0:
236,209,62045,1,0,0:0:0:0:
236,209,62120,1,8,0:0:0:0:
236,209,62195,1,8,0:0:0:0:
236,209,62270,1,0,0:0:0:0:
235,205,62345,1,0,0:0:0:0:
236,209,62420,1,8,0:0:0:0:
236,209,62570,1,0,0:0:0:0:
236,209,62645,1,8,0:0:0:0:
236,209,62720,1,0,0:0:0:0:
236,209,62870,1,0,0:0:0:0:
236,209,62945,1,0,0:0:0:0:
236,209,63020,1,8,0:0:0:0:
236,209,63170,1,0,0:0:0:0:
236,209,63320,1,8,0:0:0:0:
236,209,63395,1,0,0:0:0:0:
236,209,63545,1,0,0:0:0:0:
236,209,63620,1,8,0:0:0:0:
236,209,63770,1,8,0:0:0:0:
236,209,63920,1,4,0:0:0:0:
236,209,64070,1,0,0:0:0:0:
236,209,64145,1,0,0:0:0:0:
236,209,64220,1,8,0:0:0:0:
236,209,64370,1,0,0:0:0:0:
236,201,64520,1,8,0:0:0:0:
235,197,64595,1,0,0:0:0:0:
236,201,64670,1,0,0:0:0:0:
234,194,64820,1,8,0:0:0:0:
233,189,64895,1,0,0:0:0:0:
234,194,64970,1,8,0:0:0:0:
234,194,65120,1,0,0:0:0:0:
234,194,65270,1,0,0:0:0:0:
232,189,65345,1,0,0:0:0:0:
232,188,65420,1,8,0:0:0:0:
231,185,65495,1,0,0:0:0:0:
229,183,65570,1,8,0:0:0:0:
229,179,65645,1,8,0:0:0:0:
228,177,65720,1,0,0:0:0:0:
229,183,65870,1,8,0:0:0:0:
228,179,65945,1,8,0:0:0:0:
229,177,66020,1,0,0:0:0:0:
227,172,66095,1,0,0:0:0:0:
226,169,66170,1,8,0:0:0:0:
225,162,66320,1,0,0:0:0:0:
225,155,66470,1,0,0:0:0:0:
225,155,66545,1,0,0:0:0:0:
225,155,66620,1,8,0:0:0:0:
225,155,66770,1,0,0:0:0:0:
225,155,66920,1,8,0:0:0:0:
225,155,66995,1,0,0:0:0:0:
223,153,67070,1,8,0:0:0:0:
222,147,67145,1,0,0:0:0:0:
223,153,67220,1,8,0:0:0:0:
223,153,67295,1,8,0:0:0:0:
222,150,67370,1,0,0:0:0:0:
222,150,67520,1,8,0:0:0:0:
222,150,67670,1,0,0:0:0:0:
222,146,67745,1,0,0:0:0:0:
221,141,67820,1,8,0:0:0:0:
221,134,67970,1,0,0:0:0:0:
221,127,68120,1,8,0:0:0:0:
221,127,68195,1,0,0:0:0:0:
221,127,68345,1,0,0:0:0:0:
221,127,68420,1,8,0:0:0:0:
221,127,68570,1,0,0:0:0:0:
220,119,68720,1,12,0:0:0:0:
218,106,69020,1,8,0:0:0:0:
218,106,69245,1,0,0:0:0:0:
218,106,69320,1,8,0:0:0:0:
218,106,69470,1,0,0:0:0:0:
211,107,69620,1,8,0:0:0:0:
211,107,69770,1,0,0:0:0:0:
211,107,69845,1,8,0:0:0:0:
211,107,69920,1,0,0:0:0:0:
211,107,70070,1,0,0:0:0:0:
211,107,70220,1,8,0:0:0:0:
211,107,70370,1,8,0:0:0:0:
208,107,70445,1,8,0:0:0:0:
211,107,70520,1,0,0:0:0:0:
208,107,70595,1,0,0:0:0:0:
205,107,70670,1,0,0:0:0:0:
199,108,70820,1,8,0:0:0:0:
193,109,70970,1,0,0:0:0:0:
194,108,71045,1,0,0:0:0:0:
193,109,71120,1,8,0:0:0:0:
197,106,71270,1,0,0:0:0:0:
193,109,71420,1,8,0:0:0:0:
193,109,71570,1,8,0:0:0:0:
193,109,71645,1,8,0:0:0:0:
193,109,71720,1,0,0:0:0:0:
193,109,71870,1,0,0:0:0:0:
193,109,72020,1,8,0:0:0:0:
193,109,72095,1,8,0:0:0:0:
193,109,72170,1,0,0:0:0:0:
189,111,72245,1,0,0:0:0:0:
193,109,72320,1,8,0:0:0:0:
186,113,72470,1,0,0:0:0:0:
186,113,72620,1,8,0:0:0:0:
186,113,72695,1,0,0:0:0:0:
186,113,72770,1,8,0:0:0:0:
186,113,72845,1,0,0:0:0:0:
186,113,72920,1,8,0:0:0:0:
186,113,73070,1,0,0:0:0:0:
186,113,73220,1,8,0:0:0:0:
186,113,73295,1,8,0:0:0:0:
186,113,73370,1,0,0:0:0:0:
186,113,73520,1,12,0:0:0:0:
218,106,73820,1,8,0:0:0:0:
218,106,74045,1,0,0:0:0:0:
218,106,74120,1,8,0:0:0:0:
218,106,74270,1,0,0:0:0:0:
211,107,74420,1,8,0:0:0:0:
211,107,74570,1,8,0:0:0:0:
211,107,74645,1,8,0:0:0:0:
211,107,74720,1,0,0:0:0:0:
211,107,74870,1,0,0:0:0:0:
211,107,75020,1,8,0:0:0:0:
211,107,75170,1,8,0:0:0:0:
211,107,75245,1,0,0:0:0:0:
211,107,75320,1,8,0:0:0:0:
208,107,75395,1,8,0:0:0:0:
205,107,75470,1,0,0:0:0:0:
199,108,75620,1,8,0:0:0:0:
193,109,75770,1,0,0:0:0:0:
194,107,75845,1,0,0:0:0:0:
193,109,75920,1,8,0:0:0:0:
211,107,76070,1,8,0:0:0:0:
211,107,76145,1,8,0:0:0:0:
193,109,76220,1,0,0:0:0:0:
211,107,76295,1,0,0:0:0:0:
193,109,76370,1,8,0:0:0:0:
193,109,76445,1,8,0:0:0:0:
193,109,76520,1,0,0:0:0:0:
193,109,76670,1,0,0:0:0:0:
211,107,76745,1,0,0:0:0:0:
193,109,76820,1,8,0:0:0:0:
193,109,76970,1,8,0:0:0:0:
193,109,77120,1,0,0:0:0:0:
186,113,77420,1,8,0:0:0:0:
186,113,77495,1,8,0:0:0:0:
186,113,77570,1,8,0:0:0:0:
186,113,77645,1,8,0:0:0:0:
186,111,77720,1,8,0:0:0:0:
185,106,77795,1,8,0:0:0:0:
186,113,77870,1,8,0:0:0:0:
185,108,77945,1,8,0:0:0:0:
186,107,78020,1,8,0:0:0:0:
186,113,78095,1,8,0:0:0:0:
186,113,78170,1,8,0:0:0:0:
186,111,78245,1,8,0:0:0:0:
186,113,78320,1,4,0:0:0:0:
186,113,78545,1,8,0:0:0:0:
186,111,78770,1,0,0:0:0:0:
185,108,78995,1,8,0:0:0:0:
186,113,79220,1,8,0:0:0:0:
186,113,79370,1,0,0:0:0:0:
186,113,79445,1,8,0:0:0:0:
186,111,79670,1,0,0:0:0:0:
185,108,79895,1,8,0:0:0:0:
186,113,80120,1,0,0:0:0:0:
242,144,80270,2,0,L|418:126,1,167.999994873047
242,144,80720,5,4,0:0:0:0:
242,144,80945,1,8,0:0:0:0:
242,144,81170,1,0,0:0:0:0:
242,144,81395,1,8,0:0:0:0:
242,144,81620,1,8,0:0:0:0:
239,136,81770,1,0,0:0:0:0:
242,144,81845,1,8,0:0:0:0:
242,144,82070,1,0,0:0:0:0:
242,144,82295,1,8,0:0:0:0:
242,144,82520,1,0,0:0:0:0:
242,144,82670,2,0,L|426:146,1,167.999994873047
242,144,83120,5,4,0:0:0:0:
242,144,83345,1,8,0:0:0:0:
242,144,83570,1,0,0:0:0:0:
248,134,83795,1,8,0:0:0:0:
248,134,84020,1,8,0:0:0:0:
243,128,84170,1,0,0:0:0:0:
240,127,84245,1,8,0:0:0:0:
248,134,84470,1,0,0:0:0:0:
248,134,84695,1,8,0:0:0:0:
248,134,84920,1,0,0:0:0:0:
242,144,85070,2,4,L|434:145,1,167.999994873047,0|0,0:0|0:0,0:0:0:0:
248,134,85520,5,4,0:0:0:0:
248,134,85745,1,8,0:0:0:0:
248,134,85970,1,0,0:0:0:0:
248,134,86195,1,8,0:0:0:0:
248,134,86420,1,8,0:0:0:0:
248,134,86570,1,0,0:0:0:0:
248,134,86645,1,8,0:0:0:0:
248,134,86870,1,8,0:0:0:0:
248,134,87095,1,0,0:0:0:0:
248,134,87320,1,8,0:0:0:0:
248,134,87545,1,4,0:0:0:0:
