osu file format v14

[General]
AudioFilename: audio.mp3
AudioLeadIn: 0
PreviewTime: 59045
Countdown: 0
SampleSet: Normal
StackLeniency: 0.7
Mode: 1
LetterboxInBreaks: 0
WidescreenStoryboard: 1

[Editor]
Bookmarks: 49224,60024,65124,65424,65724,65874,66024,66174,66324,66474,66774,66924,67074,67224,67299,67374,67524,67674,67824,67974,68124,68724,69624,70224,70374,70524,70674,70974,71274,71724,72024,72324,72474,72774,73074,74424,75024,75174,75324,75474,75774,76074,76524,76824,77124,77274,77574,77724,77874
DistanceSpacing: 0.1
BeatDivisor: 4
GridSize: 32
TimelineZoom: 2.000001

[Metadata]
Title:Tablet (TV Size)
TitleUnicode:錠剤 (TV Size)
Artist:TOOBOE
ArtistUnicode:TOOBOE
Creator:gaston_2199
Version:MEIQTH'S INNER FIEND
Source:チェンソーマン
Tags:Chainsaw Man chainsawman csm MAPPA john Jouzai anime ending ed 4 four japanese pop jpop j-pop rock jrock j-rock Hivie Kibitz hac aceticke meiqth
BeatmapID:3865710
BeatmapSetID:1877477

[Difficulty]
HPDrainRate:7
CircleSize:2
OverallDifficulty:7
ApproachRate:10
SliderMultiplier:1.4
SliderTickRate:1

[Events]
//Background and Video events
Video,-64,"TaikoVideo.mp4"
0,0,"meiqth bg.jpg",0,80
//Break Periods
//Storyboard Layer 0 (Background)
//Storyboard Layer 1 (Fail)
//Storyboard Layer 2 (Pass)
//Storyboard Layer 3 (Foreground)
//Storyboard Layer 4 (Overlay)
//Storyboard Sound Samples

[TimingPoints]
320,300,4,1,0,100,1,0
320,-71.4285714285714,4,1,0,100,0,1
2420,-71.4285714285714,4,1,0,80,0,0
2720,-90.9090909090909,4,1,0,80,0,0
12325,-100,4,1,0,80,0,0
21924,-111.111111111111,4,1,0,80,0,0
28067,-108.433734939759,4,1,0,80,0,0
28217,-107.142857142857,4,1,0,80,0,0
28367,-105.882352941176,4,1,0,80,0,0
28517,-104.651162790698,4,1,0,80,0,0
28667,-103.448275862069,4,1,0,80,0,0
28817,-102.272727272727,4,1,0,80,0,0
28892,-101.694915254237,4,1,0,80,0,0
28967,-101.123595505618,4,1,0,80,0,0
29042,-100.558659217877,4,1,0,80,0,0
29117,-100,4,1,0,80,0,0
38724,-111.111111111111,4,1,0,80,0,0
48173,-90.9090909090908,4,1,0,80,0,0
49822,-100,4,1,0,80,0,0
52971,-90.9090909090908,4,1,0,80,0,0
56717,-89.6551724137931,4,1,0,80,0,0
56792,-89.041095890411,4,1,0,80,0,0
56867,-88.4353741496599,4,1,0,80,0,0
56942,-87.8378378378378,4,1,0,80,0,0
57017,-87.248322147651,4,1,0,80,0,0
57092,-86.6666666666667,4,1,0,80,0,0
57167,-86.0927152317881,4,1,0,80,0,0
57242,-85.5263157894737,4,1,0,80,0,0
57317,-84.9673202614379,4,1,0,80,0,0
57392,-84.4155844155844,4,1,0,80,0,0
57467,-83.8709677419355,4,1,0,80,0,0
57542,-83.3333333333333,4,1,0,80,0,0
57617,-82.8025477707006,4,1,0,80,0,0
57692,-82.2784810126582,4,1,0,80,0,0
57767,-81.7610062893082,4,1,0,80,0,0
57842,-81.25,4,1,0,80,0,0
57917,-80.7453416149068,4,1,0,80,0,0
57992,-80.2469135802469,4,1,0,80,0,0
58067,-79.7546012269939,4,1,0,80,0,0
58142,-79.2682926829268,4,1,0,80,0,0
58217,-78.7878787878788,4,1,0,80,0,0
58292,-78.3132530120482,4,1,0,80,0,0
58367,-77.8443113772455,4,1,0,80,0,0
58442,-77.3809523809524,4,1,0,80,0,0
58517,-76.9230769230769,4,1,0,80,0,0
59120,-83.3333333333333,4,1,0,90,0,1
68725,-90.9090909090909,4,1,0,90,0,1
77120,-90.9090909090909,4,1,0,80,0,0
77420,-71.4285714285714,4,1,0,90,0,1
78320,-71.4285714285714,4,1,0,81,0,0
78529,-83.33333,4,1,0,81,0,0
78549,-85.1063829787234,4,1,0,81,0,0
78773,-87.121216,4,1,0,81,0,0
78997,-89.147285,4,1,0,81,0,0
79221,-90.55118,4,1,0,81,0,0
79375,-91.269844,4,1,0,81,0,0
79504,-92,4,1,0,81,0,0
79579,-92.741936,4,1,0,81,0,0
79654,-93.49594,4,1,0,81,0,0
79674,-95.833336,4,1,0,81,0,0
79898,-98.290596,4,1,0,81,0,0
80270,-66.6666666666667,4,1,0,81,0,1
80720,-81.3008130081301,4,1,0,81,0,0
80930,-83.33333,4,1,0,81,0,0
80947,-85.1063829787234,4,1,0,81,0,0
81171,-87.121216,4,1,0,81,0,0
81400,-89.147285,4,1,0,81,0,0
81624,-90.55118,4,1,0,81,0,0
81773,-91.269844,4,1,0,81,0,0
81905,-92,4,1,0,81,0,0
81980,-92.741936,4,1,0,81,0,0
82055,-93.49594,4,1,0,81,0,0
82072,-95.833336,4,1,0,81,0,0
82296,-98.290596,4,1,0,81,0,0
82670,-50,4,1,0,81,0,1
83120,-81.3008130081301,4,1,0,81,0,0
83330,-83.33333,4,1,0,81,0,0
83517,-85.1063829787234,4,1,0,81,0,0
83780,-87.121216,4,1,0,81,0,0
84005,-89.147285,4,1,0,81,0,0
84155,-90.55118,4,1,0,81,0,0
84230,-91.269844,4,1,0,81,0,0
84305,-92,4,1,0,81,0,0
84380,-92.741936,4,1,0,81,0,0
84455,-93.49594,4,1,0,81,0,0
84680,-95.833336,4,1,0,81,0,0
84905,-98.290596,4,1,0,81,0,0
85070,-40,4,1,0,81,0,1
85520,-81.3008130081301,4,1,0,81,0,0
85730,-83.33333,4,1,0,81,0,0
85917,-85.1063829787234,4,1,0,81,0,0
86180,-87.121216,4,1,0,81,0,0
86405,-89.147285,4,1,0,81,0,0
86555,-90.55118,4,1,0,81,0,0
86630,-91.269844,4,1,0,81,0,0
86705,-92,4,1,0,81,0,0
86780,-92.741936,4,1,0,81,0,0
86854,-93.4579439252336,4,1,0,81,0,0
87079,-94.7867298578199,4,1,0,81,0,0
87304,-96.1538461538461,4,1,0,81,0,0
87529,-98.5221674876847,4,1,0,81,0,0

[HitObjects]
256,192,320,5,8,0:0:0:0:
256,192,395,1,8,0:0:0:0:
256,192,470,1,8,0:0:0:0:
256,192,545,1,8,0:0:0:0:
256,192,620,1,8,0:0:0:0:
256,192,695,1,8,0:0:0:0:
256,192,770,1,8,0:0:0:0:
256,192,845,1,8,0:0:0:0:
256,192,920,1,8,0:0:0:0:
256,192,995,1,8,0:0:0:0:
256,192,1070,1,8,0:0:0:0:
256,192,1145,1,8,0:0:0:0:
256,192,1220,1,8,0:0:0:0:
256,192,1295,1,8,0:0:0:0:
256,192,1370,1,8,0:0:0:0:
256,192,1445,1,8,0:0:0:0:
256,192,1520,1,8,0:0:0:0:
256,192,1595,1,8,0:0:0:0:
256,192,1670,1,8,0:0:0:0:
256,192,1745,1,8,0:0:0:0:
256,192,1820,1,8,0:0:0:0:
256,192,1895,1,8,0:0:0:0:
256,192,1970,1,8,0:0:0:0:
256,192,2045,1,8,0:0:0:0:
256,192,2120,1,8,0:0:0:0:
256,192,2195,1,8,0:0:0:0:
256,192,2270,1,8,0:0:0:0:
256,192,2345,1,8,0:0:0:0:
256,192,2420,1,8,0:0:0:0:
256,192,2720,5,4,0:0:0:0:
256,192,3020,1,8,0:0:0:0:
256,192,3095,1,8,0:0:0:0:
256,192,3170,1,0,0:0:0:0:
256,192,3320,1,8,0:0:0:0:
256,192,3470,1,0,0:0:0:0:
256,192,3545,1,0,0:0:0:0:
256,192,3620,1,8,0:0:0:0:
256,192,3695,1,0,0:0:0:0:
256,192,3770,1,8,0:0:0:0:
256,192,3920,1,0,0:0:0:0:
256,192,4070,1,8,0:0:0:0:
256,192,4145,1,8,0:0:0:0:
256,192,4220,1,0,0:0:0:0:
256,192,4370,1,8,0:0:0:0:
256,192,4445,1,0,0:0:0:0:
256,192,4520,1,0,0:0:0:0:
256,192,4670,1,8,0:0:0:0:
256,192,4745,1,0,0:0:0:0:
256,192,4820,1,8,0:0:0:0:
256,192,4895,1,8,0:0:0:0:
256,192,4970,1,0,0:0:0:0:
256,192,5045,1,0,0:0:0:0:
256,192,5120,1,12,0:0:0:0:
256,192,5420,1,0,0:0:0:0:
256,192,5570,1,8,0:0:0:0:
256,192,5720,1,0,0:0:0:0:
256,192,5795,1,8,0:0:0:0:
256,192,5870,1,0,0:0:0:0:
256,192,5945,1,0,0:0:0:0:
256,192,6020,1,8,0:0:0:0:
256,192,6170,1,0,0:0:0:0:
256,192,6470,1,8,0:0:0:0:
256,192,6545,1,0,0:0:0:0:
256,192,6620,1,0,0:0:0:0:
256,192,6770,1,8,0:0:0:0:
256,192,6845,1,0,0:0:0:0:
256,192,6920,1,8,0:0:0:0:
256,192,7070,1,0,0:0:0:0:
256,192,7145,1,0,0:0:0:0:
256,192,7220,1,8,0:0:0:0:
256,192,7295,1,8,0:0:0:0:
256,192,7370,1,8,0:0:0:0:
256,192,7445,1,8,0:0:0:0:
256,192,7520,1,4,0:0:0:0:
256,192,7820,1,8,0:0:0:0:
256,192,7895,1,8,0:0:0:0:
256,192,7970,1,0,0:0:0:0:
256,192,8120,1,8,0:0:0:0:
256,192,8270,1,0,0:0:0:0:
256,192,8345,1,0,0:0:0:0:
256,192,8420,1,8,0:0:0:0:
256,192,8495,1,8,0:0:0:0:
256,192,8570,1,0,0:0:0:0:
256,192,8720,1,8,0:0:0:0:
256,192,8870,1,0,0:0:0:0:
256,192,8945,1,0,0:0:0:0:
256,192,9020,1,8,0:0:0:0:
256,192,9170,1,0,0:0:0:0:
256,192,9245,1,8,0:0:0:0:
256,192,9320,1,8,0:0:0:0:
256,192,9470,1,0,0:0:0:0:
256,192,9545,1,8,0:0:0:0:
256,192,9620,1,0,0:0:0:0:
256,192,9695,1,0,0:0:0:0:
256,192,9770,1,8,0:0:0:0:
256,192,9845,1,8,0:0:0:0:
256,192,9920,1,4,0:0:0:0:
256,192,10220,1,8,0:0:0:0:
256,192,10370,1,0,0:0:0:0:
256,192,10520,1,8,0:0:0:0:
256,192,10595,1,0,0:0:0:0:
256,192,10670,1,0,0:0:0:0:
256,192,10745,1,0,0:0:0:0:
256,192,10820,1,8,0:0:0:0:
256,192,10970,1,0,0:0:0:0:
256,192,11270,1,8,0:0:0:0:
256,192,11345,1,8,0:0:0:0:
256,192,11420,1,0,0:0:0:0:
256,192,11570,1,8,0:0:0:0:
256,192,11645,1,0,0:0:0:0:
256,192,11720,1,0,0:0:0:0:
256,192,11870,1,8,0:0:0:0:
256,192,11945,1,0,0:0:0:0:
256,192,12020,1,8,0:0:0:0:
256,192,12095,1,8,0:0:0:0:
256,192,12170,1,8,0:0:0:0:
256,192,12245,1,8,0:0:0:0:
256,192,12320,1,4,0:0:0:0:
256,192,12620,1,8,0:0:0:0:
256,192,12770,1,8,0:0:0:0:
256,192,12920,1,0,0:0:0:0:
256,192,12995,1,0,0:0:0:0:
256,192,13070,1,0,0:0:0:0:
256,192,13220,1,8,0:0:0:0:
256,192,13370,1,0,0:0:0:0:
256,192,13670,1,0,0:0:0:0:
256,192,13820,1,8,0:0:0:0:
256,192,13970,1,0,0:0:0:0:
256,192,14045,1,0,0:0:0:0:
256,192,14120,1,8,0:0:0:0:
256,192,14270,1,0,0:0:0:0:
256,192,14420,1,8,0:0:0:0:
256,192,14495,1,8,0:0:0:0:
256,192,14570,1,8,0:0:0:0:
256,192,14645,1,8,0:0:0:0:
256,192,14720,1,0,0:0:0:0:
256,192,14870,1,8,0:0:0:0:
256,192,15020,1,0,0:0:0:0:
256,192,15170,1,0,0:0:0:0:
256,192,15320,1,8,0:0:0:0:
256,192,15395,1,0,0:0:0:0:
256,192,15470,1,8,0:0:0:0:
256,192,15620,1,0,0:0:0:0:
256,192,15770,1,0,0:0:0:0:
256,192,15920,1,8,0:0:0:0:
256,192,16070,1,0,0:0:0:0:
256,192,16145,1,0,0:0:0:0:
256,192,16220,1,8,0:0:0:0:
256,192,16295,1,8,0:0:0:0:
256,192,16370,1,0,0:0:0:0:
256,192,16670,1,0,0:0:0:0:
256,192,16820,1,8,0:0:0:0:
256,192,16895,1,8,0:0:0:0:
256,192,16970,1,8,0:0:0:0:
256,192,17045,1,8,0:0:0:0:
256,192,17120,1,0,0:0:0:0:
256,192,17420,1,0,0:0:0:0:
256,192,17570,1,0,0:0:0:0:
256,192,17720,1,8,0:0:0:0:
256,192,17795,1,8,0:0:0:0:
256,192,17870,1,8,0:0:0:0:
256,192,18020,1,0,0:0:0:0:
256,192,18170,1,8,0:0:0:0:
256,192,18470,1,8,0:0:0:0:
256,192,18620,1,8,0:0:0:0:
256,192,18770,1,0,0:0:0:0:
256,192,18845,1,8,0:0:0:0:
256,192,18920,1,0,0:0:0:0:
256,192,19070,1,0,0:0:0:0:
256,192,19220,1,8,0:0:0:0:
256,192,19295,1,8,0:0:0:0:
256,192,19370,1,8,0:0:0:0:
256,192,19445,1,8,0:0:0:0:
256,192,19520,1,0,0:0:0:0:
256,192,19670,1,8,0:0:0:0:
256,192,19820,1,0,0:0:0:0:
256,192,19970,1,8,0:0:0:0:
256,192,20120,1,0,0:0:0:0:
256,192,20195,1,0,0:0:0:0:
256,192,20270,1,8,0:0:0:0:
256,192,20345,1,0,0:0:0:0:
256,192,20420,1,0,0:0:0:0:
256,192,20570,1,8,0:0:0:0:
256,192,20720,1,0,0:0:0:0:
256,192,20795,1,0,0:0:0:0:
256,192,20870,1,8,0:0:0:0:
256,192,21020,1,0,0:0:0:0:
256,192,21170,1,8,0:0:0:0:
256,192,21470,1,0,0:0:0:0:
256,192,21620,1,8,0:0:0:0:
256,192,21695,1,8,0:0:0:0:
256,192,21770,1,8,0:0:0:0:
256,192,21845,1,8,0:0:0:0:
256,192,21920,1,0,0:0:0:0:
256,192,22220,1,0,0:0:0:0:
256,192,22370,1,8,0:0:0:0:
256,192,22445,1,8,0:0:0:0:
256,192,22520,1,0,0:0:0:0:
256,192,22670,1,8,0:0:0:0:
256,192,22970,1,0,0:0:0:0:
256,192,23120,1,8,0:0:0:0:
256,192,23270,1,0,0:0:0:0:
256,192,23345,1,0,0:0:0:0:
256,192,23420,1,8,0:0:0:0:
256,192,23570,1,0,0:0:0:0:
256,192,23870,1,0,0:0:0:0:
256,192,24020,1,8,0:0:0:0:
256,192,24095,1,8,0:0:0:0:
256,192,24170,1,8,0:0:0:0:
256,192,24245,1,8,0:0:0:0:
256,192,24320,1,0,0:0:0:0:
256,192,24620,1,8,0:0:0:0:
256,192,24770,1,0,0:0:0:0:
256,192,24845,1,0,0:0:0:0:
256,192,24920,1,0,0:0:0:0:
256,192,24995,1,8,0:0:0:0:
256,192,25070,1,0,0:0:0:0:
256,192,25220,1,8,0:0:0:0:
256,192,25370,1,0,0:0:0:0:
256,192,25520,1,8,0:0:0:0:
256,192,25670,1,8,0:0:0:0:
256,192,25970,1,0,0:0:0:0:
256,192,26045,1,0,0:0:0:0:
256,192,26120,1,8,0:0:0:0:
256,192,26270,1,0,0:0:0:0:
256,192,26420,1,8,0:0:0:0:
256,192,26495,1,8,0:0:0:0:
256,192,26570,1,8,0:0:0:0:
256,192,26645,1,8,0:0:0:0:
256,192,26720,1,0,0:0:0:0:
256,192,27020,1,8,0:0:0:0:
256,192,27170,1,0,0:0:0:0:
256,192,27245,1,8,0:0:0:0:
256,192,27320,1,0,0:0:0:0:
256,192,27470,1,8,0:0:0:0:
256,192,27620,1,0,0:0:0:0:
256,192,27770,1,8,0:0:0:0:
256,192,27845,1,8,0:0:0:0:
256,192,27920,1,0,0:0:0:0:
256,192,28070,1,8,0:0:0:0:
256,192,28220,1,0,0:0:0:0:
256,192,28370,1,0,0:0:0:0:
256,192,28520,1,8,0:0:0:0:
256,192,28670,1,0,0:0:0:0:
256,192,28820,1,8,0:0:0:0:
256,192,28895,1,8,0:0:0:0:
256,192,28970,1,8,0:0:0:0:
256,192,29045,1,8,0:0:0:0:
256,192,29120,1,0,0:0:0:0:
256,192,29420,1,8,0:0:0:0:
256,192,29570,1,8,0:0:0:0:
256,192,29720,1,0,0:0:0:0:
256,192,29795,1,0,0:0:0:0:
256,192,29870,1,8,0:0:0:0:
256,192,30020,1,0,0:0:0:0:
256,192,30170,1,8,0:0:0:0:
256,192,30470,1,8,0:0:0:0:
256,192,30620,1,0,0:0:0:0:
256,192,30770,1,8,0:0:0:0:
256,192,30845,1,8,0:0:0:0:
256,192,30920,1,8,0:0:0:0:
256,192,31070,1,0,0:0:0:0:
256,192,31220,1,8,0:0:0:0:
256,192,31295,1,8,0:0:0:0:
256,192,31370,1,8,0:0:0:0:
256,192,31445,1,8,0:0:0:0:
256,192,31520,1,0,0:0:0:0:
256,192,31670,1,8,0:0:0:0:
256,192,31820,1,0,0:0:0:0:
256,192,31970,1,8,0:0:0:0:
256,192,32120,1,0,0:0:0:0:
256,192,32195,1,8,0:0:0:0:
256,192,32270,1,0,0:0:0:0:
256,192,32420,1,8,0:0:0:0:
256,192,32570,1,8,0:0:0:0:
256,192,32645,1,8,0:0:0:0:
256,192,32720,1,0,0:0:0:0:
256,192,32870,1,8,0:0:0:0:
256,192,33020,1,0,0:0:0:0:
256,192,33095,1,0,0:0:0:0:
256,192,33170,1,8,0:0:0:0:
256,192,33245,1,0,0:0:0:0:
256,192,33320,1,8,0:0:0:0:
256,192,33470,1,0,0:0:0:0:
256,192,33620,1,8,0:0:0:0:
256,192,33695,1,8,0:0:0:0:
256,192,33770,1,8,0:0:0:0:
256,192,33845,1,8,0:0:0:0:
256,192,33920,1,0,0:0:0:0:
256,192,34220,1,8,0:0:0:0:
256,192,34370,1,0,0:0:0:0:
256,192,34520,1,8,0:0:0:0:
256,192,34595,1,8,0:0:0:0:
256,192,34670,1,0,0:0:0:0:
256,192,34820,1,8,0:0:0:0:
256,192,34970,1,8,0:0:0:0:
256,192,35270,1,0,0:0:0:0:
256,192,35420,1,8,0:0:0:0:
256,192,35570,1,0,0:0:0:0:
256,192,35645,1,0,0:0:0:0:
256,192,35720,1,0,0:0:0:0:
256,192,35870,1,0,0:0:0:0:
256,192,36020,1,8,0:0:0:0:
256,192,36095,1,8,0:0:0:0:
256,192,36170,1,8,0:0:0:0:
256,192,36245,1,8,0:0:0:0:
256,192,36320,1,0,0:0:0:0:
256,192,36470,1,8,0:0:0:0:
256,192,36620,1,8,0:0:0:0:
256,192,36770,1,0,0:0:0:0:
256,192,36920,1,8,0:0:0:0:
256,192,36995,1,8,0:0:0:0:
256,192,37070,1,0,0:0:0:0:
256,192,37145,1,8,0:0:0:0:
256,192,37220,1,8,0:0:0:0:
256,192,37370,1,0,0:0:0:0:
256,192,37520,1,8,0:0:0:0:
256,192,37595,1,8,0:0:0:0:
256,192,37670,1,0,0:0:0:0:
256,192,37820,1,0,0:0:0:0:
256,192,37970,1,8,0:0:0:0:
256,192,38270,1,0,0:0:0:0:
256,192,38420,1,8,0:0:0:0:
256,192,38495,1,8,0:0:0:0:
256,192,38570,1,8,0:0:0:0:
256,192,38645,1,8,0:0:0:0:
256,192,38720,1,0,0:0:0:0:
256,192,39020,1,0,0:0:0:0:
256,192,39170,1,8,0:0:0:0:
256,192,39320,1,0,0:0:0:0:
256,192,39395,1,0,0:0:0:0:
256,192,39470,1,8,0:0:0:0:
256,192,39620,1,0,0:0:0:0:
256,192,39770,1,8,0:0:0:0:
256,192,40070,1,8,0:0:0:0:
256,192,40220,1,0,0:0:0:0:
256,192,40295,1,8,0:0:0:0:
256,192,40370,1,0,0:0:0:0:
256,192,40520,1,8,0:0:0:0:
256,192,40670,1,0,0:0:0:0:
256,192,40820,1,8,0:0:0:0:
256,192,40895,1,8,0:0:0:0:
256,192,40970,1,8,0:0:0:0:
256,192,41045,1,8,0:0:0:0:
256,192,41120,1,0,0:0:0:0:
256,192,41420,1,8,0:0:0:0:
256,192,41570,1,0,0:0:0:0:
256,192,41645,1,8,0:0:0:0:
256,192,41720,1,0,0:0:0:0:
256,192,41795,1,0,0:0:0:0:
256,192,41870,1,0,0:0:0:0:
256,192,42020,1,8,0:0:0:0:
256,192,42170,1,8,0:0:0:0:
256,192,42320,1,0,0:0:0:0:
256,192,42470,1,0,0:0:0:0:
256,192,42620,1,8,0:0:0:0:
256,192,42770,1,0,0:0:0:0:
256,192,42845,1,0,0:0:0:0:
256,192,42920,1,8,0:0:0:0:
256,192,43070,1,0,0:0:0:0:
256,192,43220,1,8,0:0:0:0:
256,192,43295,1,8,0:0:0:0:
256,192,43370,1,8,0:0:0:0:
256,192,43445,1,8,0:0:0:0:
256,192,43520,1,0,0:0:0:0:
256,192,43820,1,0,0:0:0:0:
256,192,43970,1,8,0:0:0:0:
256,192,44045,1,8,0:0:0:0:
256,192,44120,1,0,0:0:0:0:
256,192,44270,1,8,0:0:0:0:
256,192,44420,1,8,0:0:0:0:
256,192,44570,1,0,0:0:0:0:
256,192,44645,1,0,0:0:0:0:
256,192,44720,1,8,0:0:0:0:
256,192,44870,1,0,0:0:0:0:
256,192,45020,1,8,0:0:0:0:
256,192,45170,1,0,0:0:0:0:
256,192,45245,1,8,0:0:0:0:
256,192,45320,1,0,0:0:0:0:
256,192,45470,1,8,0:0:0:0:
256,192,45620,1,8,0:0:0:0:
256,192,45695,1,8,0:0:0:0:
256,192,45770,1,8,0:0:0:0:
256,192,45845,1,8,0:0:0:0:
256,192,45920,1,0,0:0:0:0:
256,192,46220,1,8,0:0:0:0:
256,192,46370,1,8,0:0:0:0:
256,192,46520,1,0,0:0:0:0:
256,192,46670,1,8,0:0:0:0:
256,192,46820,1,0,0:0:0:0:
256,192,46970,1,0,0:0:0:0:
256,192,47120,1,8,0:0:0:0:
256,192,47270,1,0,0:0:0:0:
256,192,47420,1,8,0:0:0:0:
256,192,47570,1,0,0:0:0:0:
256,192,47720,1,8,0:0:0:0:
256,192,47870,1,0,0:0:0:0:
256,192,47945,1,0,0:0:0:0:
256,192,48020,1,8,0:0:0:0:
256,192,48170,1,8,0:0:0:0:
256,192,48320,1,4,0:0:0:0:
256,192,48620,1,8,0:0:0:0:
256,192,48770,1,0,0:0:0:0:
256,192,48845,1,0,0:0:0:0:
256,192,48920,1,8,0:0:0:0:
256,192,49220,1,8,0:0:0:0:
256,192,49370,1,0,0:0:0:0:
256,192,49445,1,8,0:0:0:0:
256,192,49520,1,0,0:0:0:0:
256,192,49670,1,8,0:0:0:0:
256,192,49745,1,8,0:0:0:0:
256,192,49820,1,0,0:0:0:0:
256,192,50120,1,0,0:0:0:0:
256,192,50270,1,0,0:0:0:0:
256,192,50420,1,8,0:0:0:0:
256,192,50570,1,8,0:0:0:0:
256,192,50720,1,0,0:0:0:0:
256,192,51020,1,0,0:0:0:0:
256,192,51170,1,8,0:0:0:0:
256,192,51320,1,0,0:0:0:0:
256,192,51470,1,8,0:0:0:0:
256,192,51770,1,8,0:0:0:0:
256,192,51920,1,0,0:0:0:0:
256,192,52220,1,8,0:0:0:0:
256,192,52370,1,8,0:0:0:0:
256,192,52520,1,0,0:0:0:0:
256,192,52670,1,8,0:0:0:0:
256,192,52820,1,0,0:0:0:0:
256,192,52970,1,0,0:0:0:0:
256,192,53120,1,12,0:0:0:0:
256,192,53420,1,8,0:0:0:0:
256,192,53495,1,8,0:0:0:0:
256,192,53570,1,0,0:0:0:0:
256,192,53720,1,8,0:0:0:0:
256,192,53870,1,0,0:0:0:0:
256,192,54020,1,8,0:0:0:0:
256,192,54095,1,0,0:0:0:0:
256,192,54170,1,8,0:0:0:0:
256,192,54320,1,0,0:0:0:0:
256,192,54470,1,8,0:0:0:0:
256,192,54770,1,0,0:0:0:0:
256,192,54845,1,0,0:0:0:0:
256,192,54920,1,8,0:0:0:0:
256,192,54995,1,8,0:0:0:0:
256,192,55070,1,0,0:0:0:0:
256,192,55220,1,8,0:0:0:0:
256,192,55370,1,0,0:0:0:0:
256,192,55520,1,8,0:0:0:0:
256,192,55595,1,0,0:0:0:0:
256,192,55670,1,0,0:0:0:0:
256,192,55820,1,8,0:0:0:0:
256,192,55970,1,0,0:0:0:0:
256,192,56120,1,8,0:0:0:0:
256,192,56195,1,0,0:0:0:0:
256,192,56270,1,8,0:0:0:0:
256,192,56420,1,0,0:0:0:0:
256,192,56570,1,0,0:0:0:0:
256,192,56720,1,8,0:0:0:0:
256,192,56795,1,8,0:0:0:0:
256,192,56870,1,8,0:0:0:0:
256,192,56945,1,8,0:0:0:0:
256,192,57020,1,0,0:0:0:0:
256,192,57095,1,0,0:0:0:0:
256,192,57170,1,0,0:0:0:0:
256,192,57245,1,0,0:0:0:0:
256,192,57320,1,8,0:0:0:0:
256,192,57395,1,8,0:0:0:0:
256,192,57470,1,0,0:0:0:0:
256,192,57545,1,0,0:0:0:0:
256,192,57620,1,8,0:0:0:0:
256,192,57695,1,8,0:0:0:0:
256,192,57770,1,0,0:0:0:0:
256,192,57845,1,0,0:0:0:0:
256,192,57920,1,8,0:0:0:0:
256,192,57995,1,0,0:0:0:0:
256,192,58070,1,8,0:0:0:0:
256,192,58145,1,8,0:0:0:0:
256,192,58220,1,0,0:0:0:0:
256,192,58295,1,0,0:0:0:0:
256,192,58370,1,8,0:0:0:0:
256,192,58445,1,0,0:0:0:0:
256,192,58520,1,12,0:0:0:0:
256,192,59120,1,12,0:0:0:0:
256,192,59420,1,0,0:0:0:0:
256,192,59495,1,0,0:0:0:0:
256,192,59570,1,8,0:0:0:0:
256,192,59645,1,0,0:0:0:0:
256,192,59720,1,8,0:0:0:0:
256,192,59795,1,8,0:0:0:0:
256,192,59870,1,0,0:0:0:0:
256,192,60020,1,8,0:0:0:0:
256,192,60170,1,0,0:0:0:0:
256,192,60245,1,0,0:0:0:0:
256,192,60320,1,8,0:0:0:0:
256,192,60470,1,0,0:0:0:0:
256,192,60620,1,8,0:0:0:0:
256,192,60695,1,0,0:0:0:0:
256,192,60770,1,8,0:0:0:0:
256,192,60845,1,8,0:0:0:0:
256,192,60920,1,0,0:0:0:0:
256,192,61070,1,8,0:0:0:0:
256,192,61220,1,0,0:0:0:0:
256,192,61370,1,0,0:0:0:0:
256,192,61520,1,8,0:0:0:0:
256,192,61595,1,8,0:0:0:0:
256,192,61670,1,0,0:0:0:0:
256,192,61745,1,0,0:0:0:0:
256,192,61820,1,8,0:0:0:0:
256,192,61895,1,0,0:0:0:0:
256,192,61970,1,8,0:0:0:0:
256,192,62045,1,8,0:0:0:0:
256,192,62120,1,0,0:0:0:0:
256,192,62270,1,8,0:0:0:0:
256,192,62345,1,0,0:0:0:0:
256,192,62420,1,0,0:0:0:0:
256,192,62495,1,0,0:0:0:0:
256,192,62570,1,8,0:0:0:0:
256,192,62720,1,8,0:0:0:0:
256,192,62870,1,0,0:0:0:0:
256,192,62945,1,8,0:0:0:0:
256,192,63020,1,8,0:0:0:0:
256,192,63170,1,0,0:0:0:0:
256,192,63320,1,8,0:0:0:0:
256,192,63545,1,0,0:0:0:0:
256,192,63620,1,8,0:0:0:0:
256,192,63770,1,0,0:0:0:0:
256,192,63920,1,12,0:0:0:0:
256,192,64220,1,0,0:0:0:0:
256,192,64295,1,0,0:0:0:0:
256,192,64370,1,8,0:0:0:0:
256,192,64445,1,0,0:0:0:0:
256,192,64520,1,8,0:0:0:0:
256,192,64595,1,8,0:0:0:0:
256,192,64670,1,0,0:0:0:0:
256,192,64820,1,8,0:0:0:0:
256,192,64970,1,0,0:0:0:0:
256,192,65045,1,0,0:0:0:0:
256,192,65120,1,8,0:0:0:0:
256,192,65270,1,0,0:0:0:0:
256,192,65420,1,8,0:0:0:0:
256,192,65495,1,8,0:0:0:0:
256,192,65570,1,0,0:0:0:0:
256,192,65720,1,8,0:0:0:0:
256,192,65870,1,0,0:0:0:0:
256,192,65945,1,0,0:0:0:0:
256,192,66020,1,8,0:0:0:0:
256,192,66095,1,8,0:0:0:0:
256,192,66170,1,0,0:0:0:0:
256,192,66320,1,8,0:0:0:0:
256,192,66470,1,0,0:0:0:0:
256,192,66545,1,0,0:0:0:0:
256,192,66620,1,8,0:0:0:0:
256,192,66695,1,8,0:0:0:0:
256,192,66770,1,0,0:0:0:0:
256,192,66845,1,8,0:0:0:0:
256,192,66920,1,0,0:0:0:0:
256,192,66995,1,0,0:0:0:0:
256,192,67070,1,8,0:0:0:0:
256,192,67145,1,8,0:0:0:0:
256,192,67220,1,0,0:0:0:0:
256,192,67370,1,8,0:0:0:0:
256,192,67520,1,0,0:0:0:0:
256,192,67670,1,8,0:0:0:0:
256,192,67745,1,8,0:0:0:0:
256,192,67820,1,0,0:0:0:0:
256,192,67970,1,8,0:0:0:0:
256,192,68120,1,8,0:0:0:0:
256,192,68270,1,0,0:0:0:0:
256,192,68420,1,8,0:0:0:0:
256,192,68570,1,0,0:0:0:0:
256,192,68720,1,12,0:0:0:0:
256,192,69020,1,0,0:0:0:0:
256,192,69170,1,8,0:0:0:0:
256,192,69320,1,0,0:0:0:0:
256,192,69395,1,0,0:0:0:0:
256,192,69470,1,8,0:0:0:0:
256,192,69545,1,0,0:0:0:0:
256,192,69620,1,8,0:0:0:0:
256,192,69770,1,0,0:0:0:0:
256,192,69845,1,0,0:0:0:0:
256,192,69920,1,8,0:0:0:0:
256,192,70070,1,0,0:0:0:0:
256,192,70220,1,8,0:0:0:0:
256,192,70370,1,0,0:0:0:0:
256,192,70445,1,0,0:0:0:0:
256,192,70520,1,8,0:0:0:0:
256,192,70595,1,8,0:0:0:0:
256,192,70670,1,0,0:0:0:0:
256,192,70820,1,8,0:0:0:0:
256,192,70970,1,0,0:0:0:0:
256,192,71120,1,8,0:0:0:0:
256,192,71195,1,8,0:0:0:0:
256,192,71270,1,0,0:0:0:0:
256,192,71420,1,0,0:0:0:0:
256,192,71570,1,8,0:0:0:0:
256,192,71645,1,0,0:0:0:0:
256,192,71720,1,0,0:0:0:0:
256,192,71870,1,8,0:0:0:0:
256,192,71945,1,0,0:0:0:0:
256,192,72020,1,8,0:0:0:0:
256,192,72095,1,8,0:0:0:0:
256,192,72170,1,0,0:0:0:0:
256,192,72320,1,8,0:0:0:0:
256,192,72470,1,0,0:0:0:0:
256,192,72620,1,8,0:0:0:0:
256,192,72770,1,8,0:0:0:0:
256,192,72920,1,0,0:0:0:0:
256,192,72995,1,0,0:0:0:0:
256,192,73070,1,8,0:0:0:0:
256,192,73220,1,0,0:0:0:0:
256,192,73370,1,0,0:0:0:0:
256,192,73520,1,12,0:0:0:0:
256,192,73820,1,0,0:0:0:0:
256,192,73970,1,8,0:0:0:0:
256,192,74120,1,0,0:0:0:0:
256,192,74195,1,8,0:0:0:0:
256,192,74270,1,0,0:0:0:0:
256,192,74345,1,0,0:0:0:0:
256,192,74420,1,8,0:0:0:0:
256,192,74570,1,0,0:0:0:0:
256,192,74645,1,8,0:0:0:0:
256,192,74720,1,0,0:0:0:0:
256,192,74870,1,8,0:0:0:0:
256,192,75020,1,8,0:0:0:0:
256,192,75170,1,0,0:0:0:0:
256,192,75245,1,0,0:0:0:0:
256,192,75320,1,8,0:0:0:0:
256,192,75395,1,0,0:0:0:0:
256,192,75470,1,0,0:0:0:0:
256,192,75620,1,8,0:0:0:0:
256,192,75770,1,0,0:0:0:0:
256,192,75920,1,8,0:0:0:0:
256,192,75995,1,8,0:0:0:0:
256,192,76070,1,0,0:0:0:0:
256,192,76145,1,0,0:0:0:0:
256,192,76220,1,8,0:0:0:0:
256,192,76370,1,8,0:0:0:0:
256,192,76445,1,8,0:0:0:0:
256,192,76520,1,0,0:0:0:0:
256,192,76595,1,0,0:0:0:0:
256,192,76670,1,0,0:0:0:0:
256,192,76820,1,8,0:0:0:0:
256,192,76970,1,8,0:0:0:0:
256,192,77120,1,0,0:0:0:0:
256,192,77420,1,8,0:0:0:0:
256,192,77495,1,8,0:0:0:0:
256,192,77570,1,8,0:0:0:0:
256,192,77645,1,8,0:0:0:0:
256,192,77720,1,8,0:0:0:0:
256,192,77795,1,8,0:0:0:0:
256,192,77870,1,8,0:0:0:0:
256,192,77945,1,8,0:0:0:0:
256,192,78020,1,8,0:0:0:0:
256,192,78095,1,8,0:0:0:0:
256,192,78170,1,8,0:0:0:0:
256,192,78245,1,8,0:0:0:0:
256,192,78320,1,8,0:0:0:0:
256,192,78545,1,0,0:0:0:0:
256,192,78770,1,8,0:0:0:0:
256,192,78995,1,0,0:0:0:0:
256,192,79220,1,8,0:0:0:0:
256,192,79370,1,0,0:0:0:0:
256,192,79445,1,8,0:0:0:0:
256,192,79595,1,8,0:0:0:0:
256,192,79670,1,0,0:0:0:0:
256,192,79895,1,0,0:0:0:0:
256,192,80120,1,8,0:0:0:0:
256,192,80270,1,4,0:0:0:0:
256,192,80720,1,8,0:0:0:0:
256,192,80945,1,0,0:0:0:0:
256,192,81170,1,10,0:0:0:0:
256,192,81395,1,0,0:0:0:0:
256,192,81620,1,0,0:0:0:0:
256,192,81770,1,8,0:0:0:0:
256,192,81845,1,8,0:0:0:0:
256,192,81995,1,0,0:0:0:0:
256,192,82070,1,8,0:0:0:0:
256,192,82295,1,0,0:0:0:0:
256,192,82520,1,8,0:0:0:0:
256,192,82670,1,4,0:0:0:0:
256,192,83120,1,0,0:0:0:0:
256,192,83345,1,0,0:0:0:0:
256,192,83570,1,10,0:0:0:0:
256,192,83795,1,0,0:0:0:0:
256,192,84020,1,8,0:0:0:0:
256,192,84170,1,0,0:0:0:0:
256,192,84245,1,0,0:0:0:0:
256,192,84395,1,8,0:0:0:0:
256,192,84470,1,0,0:0:0:0:
256,192,84695,1,8,0:0:0:0:
256,192,84920,1,0,0:0:0:0:
256,192,85070,1,4,0:0:0:0:
256,192,85520,1,0,0:0:0:0:
256,192,85745,1,0,0:0:0:0:
256,192,85970,1,10,0:0:0:0:
256,192,86195,1,0,0:0:0:0:
256,192,86420,1,0,0:0:0:0:
256,192,86570,1,0,0:0:0:0:
256,192,86645,1,8,0:0:0:0:
256,192,86795,1,8,0:0:0:0:
256,192,86870,1,0,0:0:0:0:
256,192,87095,1,8,0:0:0:0:
256,192,87320,1,8,0:0:0:0:
256,192,87545,1,4,0:0:0:0:
