osu file format v14

[General]
AudioFilename: audio.mp3
AudioLeadIn: 0
PreviewTime: 59045
Countdown: 0
SampleSet: Normal
StackLeniency: 0.7
Mode: 1
LetterboxInBreaks: 0
WidescreenStoryboard: 1

[Editor]
Bookmarks: 320,2720,12320
DistanceSpacing: 0.1
BeatDivisor: 4
GridSize: 32
TimelineZoom: 1.8

[Metadata]
Title:Tablet (TV Size)
TitleUnicode:錠剤 (TV Size)
Artist:TOOBOE
ArtistUnicode:TOOBOE
Creator:gaston_2199
Version:ACETICKE'S KANTAN FIEND
Source:チェンソーマン
Tags:Chainsaw Man chainsawman csm MAPPA john Jouzai anime ending ed 4 four japanese pop jpop j-pop rock jrock j-rock Hivie Kibitz hac aceticke meiqth
BeatmapID:3865759
BeatmapSetID:1877477

[Difficulty]
HPDrainRate:8
CircleSize:2
OverallDifficulty:3
ApproachRate:10
SliderMultiplier:1.4
SliderTickRate:1

[Events]
//Background and Video events
0,0,"aceticke bg.jpg",0,0
Video,-64,"TaikoVideo.mp4"
//Break Periods
//Storyboard Layer 0 (Background)
//Storyboard Layer 1 (Fail)
//Storyboard Layer 2 (Pass)
//Storyboard Layer 3 (Foreground)
//Storyboard Layer 4 (Overlay)
//Storyboard Sound Samples

[TimingPoints]
320,300,4,1,0,80,1,0
320,-100,4,1,0,80,0,1
2420,-100,4,1,0,80,0,0
59120,-100,4,1,0,80,0,1
77120,-100,4,1,0,80,0,0
77420,-100,4,1,0,80,0,1
78320,-100,4,1,0,80,0,0

[HitObjects]
272,193,320,6,0,L|192:192,14,70
256,192,2720,1,0,0:0:0:0:
256,192,3770,1,8,0:0:0:0:
256,192,4070,1,0,0:0:0:0:
256,192,4370,1,8,0:0:0:0:
256,192,5120,1,0,0:0:0:0:
256,192,5720,1,8,0:0:0:0:
256,192,6170,1,0,0:0:0:0:
256,192,6470,1,8,0:0:0:0:
256,192,6770,1,8,0:0:0:0:
256,192,7520,1,8,0:0:0:0:
256,192,8570,1,8,0:0:0:0:
256,192,8870,1,8,0:0:0:0:
256,192,9170,1,0,0:0:0:0:
256,192,9920,1,0,0:0:0:0:
256,192,10520,1,8,0:0:0:0:
256,192,10970,1,0,0:0:0:0:
256,192,11270,1,8,0:0:0:0:
256,192,11570,1,0,0:0:0:0:
256,192,12320,1,0,0:0:0:0:
256,192,13370,1,8,0:0:0:0:
256,192,13670,1,0,0:0:0:0:
256,192,13970,1,8,0:0:0:0:
256,192,14570,1,0,0:0:0:0:
256,192,15320,1,0,0:0:0:0:
256,192,15920,1,8,0:0:0:0:
256,192,16370,1,0,0:0:0:0:
256,192,17120,1,0,0:0:0:0:
256,192,18170,1,8,0:0:0:0:
256,192,18470,1,0,0:0:0:0:
256,192,18770,1,8,0:0:0:0:
256,192,19370,1,8,0:0:0:0:
256,192,20120,1,0,0:0:0:0:
256,192,20720,1,8,0:0:0:0:
256,192,21170,1,0,0:0:0:0:
256,192,21920,1,8,0:0:0:0:
256,192,22520,1,0,0:0:0:0:
256,192,22970,1,8,0:0:0:0:
256,192,23270,1,0,0:0:0:0:
256,192,23570,1,0,0:0:0:0:
256,192,24320,1,8,0:0:0:0:
256,192,25370,1,0,0:0:0:0:
256,192,26120,1,0,0:0:0:0:
256,192,26570,1,8,0:0:0:0:
256,192,27170,1,0,0:0:0:0:
256,192,27770,1,8,0:0:0:0:
256,192,28820,1,0,0:0:0:0:
256,192,29120,1,8,0:0:0:0:
256,192,29720,1,0,0:0:0:0:
256,192,30170,1,8,0:0:0:0:
256,192,30470,1,8,0:0:0:0:
256,192,30770,1,0,0:0:0:0:
256,192,31370,1,8,0:0:0:0:
256,192,32120,1,0,0:0:0:0:
256,192,32720,1,8,0:0:0:0:
256,192,33170,1,0,0:0:0:0:
256,192,33920,1,8,0:0:0:0:
256,192,34970,1,0,0:0:0:0:
256,192,35270,1,8,0:0:0:0:
256,192,35570,1,0,0:0:0:0:
256,192,36170,1,8,0:0:0:0:
256,192,36920,1,0,0:0:0:0:
256,192,37670,1,8,0:0:0:0:
256,192,37970,1,0,0:0:0:0:
256,192,38720,1,8,0:0:0:0:
256,192,39320,1,0,0:0:0:0:
256,192,39770,1,8,0:0:0:0:
256,192,40220,1,0,0:0:0:0:
256,192,40520,1,8,0:0:0:0:
256,192,40820,1,0,0:0:0:0:
256,192,41120,1,8,0:0:0:0:
256,192,41570,1,0,0:0:0:0:
256,192,42320,1,8,0:0:0:0:
256,192,42920,1,8,0:0:0:0:
256,192,43370,1,0,0:0:0:0:
256,192,43970,1,0,0:0:0:0:
256,192,44570,1,8,0:0:0:0:
256,192,45170,1,0,0:0:0:0:
256,192,45770,1,0,0:0:0:0:
256,192,46820,1,0,0:0:0:0:
256,192,47120,1,8,0:0:0:0:
256,192,47720,1,8,0:0:0:0:
256,192,48020,1,0,0:0:0:0:
256,192,48320,1,8,0:0:0:0:
256,192,48920,1,0,0:0:0:0:
256,192,49370,1,0,0:0:0:0:
256,192,50120,1,8,0:0:0:0:
256,192,50420,1,0,0:0:0:0:
256,192,50720,1,8,0:0:0:0:
256,192,51320,1,0,0:0:0:0:
256,192,51770,1,8,0:0:0:0:
256,192,52820,1,0,0:0:0:0:
256,192,53120,1,8,0:0:0:0:
256,192,53720,1,0,0:0:0:0:
256,192,54170,1,8,0:0:0:0:
256,192,54470,1,0,0:0:0:0:
256,192,54770,1,8,0:0:0:0:
256,192,55220,1,8,0:0:0:0:
256,192,55520,1,0,0:0:0:0:
256,192,56120,1,0,0:0:0:0:
256,192,56720,1,8,0:0:0:0:
256,192,57920,1,0,0:0:0:0:
256,192,58520,1,8,0:0:0:0:
256,192,59120,1,0,0:0:0:0:
256,192,59720,1,8,0:0:0:0:
256,192,60320,1,0,0:0:0:0:
256,192,60770,1,8,0:0:0:0:
256,192,61070,1,0,0:0:0:0:
256,192,61520,1,0,0:0:0:0:
256,192,62120,1,8,0:0:0:0:
256,192,62720,1,0,0:0:0:0:
256,192,63020,1,0,0:0:0:0:
256,192,63320,1,8,0:0:0:0:
256,192,63920,1,0,0:0:0:0:
256,192,64520,1,8,0:0:0:0:
256,192,65120,1,0,0:0:0:0:
256,192,65570,1,8,0:0:0:0:
256,192,65870,1,0,0:0:0:0:
256,192,66320,1,0,0:0:0:0:
256,192,66920,1,0,0:0:0:0:
256,192,67220,1,8,0:0:0:0:
256,192,67520,1,8,0:0:0:0:
256,192,68420,1,0,0:0:0:0:
256,192,68720,1,8,0:0:0:0:
256,192,69320,1,0,0:0:0:0:
256,192,69770,1,8,0:0:0:0:
256,192,70070,1,8,0:0:0:0:
256,192,70370,1,0,0:0:0:0:
256,192,70820,1,0,0:0:0:0:
256,192,71120,1,8,0:0:0:0:
256,192,71570,1,0,0:0:0:0:
256,192,72170,1,8,0:0:0:0:
256,192,73520,1,0,0:0:0:0:
256,192,74120,1,8,0:0:0:0:
256,192,74570,1,0,0:0:0:0:
256,192,74870,1,8,0:0:0:0:
256,192,75170,1,0,0:0:0:0:
244,175,75620,1,8,0:0:0:0:
256,192,75920,1,0,0:0:0:0:
256,192,76370,1,8,0:0:0:0:
256,192,77420,2,0,L|192:192,12,35
256,192,78770,1,8,0:0:0:0:
256,192,79220,1,0,0:0:0:0:
256,192,79670,1,8,0:0:0:0:
256,192,80120,1,0,0:0:0:0:
256,192,80720,1,8,0:0:0:0:
256,192,81170,1,0,0:0:0:0:
256,192,81620,1,8,0:0:0:0:
256,192,82070,1,0,0:0:0:0:
256,192,82520,1,8,0:0:0:0:
256,192,83120,1,0,0:0:0:0:
256,192,83570,1,8,0:0:0:0:
256,192,84020,1,0,0:0:0:0:
256,192,84470,1,8,0:0:0:0:
256,192,84920,1,0,0:0:0:0:
256,192,85520,1,8,0:0:0:0:
256,192,85970,1,0,0:0:0:0:
256,192,86420,1,8,0:0:0:0:
256,192,86870,1,0,0:0:0:0:
256,192,87320,1,0,0:0:0:0:
256,192,87545,1,0,0:0:0:0:
