osu file format v14

[General]
AudioFilename: audio.mp3
AudioLeadIn: 0
PreviewTime: 47557
Countdown: 0
SampleSet: Normal
StackLeniency: 0.3
Mode: 0
LetterboxInBreaks: 0
WidescreenStoryboard: 0

[Editor]
DistanceSpacing: 2
BeatDivisor: 4
GridSize: 4
TimelineZoom: 1.7

[Metadata]
Title:LANA - Kiroku no Kakera -
TitleUnicode:LANA - キロクノカケラ -
Artist:TOMOSUKE x Jazzin'park
ArtistUnicode:TOMOSUKE×Jazzin'park
Creator:ailv
Version:Hiding
Source:jubeat saucer
Tags:村上来渚 murakami rana Anxient Nerova Riuz GX
BeatmapID:1221610
BeatmapSetID:577119

[Difficulty]
HPDrainRate:5.5
CircleSize:4.5
OverallDifficulty:7
ApproachRate:9
SliderMultiplier:1.8
SliderTickRate:1

[Events]
//Background and Video events
0,0,"04HI0Nb.jpg",0,0
//Break Periods
//Storyboard Layer 0 (Background)
//Storyboard Layer 1 (Fail)
//Storyboard Layer 2 (Pass)
//Storyboard Layer 3 (Foreground)
//Storyboard Sound Samples

[TimingPoints]
2198,714.285714285714,4,2,51,45,1,0
13626,-125,4,2,51,50,0,0
35055,-100,4,2,51,50,0,0
36580,714.285714285714,4,2,51,60,1,0
36580,-83.3333333333333,4,2,51,60,0,0
44080,-100,4,2,51,60,0,0
48000,357.142857142857,4,1,51,80,1,1
48000,-83.3333333333333,4,1,51,80,0,1
69428,-76.9230769230769,4,1,51,80,0,1
70857,-100,4,1,51,80,0,0

[Colours]
Combo1 : 74,134,255
Combo2 : 158,138,229

[HitObjects]
104,56,13269,5,4,0:0:0:0:
77,125,13447,1,0,0:0:0:0:
122,182,13626,2,0,L|170:180,1,36,2|0,0:0|0:0,0:0:0:0:
232,148,13983,1,0,0:0:0:0:
288,211,14162,1,2,0:0:0:0:
288,211,14340,2,0,L|440:202,1,144,8|4,0:0|0:0,0:0:0:0:
432,203,16126,5,4,0:0:0:0:
464,271,16304,1,0,0:0:0:0:
426,335,16483,2,0,L|328:329,1,72,2|0,0:0|0:0,0:0:0:0:
293,288,17019,2,0,L|222:293,1,72,2|0,0:0|0:0,0:0:0:0:
158,339,17555,1,4,0:0:0:0:
158,339,18983,5,4,0:0:0:0:
221,293,19162,1,0,0:0:0:0:
212,217,19340,2,0,P|170:208|126:214,1,72,2|0,0:0|0:0,0:0:0:0:
70,243,19876,1,2,0:0:0:0:
70,243,20055,2,0,P|22:245|35:150,1,144,8|0,0:0|0:0,0:0:0:0:
7,165,21840,6,0,L|64:162,1,36,4|0,0:0|0:0,0:0:0:0:
112,121,22197,2,0,L|219:126,1,108,2|2,0:0|0:0,0:0:0:0:
293,167,22912,1,8,0:0:0:0:
293,167,23090,2,0,L|395:161,1,72,0|0,0:0|0:0,0:0:0:0:
429,211,23626,1,0,0:0:0:0:
429,211,23805,2,0,P|418:274|426:309,1,72,2|0,0:0|0:0,0:0:0:0:
418,281,25055,6,0,L|417:213,1,36,2|0,0:0|0:0,0:0:0:0:
465,184,25412,2,0,L|466:116,1,36,4|2,0:0|0:0,0:0:0:0:
446,81,25769,1,8,0:0:0:0:
392,39,25947,1,0,0:0:0:0:
324,55,26126,1,4,0:0:0:0:
268,97,26305,2,0,L|156:91,1,108,0|4,0:0|0:0,0:0:0:0:
160,91,27733,5,0,0:0:0:0:
160,91,27912,2,0,L|261:85,1,72,2|4,0:0|0:0,0:0:0:0:
295,44,28447,2,0,L|366:47,1,72,2|0,0:0|0:0,0:0:0:0:
436,20,28983,1,4,0:0:0:0:
475,80,29162,1,0,0:0:0:0:
438,144,29340,1,0,0:0:0:0:
438,144,29519,2,0,L|431:268,1,108,0|8,0:0|0:0,0:0:0:0:
432,251,30412,5,4,0:0:0:0:
375,293,30590,1,0,0:0:0:0:
303,285,30769,2,0,P|269:281|233:266,1,72,2|4,0:0|0:0,0:0:0:0:
193,203,31305,2,0,P|197:169|211:133,1,72,2|0,0:0|0:0,0:0:0:0:
278,95,31840,5,4,0:0:0:0:
210,133,32019,1,0,0:0:0:0:
158,72,32197,2,0,L|79:74,1,72,2|0,0:0|0:0,0:0:0:0:
37,134,32733,2,0,L|35:205,1,72,2|0,0:0|0:0,0:0:0:0:
86,260,33269,5,4,0:0:0:0:
156,226,33447,1,0,0:0:0:0:
211,281,33626,2,0,L|251:279,1,36,2|0,0:0|0:0,0:0:0:0:
316,314,33983,1,0,0:0:0:0:
315,313,34162,2,0,L|355:314,1,36,2|8,0:0|0:0,0:0:0:0:
394,247,34519,2,0,L|297:242,1,72
287,172,35055,6,0,L|289:127,1,45
193,84,35413,2,0,L|195:161,1,45,2|0,0:0|0:0,0:0:0:0:
114,203,35769,2,0,L|116:158,2,45,8|0|4,0:0|0:0|0:0,0:0:0:0:
114,203,36580,6,0,L|57:217,2,53.9999983520508,4|0|0,0:0|0:0|0:0,0:0:0:0:
218,264,37115,1,2,0:0:0:0:
180,375,37294,1,8,0:0:0:0:
79,302,37472,2,0,L|132:290,1,53.9999983520508
276,349,37830,6,0,L|317:306,1,53.9999983520508,2|4,0:0|0:0,0:0:0:0:
452,300,38187,2,0,L|394:285,1,53.9999983520508,0|4,0:0|0:0,0:0:0:0:
322,171,38544,2,0,L|338:228,1,53.9999983520508,0|8,0:0|0:0,0:0:0:0:
366,80,38902,5,0,0:0:0:0:
251,87,39080,2,0,L|197:90,1,53.9999983520508,2|0,0:0|0:0,0:0:0:0:
20,64,39437,5,4,0:0:0:0:
42,160,39615,2,0,L|56:234,1,53.9999983520508
161,233,39972,1,2,0:0:0:0:
134,369,40151,1,0,0:0:0:0:
34,304,40330,2,0,L|116:288,1,53.9999983520508
303,288,40687,5,2,0:0:0:0:
303,288,40776,1,0,0:0:0:0:
303,288,40865,2,0,L|310:351,1,53.9999983520508,4|0,0:0|0:0,0:0:0:0:
383,185,41222,2,0,L|377:238,1,53.9999983520508,4|0,0:0|0:0,0:0:0:0:
473,146,41580,5,8,0:0:0:0:
473,146,41669,1,0,0:0:0:0:
473,146,41758,1,0,0:0:0:0:
376,99,41937,1,0,0:0:0:0:
465,38,42115,1,0,0:0:0:0:
279,51,42294,6,0,L|193:39,1,53.9999983520508,0|0,0:0|0:0,0:0:0:0:
119,140,42651,1,0,0:0:0:0:
264,166,42830,1,0,0:0:0:0:
210,28,43008,1,0,0:0:0:0:
106,160,43187,6,0,L|98:225,1,53.9999983520508,0|0,0:0|0:0,0:0:0:0:
210,50,43544,1,0,0:0:0:0:
265,185,43722,6,0,L|273:268,1,53.9999983520508,0|0,0:0|0:0,0:0:0:0:
340,161,44080,2,0,P|274:107|197:145,1,180,0|0,0:0|0:0,0:0:0:0:
154,297,45151,5,2,0:0:0:0:
154,297,45687,1,0,0:0:0:0:
256,192,46401,12,0,47651,0:0:0:0:
470,189,48000,6,0,B|354:141|363:240|239:174,1,215.999993408203,4|8,0:0|0:0,0:0:0:0:
177,133,48536,1,0,3:0:0:0:
164,157,48625,1,0,0:0:0:0:
160,183,48714,1,0,3:0:0:0:
162,210,48803,1,0,0:0:0:0:
173,234,48893,1,4,0:0:0:0:
262,185,49071,5,8,0:0:0:0:
106,84,49250,1,0,0:0:0:0:
83,108,49339,1,0,0:0:0:0:
66,136,49428,2,0,P|57:215|62:242,1,107.999996704102,4|0,0:0|0:0,0:0:0:0:
205,384,49785,2,0,P|213:304|208:277,1,107.999996704102,8|0,0:0|3:0,0:0:0:0:
171,71,50142,5,0,3:0:0:0:
171,71,50231,1,0,0:0:0:0:
171,71,50320,1,4,0:0:0:0:
317,142,50500,1,8,0:0:0:0:
157,209,50678,1,0,0:0:0:0:
157,209,50767,1,0,0:0:0:0:
157,209,50857,6,0,B|266:172|259:258|367:217,1,215.999993408203,4|8,0:0|0:0,0:0:0:0:
458,162,51392,1,0,3:0:0:0:
471,185,51481,1,0,0:0:0:0:
476,211,51570,1,0,3:0:0:0:
474,238,51659,1,0,0:0:0:0:
463,263,51749,1,4,0:0:0:0:
317,142,51928,5,8,0:0:0:0:
386,42,52107,1,0,0:0:0:0:
463,263,52285,5,4,0:0:0:0:
331,231,52464,1,0,0:0:0:0:
331,231,52553,1,0,0:0:0:0:
331,231,52642,1,8,0:0:0:0:
210,125,52821,5,0,3:0:0:0:
200,100,52910,1,0,0:0:0:0:
197,73,52999,1,0,3:0:0:0:
201,46,53088,1,0,0:0:0:0:
213,22,53178,1,4,0:0:0:0:
345,124,53357,2,0,L|330:239,1,107.999996704102,8|0,0:0|0:0,0:0:0:0:
432,286,53714,6,0,P|333:255|257:346,1,215.999993408203,4|8,0:0|0:0,0:0:0:0:
166,381,54250,1,0,0:0:0:0:
160,363,54339,1,0,0:0:0:0:
159,345,54429,1,0,3:0:0:0:
160,327,54518,1,0,0:0:0:0:
165,309,54607,1,4,0:0:0:0:
273,191,54785,5,8,0:0:0:0:
484,282,54964,2,0,L|413:285,1,53.9999983520508,0|0,0:0|0:0,0:0:0:0:
356,351,55142,6,0,B|318:242|385:245|351:138,1,215.999993408203,4|8,0:0|0:0,0:0:0:0:
248,81,55678,1,0,3:0:0:0:
239,106,55767,1,0,0:0:0:0:
235,133,55856,1,0,3:0:0:0:
237,160,55945,1,0,0:0:0:0:
245,185,56035,1,4,0:0:0:0:
351,139,56214,5,8,0:0:0:0:
136,120,56392,2,0,L|140:173,1,53.9999983520508
200,356,56571,6,0,P|90:348|125:254,1,215.999993408203,4|8,0:0|0:0,0:0:0:0:
211,201,57107,1,0,3:0:0:0:
245,185,57196,1,0,0:0:0:0:
284,178,57285,1,0,3:0:0:0:
322,183,57374,1,0,0:0:0:0:
359,198,57464,1,4,0:0:0:0:
478,317,57642,6,0,L|488:209,1,107.999996704102,8|0,0:0|0:0,0:0:0:0:
349,90,58000,2,0,L|359:199,1,107.999996704102,4|0,0:0|0:0,0:0:0:0:
253,293,58357,1,8,0:0:0:0:
186,123,58535,2,0,L|253:112,1,53.9999983520508,0|0,3:0|0:0,0:0:0:0:
299,32,58714,5,0,3:0:0:0:
299,32,58803,1,0,1:0:0:0:
299,32,58892,1,4,0:0:0:0:
38,72,59071,1,8,0:0:0:0:
192,243,59249,1,0,0:0:0:0:
163,30,59428,6,0,L|193:248,1,215.999993408203,4|8,0:0|0:0,0:0:0:0:
10,118,59964,2,0,L|79:108,1,53.9999983520508,0|0,3:0|0:0,0:0:0:0:
319,104,60142,5,0,3:0:0:0:
319,104,60232,1,0,0:0:0:0:
319,104,60321,1,4,0:0:0:0:
262,333,60499,1,8,0:0:0:0:
319,104,60678,2,0,L|327:168,1,53.9999983520508
483,225,60857,6,0,B|375:181|382:269|272:226,1,215.999993408203,4|8,0:0|0:0,0:0:0:0:
164,140,61392,1,0,3:0:0:0:
148,177,61481,1,0,0:0:0:0:
142,216,61570,1,0,3:0:0:0:
144,257,61659,1,0,0:0:0:0:
157,295,61749,1,4,0:0:0:0:
274,225,61928,5,8,0:0:0:0:
27,164,62107,1,0,0:0:0:0:
27,164,62196,1,0,0:0:0:0:
27,164,62285,2,0,B|41:288,1,107.999996704102,4|0,0:0|0:0,0:0:0:0:
262,333,62642,2,0,B|275:225,1,107.999996704102,8|0,0:0|3:0,0:0:0:0:
142,128,62999,6,0,B|156:252,1,107.999996704102,0|4,3:0|0:0,0:0:0:0:
364,190,63357,2,0,B|377:82,1,107.999996704102,8|0,0:0|0:0,0:0:0:0:
446,241,63714,6,0,P|354:288|273:224,1,215.999993408203,4|8,0:0|0:0,0:0:0:0:
241,83,64249,1,0,3:0:0:0:
365,189,64428,1,0,3:0:0:0:
365,189,64517,1,0,0:0:0:0:
365,189,64607,1,4,0:0:0:0:
200,284,64785,5,8,0:0:0:0:
142,29,64964,1,0,0:0:0:0:
195,256,65142,6,0,B|184:186|184:186|149:130|149:130|143:46,1,215.999993408203,4|8,0:0|0:0,0:0:0:0:
269,90,65678,1,0,3:0:0:0:
269,90,65767,1,0,0:0:0:0:
269,90,65857,1,0,3:0:0:0:
70,222,66035,1,4,0:0:0:0:
47,32,66214,6,0,L|61:157,1,107.999996704102,8|0,0:0|0:0,0:0:0:0:
194,253,66571,2,0,L|208:128,1,107.999996704102,4|0,0:0|0:0,0:0:0:0:
334,0,66928,2,0,L|348:125,1,107.999996704102,8|0,0:0|3:0,0:0:0:0:
439,181,67285,1,0,3:0:0:0:
439,181,67374,1,0,0:0:0:0:
439,181,67463,1,4,0:0:0:0:
383,328,67642,6,0,P|435:267|536:271,1,161.999995056153,8|0,0:0|0:0,0:0:0:0:
484,370,68000,2,0,B|442:357|406:378|406:378|355:362|355:362|318:381|272:371,1,215.999993408203,4|8,0:0|0:0,0:0:0:0:
155,332,68535,5,0,3:0:0:0:
155,332,68625,1,0,0:0:0:0:
155,332,68714,2,0,B|153:189|153:189|139:234|102:261,1,215.999993408203,0|8,3:0|0:0,0:0:0:0:
29,278,69250,5,0,0:0:0:0:
29,278,69339,1,0,0:0:0:0:
29,278,69428,2,0,B|86:283|114:250|114:250|175:254|175:254|215:225|260:238,1,233.999989288331,4|8,0:0|0:0,0:0:0:0:
446,234,69964,5,0,3:0:0:0:
446,234,70053,1,0,0:0:0:0:
446,234,70142,1,0,3:0:0:0:
229,314,70321,1,4,0:0:0:0:
407,106,70500,1,8,0:0:0:0:
489,365,70678,1,0,3:0:0:0:
489,365,70767,1,0,0:0:0:0:
489,365,70857,1,0,0:0:0:0:
