osu file format v14

[General]
AudioFilename: audio.mp3
AudioLeadIn: 0
PreviewTime: 47557
Countdown: 0
SampleSet: Soft
StackLeniency: 0.3
Mode: 0
LetterboxInBreaks: 0
WidescreenStoryboard: 1

[Editor]
DistanceSpacing: 2
BeatDivisor: 4
GridSize: 32
TimelineZoom: 1.7

[Metadata]
Title:LANA - Kiroku no Kakera -
TitleUnicode:LANA - キロクノカケラ -
Artist:TOMOSUKE x Jazzin'park
ArtistUnicode:TOMOSUKE×Jazzin'park
Creator:ailv
Version:Anxient's Normal
Source:jubeat saucer
Tags:村上来渚 murakami rana Anxient Nerova Riuz GX
BeatmapID:1369923
BeatmapSetID:577119

[Difficulty]
HPDrainRate:4
CircleSize:3
OverallDifficulty:4
ApproachRate:4
SliderMultiplier:1.6
SliderTickRate:1

[Events]
//Background and Video events
0,0,"04HI0Nb.jpg",0,0
//Break Periods
//Storyboard Layer 0 (Background)
//Storyboard Layer 1 (Fail)
//Storyboard Layer 2 (Pass)
//Storyboard Layer 3 (Foreground)
//Storyboard Sound Samples

[TimingPoints]
2198,714.285714285714,4,2,51,45,1,0
36580,714.285714285714,4,2,51,60,1,0
48000,357.142857142857,4,1,51,80,1,1
48000,-153.846153846153,4,1,51,80,0,1
69428,-133.333333333333,4,1,51,80,0,1
70857,-133.333333333333,4,1,51,5,0,0

[Colours]
Combo1 : 74,134,255
Combo2 : 158,138,229

[HitObjects]
265,25,13626,6,0,L|443:16,1,160,2|8,0:0|0:0,0:0:0:0:
511,87,14697,2,0,P|519:141|502:186,1,80,4|0,0:0|0:0,0:0:0:0:
183,228,16126,1,4,0:0:0:0:
148,121,16483,6,0,P|188:116|230:128,1,80,2|0,0:0|0:0,0:0:0:0:
294,216,17197,2,0,L|303:394,1,160,8|4,0:0|0:0,0:0:0:0:
413,361,18269,1,0,0:0:0:0:
406,249,18626,1,8,0:0:0:0:
390,26,19340,6,0,P|399:67|394:105,1,80,2|0,0:0|0:0,0:0:0:0:
299,165,20055,2,0,L|139:173,1,160,8|4,0:0|0:0,0:0:0:0:
55,98,21126,2,0,P|26:169|53:247,1,160,0|4,0:0|0:0,0:0:0:0:
154,290,22197,6,0,L|297:282,2,120,2|2|4,0:0|0:0|0:0,0:0:0:0:
51,244,23626,2,0,P|25:170|55:98,1,160,0|4,0:0|0:0,0:0:0:0:
267,25,25055,6,0,P|292:99|263:171,1,160,0|8,0:0|0:0,0:0:0:0:
157,208,26126,2,0,P|150:168|159:130,2,80,0|4|0,0:0|0:0|0:0,0:0:0:0:
370,277,27555,1,0,0:0:0:0:
413,174,27912,6,0,P|374:165|335:171,1,80,2|0,0:0|0:0,0:0:0:0:
260,255,28626,2,0,L|116:262,2,120,8|4|0,0:0|0:0|0:0,0:0:0:0:
370,277,30055,2,0,P|376:316|367:354,1,80,8|4,0:0|0:0,0:0:0:0:
255,361,30769,6,0,L|95:369,1,160,2|8,0:0|0:0,0:0:0:0:
32,276,31840,1,4,0:0:0:0:
140,258,32197,2,0,P|172:208|171:149,1,120,0|0,0:0|0:0,0:0:0:0:
137,105,32912,2,0,P|98:96|59:102,1,80,8|4,0:0|0:0,0:0:0:0:
2,199,33626,6,0,L|9:342,2,120,0|0|0,0:0|0:0|0:0,0:0:0:0:
59,102,35055,2,0,P|108:69|202:95,1,160,4|8,0:0|0:0,0:0:0:0:
273,178,36126,1,4,0:0:0:0:
414,159,36580,6,0,L|405:-8,1,160,4|8,0:0|0:0,0:0:0:0:
302,40,37651,2,0,L|307:154,1,80,0|4,0:0|0:0,0:0:0:0:
243,213,38365,2,0,P|209:233|171:242,2,80,4|8|2,0:0|0:0|0:0,0:0:0:0:
168,130,39437,6,0,P|132:105|24:143,1,160,4|8,0:0|0:0,0:0:0:0:
37,247,40508,2,0,L|42:361,1,80,0|4,0:0|0:0,0:0:0:0:
150,348,41222,2,0,L|146:268,1,80,4|8,0:0|0:0,0:0:0:0:
244,213,41937,1,0,0:0:0:0:
308,304,42294,6,0,L|475:295,1,160
491,186,43365,2,0,L|411:189,1,80
317,128,44080,2,0,P|284:74|288:36,2,80
244,212,45151,6,0,L|100:220,1,120,2|0,0:0|0:0,0:0:0:0:
256,192,45865,12,0,47115,0:0:0:0:
77,68,48000,6,0,L|285:58,1,207.999990478516,4|0,0:0|3:0,0:0:0:0:
388,8,49071,2,0,P|399:51|388:109,1,103.999995239258,8|4,0:0|0:0,0:0:0:0:
289,166,49785,2,0,P|277:216|289:266,1,103.999995239258,8|4,0:0|0:0,0:0:0:0:
387,327,50500,1,8,0:0:0:0:
474,253,50857,6,0,P|488:210|381:108,1,207.999990478516,4|0,0:0|3:0,0:0:0:0:
291,169,51928,2,0,P|248:183|185:167,1,103.999995239258,8|4,0:0|0:0,0:0:0:0:
103,98,52642,2,0,P|58:86|1:101,2,103.999995239258,8|0|8,0:0|3:0|0:0,0:0:0:0:
191,171,53714,6,0,L|201:394,1,207.999990478516,4|0,0:0|3:0,0:0:0:0:
307,337,54785,2,0,L|301:233,1,103.999995239258,8|4,0:0|0:0,0:0:0:0:
407,192,55500,1,8,0:0:0:0:
428,80,55857,2,0,P|385:20|337:2,1,103.999995239258,0|8,3:0|0:0,0:0:0:0:
317,114,56571,6,0,P|217:151|190:243,1,207.999990478516,4|0,0:0|3:0,0:0:0:0:
115,326,57642,2,0,P|65:340|15:327,2,103.999995239258,8|4|8,0:0|0:0|0:0,0:0:0:0:
226,353,58714,2,0,P|275:338|325:350,1,103.999995239258,0|8,0:0|0:0,0:0:0:0:
436,377,59428,6,0,L|429:252,1,103.999995239258,4|8,0:0|0:0,0:0:0:0:
511,192,60142,1,0,3:0:0:0:
505,77,60499,1,8,0:0:0:0:
409,140,60857,2,0,P|359:127|309:142,1,103.999995239258,4|8,0:0|0:0,0:0:0:0:
209,87,61571,2,0,P|159:74|109:89,1,103.999995239258,0|8,3:0|0:0,0:0:0:0:
62,193,62285,6,0,L|67:296,1,103.999995239258,4|8,0:0|0:0,0:0:0:0:
167,351,62999,1,0,3:0:0:0:
266,296,63357,1,8,0:0:0:0:
260,182,63714,2,0,L|254:78,1,103.999995239258,4|8,0:0|0:0,0:0:0:0:
359,33,64428,2,0,L|364:136,1,103.999995239258,0|8,3:0|0:0,0:0:0:0:
461,197,65142,6,0,P|498:237|413:344,1,207.999990478516,4|0,0:0|3:0,0:0:0:0:
327,287,66214,2,0,P|277:274|227:289,1,103.999995239258,8|4,0:0|0:0,0:0:0:0:
134,354,66928,1,8,0:0:0:0:
45,281,67285,2,0,P|32:231|47:181,1,103.999995239258,0|8,3:0|0:0,0:0:0:0:
133,106,68000,6,0,L|340:96,2,207.999990478516,4|0|4,0:0|3:0|0:0,0:0:0:0:
256,192,69607,12,0,70857,0:0:0:0:
