osu file format v14

[General]
AudioFilename: audio.mp3
AudioLeadIn: 0
PreviewTime: 47557
Countdown: 0
SampleSet: Soft
StackLeniency: 0.6
Mode: 0
LetterboxInBreaks: 0
WidescreenStoryboard: 1

[Editor]
DistanceSpacing: 2
BeatDivisor: 4
GridSize: 32
TimelineZoom: 1.7

[Metadata]
Title:LANA - Kiroku no Kakera -
TitleUnicode:LANA - キロクノカケラ -
Artist:TOMOSUKE x Jazzin'park
ArtistUnicode:TOMOSUKE×Jazzin'park
Creator:ailv
Version:Advanced
Source:jubeat saucer
Tags:村上来渚 murakami rana Anxient Nerova Riuz GX
BeatmapID:1369922
BeatmapSetID:577119

[Difficulty]
HPDrainRate:4
CircleSize:4
OverallDifficulty:4
ApproachRate:6
SliderMultiplier:1.5
SliderTickRate:1

[Events]
//Background and Video events
0,0,"04HI0Nb.jpg",0,0
//Break Periods
//Storyboard Layer 0 (Background)
//Storyboard Layer 1 (Fail)
//Storyboard Layer 2 (Pass)
//Storyboard Layer 3 (Foreground)
//Storyboard Sound Samples

[TimingPoints]
2198,714.285714285714,4,2,51,45,1,0
13626,-100,4,2,51,45,0,0
36580,714.285714285714,4,2,51,60,1,0
36580,-100,4,2,51,60,0,0
48000,357.142857142857,4,1,51,80,1,1
48000,-100,4,1,51,80,0,1
69428,-100,4,1,51,80,0,1
70857,-100,4,1,51,5,0,0

[Colours]
Combo1 : 74,134,255
Combo2 : 158,138,229

[HitObjects]
74,252,13269,5,4,0:0:0:0:
74,252,13447,1,0,0:0:0:0:
74,252,13626,2,0,P|117:247|157:252,1,75,2|4,0:0|0:0,0:0:0:0:
232,355,14340,2,0,P|229:293|242:198,1,150,8|0,0:0|0:0,0:0:0:0:
334,243,15412,2,0,L|331:329,1,75,4|8,0:0|0:0,0:0:0:0:
357,161,16126,5,4,0:0:0:0:
357,161,16305,1,0,0:0:0:0:
357,161,16483,2,0,P|415:164|341:101,1,225,2|4,0:0|0:0,0:0:0:0:
273,143,17912,1,0,0:0:0:0:
194,214,18269,2,0,L|90:194,1,75,4|8,0:0|0:0,0:0:0:0:
44,60,18983,5,4,0:0:0:0:
44,60,19162,1,0,0:0:0:0:
44,60,19340,2,0,L|40:139,1,75,2|4,0:0|0:0,0:0:0:0:
121,200,20055,2,0,L|277:170,1,150,8|0,0:0|0:0,0:0:0:0:
63,128,21126,2,0,P|31:175|69:277,1,150,4|4,0:0|0:0,0:0:0:0:
213,284,22197,6,0,P|190:216|120:199,1,150,2|8,0:0|0:0,0:0:0:0:
119,199,23269,1,4,0:0:0:0:
114,359,23626,2,0,L|269:355,1,150,0|8,0:0|0:0,0:0:0:0:
429,282,25055,6,0,L|326:279,1,75,2|4,0:0|0:0,0:0:0:0:
350,190,25769,2,0,L|425:193,1,75,8|4,0:0|0:0,0:0:0:0:
421,104,26483,2,0,L|262:99,1,150,0|8,0:0|0:0,0:0:0:0:
271,99,27555,1,4,0:0:0:0:
34,92,27912,6,0,L|185:88,1,150,2|8,0:0|0:0,0:0:0:0:
225,168,28983,2,0,L|222:267,1,75,0|4,0:0|0:0,0:0:0:0:
144,286,29697,2,0,L|146:385,1,75,4|8,0:0|0:0,0:0:0:0:
222,242,30412,5,4,0:0:0:0:
222,242,30590,1,0,0:0:0:0:
222,242,30769,2,0,P|323:215|367:258,1,150,2|8,0:0|0:0,0:0:0:0:
285,368,31840,2,0,L|290:293,1,75,4|0,0:0|0:0,0:0:0:0:
429,197,32555,2,0,L|434:271,1,75,4|8,0:0|0:0,0:0:0:0:
434,78,33626,6,0,P|454:162|319:176,1,225,0|4,0:0|0:0,0:0:0:0:
258,123,35055,6,0,L|218:122,1,37.5,2|0,0:0|0:0,0:0:0:0:
134,56,35412,2,0,L|97:57,1,37.5,4|0,0:0|0:0,0:0:0:0:
38,156,35769,2,0,L|-2:155,2,37.5,8|0|0,0:0|0:0|0:0,0:0:0:0:
38,156,36580,6,0,P|110:131|173:156,1,112.5,4|2,0:0|0:0,0:0:0:0:
199,188,37294,2,0,L|194:229,1,37.5,8|0,0:0|0:0,0:0:0:0:
185,299,37651,1,4,0:0:0:0:
287,313,37830,6,0,L|343:293,1,37.5,4|0,0:0|0:0,0:0:0:0:
379,198,38187,2,0,L|368:256,1,37.5,4|0,0:0|0:0,0:0:0:0:
432,335,38544,2,0,L|386:296,1,37.5,4|8,0:0|0:0,0:0:0:0:
449,153,39437,6,0,P|390:166|331:154,1,112.5,4|2,0:0|0:0,0:0:0:0:
274,101,40151,2,0,L|209:97,1,37.5,8|0,0:0|0:0,0:0:0:0:
161,140,40508,2,0,L|123:142,1,37.5,0|2,0:0|0:0,0:0:0:0:
30,201,40865,6,0,L|28:275,1,75
100,331,41401,1,4,0:0:0:0:
181,294,41580,2,0,L|183:220,1,75,8|0,0:0|0:0,0:0:0:0:
161,140,42115,1,0,0:0:0:0:
161,140,42294,6,0,P|262:124|353:232,1,225
410,285,43722,2,0,P|458:290|454:153,1,225
384,77,45151,2,0,P|361:114|363:208,1,112.5,2|0,0:0|0:0,0:0:0:0:
256,192,46222,12,0,47651,0:0:0:0:
477,98,48000,6,0,L|479:247,1,150,4|8,3:0|0:0,0:0:0:0:
385,197,48535,1,0,3:0:0:0:
385,197,48714,2,0,L|386:122,1,75,0|4,3:0|0:0,0:0:0:0:
307,42,49071,2,0,L|227:39,1,75,8|0,0:0|0:0,0:0:0:0:
153,120,49428,6,0,L|3:122,1,150,4|8,0:0|0:0,0:0:0:0:
70,40,49964,1,0,3:0:0:0:
70,40,50142,2,0,L|144:38,1,75,0|4,3:0|0:0,0:0:0:0:
231,123,50500,2,0,L|229:197,1,75,8|0,0:0|0:0,0:0:0:0:
141,253,50857,6,0,P|54:259|2:322,1,150,4|8,0:0|0:0,0:0:0:0:
107,358,51392,2,0,L|181:352,1,75,0|0,3:0|3:0,0:0:0:0:
274,299,51750,2,0,L|348:305,1,75,4|8,0:0|0:0,0:0:0:0:
449,350,52107,1,0,0:0:0:0:
449,350,52285,6,0,P|456:276|461:196,1,150,4|8,0:0|0:0,0:0:0:0:
366,139,52821,1,0,3:0:0:0:
366,139,53000,2,0,P|356:192|358:222,1,75,0|4,3:0|0:0,0:0:0:0:
433,74,53357,2,0,P|432:36|423:0,1,75,8|0,0:0|0:0,0:0:0:0:
289,70,53714,6,0,P|214:69|116:54,2,150,4|8|0,0:0|0:0|3:0,0:0:0:0:
338,160,54607,1,4,0:0:0:0:
415,93,54785,2,0,P|435:128|440:163,1,75,8|0,0:0|0:0,0:0:0:0:
357,260,55142,2,0,P|316:259|283:246,1,75
241,126,55500,2,0,P|261:91|289:69,1,75,8|0,0:0|3:0,0:0:0:0:
338,160,55857,1,4,3:1:0:0:
217,208,56035,2,0,L|120:201,1,75,4|8,0:0|0:0,0:0:0:0:
52,224,56392,1,4,0:0:0:0:
18,320,56571,6,0,L|193:307,1,150,4|8,0:0|0:0,0:0:0:0:
217,208,57107,2,0,L|366:219,1,150,0|4,3:0|0:0,0:0:0:0:
425,301,57642,2,0,L|499:306,1,75,8|0,0:0|0:0,0:0:0:0:
366,219,58000,2,0,P|325:285|341:357,1,150,4|8,0:0|0:0,0:0:0:0:
486,221,58714,6,0,L|479:131,1,75,0|4,0:0|0:0,0:0:0:0:
407,59,59071,1,8,0:0:0:0:
407,59,59249,1,0,0:0:0:0:
331,140,59428,6,0,P|258:163|199:126,1,150,4|8,0:0|0:0,0:0:0:0:
275,2,59964,2,0,L|271:77,1,75,0|0,3:0|3:0,0:0:0:0:
155,29,60321,1,4,0:0:0:0:
64,107,60499,2,0,L|59:32,1,75,8|0,0:0|0:0,0:0:0:0:
133,170,60857,6,0,P|47:199|-9:165,2,150,4|8|0,0:0|0:0|3:0,0:0:0:0:
163,60,61750,1,4,0:0:0:0:
243,146,61928,1,8,0:0:0:0:
243,146,62107,1,0,0:0:0:0:
342,94,62285,6,0,P|383:107|443:101,1,75,4|0,0:0|0:0,0:0:0:0:
496,184,62642,2,0,P|483:225|489:285,1,75,8|0,0:0|3:0,0:0:0:0:
406,338,62999,2,0,P|365:325|305:331,1,75,0|4,3:0|0:0,0:0:0:0:
252,248,63357,2,0,P|265:207|259:147,1,75,8|0,0:0|0:0,0:0:0:0:
176,106,63714,6,0,P|88:87|18:127,1,150,4|8,0:0|0:0,0:0:0:0:
108,195,64249,1,0,3:0:0:0:
37,278,64428,1,0,3:0:0:0:
37,278,64607,1,4,0:0:0:0:
121,352,64785,2,0,L|215:344,1,75,8|0,0:0|0:0,0:0:0:0:
252,248,65142,6,0,L|409:261,1,150,4|8,0:0|0:0,0:0:0:0:
494,325,65678,1,0,3:0:0:0:
509,237,65857,2,0,P|513:191|498:136,1,75,0|4,3:0|0:0,0:0:0:0:
435,76,66214,1,8,0:0:0:0:
435,76,66392,1,0,0:0:0:0:
325,102,66571,6,0,P|255:76|181:86,1,150,4|8,0:0|0:0,0:0:0:0:
105,168,67107,2,0,L|92:87,1,75,0|0,3:0|3:0,0:0:0:0:
5,164,67464,1,4,0:0:0:0:
5,164,67642,1,8,0:0:0:0:
59,322,68000,6,0,P|135:332|214:288,1,150,4|8,0:0|0:0,0:0:0:0:
274,214,68535,1,0,3:0:0:0:
378,235,68714,2,0,P|403:341|368:355,1,150,0|8,3:0|0:0,0:0:0:0:
276,329,69250,1,0,0:0:0:0:
274,214,69428,2,0,P|257:131|274:59,2,150,4|8|0,0:0|0:0|0:0,0:0:0:0:
378,235,70321,1,4,0:0:0:0:
478,185,70499,2,0,P|433:139|330:134,1,150,8|0,0:0|0:0,0:0:0:0:
