osu file format v14

[General]
AudioFilename: audio.ogg
AudioLeadIn: 0
PreviewTime: 144890
Countdown: 1
SampleSet: Normal
StackLeniency: 0.7
Mode: 1
LetterboxInBreaks: 0
WidescreenStoryboard: 1

[Editor]
Bookmarks: 890,10490,20090,29690,39290,48890,58490,68090,72890,77690,87290,96890,101690,116090,125690,135290,144890,154490,164090,173690,183290,192890,202490
DistanceSpacing: 1.8
BeatDivisor: 4
GridSize: 32
TimelineZoom: 2.5

[Metadata]
Title:LANA - Kiroku no Kakera (sasakure.UK Framework Remix) -
TitleUnicode:LANA - キロクノカケラ (sasakure.UK Framework Remix) -
Artist:TOMOSUKE x Jazzin'park
ArtistUnicode:TOMOSUKE×Jazzin'park
Creator:gaston_2199
Version:Megafan's Muzukashii
Source:jubeat saucer
Tags:- a Piece of Memories - 村上来渚 Murakami 栗原暁 Satoru Kurihara 久保田真悟 Singo Kubota ささくれP SasakureP 舟木智介 Funaki ゼクトバッハ Zektbach ジャジンパーク full version pop jpop video game electronic japanese famale vocal Axer _DUSK_ -Dusk Dusk- Megafan
BeatmapID:3000354
BeatmapSetID:925255

[Difficulty]
HPDrainRate:6
CircleSize:2
OverallDifficulty:4
ApproachRate:10
SliderMultiplier:1.4
SliderTickRate:1

[Events]
//Background and Video events
0,0,"BG.jpg",0,0
//Break Periods
2,116290,124340
2,125690,134840
//Storyboard Layer 0 (Background)
//Storyboard Layer 1 (Fail)
//Storyboard Layer 2 (Pass)
//Storyboard Layer 3 (Foreground)
//Storyboard Layer 4 (Overlay)
//Storyboard Sound Samples

[TimingPoints]
890,300,4,1,0,60,1,0
890,-166.666666666667,4,1,0,60,0,0
10490,-166.666666666667,4,1,0,70,0,0
20090,-125,4,1,0,80,0,0
49040,-142.857142857143,4,1,0,70,0,0
57890,-149.253731343284,4,1,0,70,0,0
58190,-158.730158730159,4,1,0,70,0,0
58490,-166.666666666667,4,1,0,60,0,0
68090,-125,4,1,0,80,0,0
76490,-125,4,1,0,80,0,0
76565,-124.035930728413,4,1,0,80,0,0
76640,-123.086770018525,4,1,0,80,0,0
76790,-121.231224314134,4,1,0,80,0,0
77090,-117.682917500744,4,1,0,80,0,0
77165,-116.828025641415,4,1,0,80,0,0
77240,-115.985599228,4,1,0,80,0,0
77390,-114.336545046884,4,1,0,80,0,0
77690,-111.111111111111,4,1,0,90,0,1
87290,-111.111111111111,4,1,0,80,0,0
95990,-111.111111111111,4,1,0,80,0,0
96065,-112.142322063778,4,1,0,80,0,0
96140,-113.192853456004,4,1,0,80,0,0
96290,-115.353957851971,4,1,0,80,0,0
96590,-119.933844491379,4,1,0,80,0,0
96665,-121.136209187697,4,1,0,80,0,0
96740,-122.362925991231,4,1,0,80,0,0
96890,-124.892280408148,4,1,0,80,0,0
97040,-124.941121496495,4,1,0,70,0,0
113690,-124.838334357008,4,1,0,70,0,0
116240,-166.37938492869,4,1,0,70,0,0
135290,-166.37938492869,4,1,0,60,0,0
144890,-166.666666666667,4,1,0,70,0,0
153290,-166.666666666667,4,1,0,70,0,0
153365,-163.282634075453,4,1,0,70,0,0
153440,-160.03328692368,4,1,0,70,0,0
153590,-153.907480057438,4,1,0,70,0,0
153890,-142.962935429361,4,1,0,70,0,0
153965,-140.465812728169,4,1,0,70,0,0
154040,-138.054426577134,4,1,0,70,0,0
154190,-133.471609921212,4,1,0,70,0,0
154490,-125.162084899945,4,1,0,80,0,0
162890,-125,4,1,0,80,0,0
162965,-124.035930728413,4,1,0,80,0,0
163040,-123.086770018525,4,1,0,80,0,0
163190,-121.231224314134,4,1,0,80,0,0
163490,-117.682917500744,4,1,0,80,0,0
163565,-116.828025641415,4,1,0,80,0,0
163640,-115.985599228,4,1,0,80,0,0
163790,-114.336545046884,4,1,0,80,0,0
164090,-111.111111111111,4,1,0,90,0,1
183290,-111.111111111111,4,1,0,80,0,0
202490,-111.111111111111,4,1,0,70,0,0
202940,-113.205923839583,4,1,0,70,0,0
203390,-115.381242702136,4,1,0,70,0,0
204140,-119.198603945951,4,1,0,70,0,0
204290,-119.992560461251,4,1,0,70,0,0
204590,-121.612780043829,4,1,0,70,0,0
204740,-122.439334370803,4,1,0,70,0,0
204890,-123.277201114426,4,1,0,70,0,0
205340,-125.861205297246,4,1,0,70,0,0
205790,-128.555854947858,4,1,0,70,0,0
206390,-132.333421996726,4,1,0,70,0,0
207290,-138.435320941526,4,1,0,70,0,0
207740,-141.702269361844,4,1,0,70,0,0
208190,-145.126928011239,4,1,0,70,0,0
209690,-157.843479249107,4,1,0,70,0,0
210140,-162.10476831176,4,1,0,70,0,0
210590,-166.602524694659,4,1,0,70,0,0

[HitObjects]
256,192,890,5,0,0:0:0:0:
256,192,1340,1,0,0:0:0:0:
256,192,2090,1,0,0:0:0:0:
256,192,2540,1,0,0:0:0:0:
256,192,3290,1,0,0:0:0:0:
256,192,3740,1,0,0:0:0:0:
256,192,4490,1,0,0:0:0:0:
256,192,4940,1,8,0:0:0:0:
256,192,5690,1,0,0:0:0:0:
256,192,6140,1,0,0:0:0:0:
256,192,6890,1,0,0:0:0:0:
256,192,7340,1,0,0:0:0:0:
256,192,8090,1,0,0:0:0:0:
256,192,8540,1,0,0:0:0:0:
256,192,9290,1,0,0:0:0:0:
256,192,9740,1,0,0:0:0:0:
256,192,9890,1,8,0:0:0:0:
256,192,10490,1,0,0:0:0:0:
256,192,10940,1,0,0:0:0:0:
256,192,11690,1,8,0:0:0:0:
256,192,12890,1,0,0:0:0:0:
256,192,13340,1,0,0:0:0:0:
256,192,14090,1,8,0:0:0:0:
256,192,14690,1,8,0:0:0:0:
256,192,15290,1,0,0:0:0:0:
256,192,15740,1,0,0:0:0:0:
256,192,16490,1,8,0:0:0:0:
256,192,17690,1,8,0:0:0:0:
256,192,18140,1,8,0:0:0:0:
256,192,18740,8,0,19790,0:0:0:0:
256,96,20090,5,4,0:0:0:0:
256,192,20390,1,8,0:0:0:0:
256,192,20540,1,0,0:0:0:0:
256,192,20840,1,8,0:0:0:0:
256,192,21290,1,0,0:0:0:0:
257,183,21440,1,8,0:0:0:0:
257,183,21590,1,8,0:0:0:0:
256,192,21890,1,8,0:0:0:0:
256,160,21965,1,8,0:0:0:0:
256,192,22040,1,8,0:0:0:0:
256,192,22190,1,0,0:0:0:0:
256,192,22340,1,8,0:0:0:0:
256,192,22490,1,0,0:0:0:0:
256,192,22790,1,8,0:0:0:0:
256,192,22940,1,0,0:0:0:0:
256,192,23240,1,8,0:0:0:0:
256,192,23390,1,0,0:0:0:0:
256,192,23690,1,0,0:0:0:0:
256,192,23840,1,8,0:0:0:0:
256,192,23990,1,0,0:0:0:0:
256,192,24290,1,8,0:0:0:0:
256,192,24590,1,0,0:0:0:0:
256,192,24740,1,8,0:0:0:0:
256,192,24890,1,0,0:0:0:0:
256,192,25190,1,8,0:0:0:0:
256,192,25340,1,0,0:0:0:0:
256,192,25640,1,8,0:0:0:0:
256,192,26090,1,0,0:0:0:0:
256,192,26240,1,8,0:0:0:0:
256,192,26390,1,8,0:0:0:0:
256,192,26690,1,8,0:0:0:0:
256,192,26840,1,0,0:0:0:0:
256,192,26990,1,8,0:0:0:0:
256,192,27140,1,8,0:0:0:0:
256,192,27290,1,0,0:0:0:0:
256,192,27590,1,8,0:0:0:0:
256,192,27740,1,0,0:0:0:0:
256,192,28040,1,8,0:0:0:0:
256,192,28190,1,0,0:0:0:0:
256,192,28340,1,0,0:0:0:0:
256,192,28490,1,0,0:0:0:0:
256,192,28790,1,0,0:0:0:0:
256,192,29090,1,0,0:0:0:0:
256,192,29390,1,8,0:0:0:0:
256,192,29540,1,8,0:0:0:0:
256,96,29690,5,4,0:0:0:0:
256,192,29990,1,8,0:0:0:0:
256,192,30140,1,0,0:0:0:0:
256,192,30440,1,8,0:0:0:0:
256,192,30890,1,0,0:0:0:0:
256,192,31190,1,8,0:0:0:0:
256,192,31340,1,0,0:0:0:0:
256,192,31490,1,0,0:0:0:0:
256,192,31565,1,0,0:0:0:0:
256,192,31640,1,0,0:0:0:0:
256,192,31790,1,8,0:0:0:0:
256,192,32090,1,0,0:0:0:0:
256,192,32390,1,8,0:0:0:0:
256,192,32540,1,0,0:0:0:0:
256,192,32840,1,8,0:0:0:0:
256,192,32990,1,8,0:0:0:0:
256,192,33065,1,8,0:0:0:0:
256,192,33140,1,8,0:0:0:0:
256,192,33290,1,0,0:0:0:0:
256,192,33590,1,8,0:0:0:0:
256,192,33740,1,0,0:0:0:0:
256,192,33890,1,8,0:0:0:0:
256,192,34040,1,8,0:0:0:0:
256,192,34340,1,8,0:0:0:0:
256,192,34490,1,0,0:0:0:0:
256,192,34790,1,8,0:0:0:0:
256,192,34940,1,0,0:0:0:0:
256,192,35240,1,8,0:0:0:0:
256,192,35690,1,0,0:0:0:0:
256,192,35990,1,8,0:0:0:0:
256,192,36140,1,0,0:0:0:0:
256,192,36290,1,8,0:0:0:0:
256,192,36440,1,8,0:0:0:0:
256,192,36590,1,0,0:0:0:0:
256,192,36890,1,0,0:0:0:0:
256,192,37190,1,8,0:0:0:0:
256,192,37340,1,0,0:0:0:0:
256,192,37640,1,8,0:0:0:0:
256,192,37940,1,0,0:0:0:0:
256,192,38090,1,0,0:0:0:0:
256,192,38240,1,8,0:0:0:0:
256,192,38390,1,0,0:0:0:0:
256,192,38690,1,8,0:0:0:0:
256,192,38840,1,8,0:0:0:0:
256,192,38990,1,0,0:0:0:0:
256,192,39140,1,8,0:0:0:0:
256,192,39290,1,0,0:0:0:0:
256,192,39590,1,8,0:0:0:0:
256,192,39740,1,0,0:0:0:0:
256,192,40040,1,8,0:0:0:0:
256,192,40490,1,0,0:0:0:0:
256,192,40790,1,8,0:0:0:0:
256,192,40940,1,0,0:0:0:0:
256,192,41090,1,0,0:0:0:0:
256,192,41165,1,0,0:0:0:0:
256,192,41240,1,0,0:0:0:0:
256,192,41540,1,8,0:0:0:0:
256,192,41690,1,0,0:0:0:0:
256,192,41990,1,8,0:0:0:0:
256,192,42140,1,0,0:0:0:0:
256,192,42440,1,8,0:0:0:0:
256,192,42590,1,8,0:0:0:0:
256,192,42665,1,8,0:0:0:0:
256,192,42740,1,8,0:0:0:0:
256,192,42890,1,0,0:0:0:0:
256,192,43190,1,8,0:0:0:0:
256,192,43340,1,0,0:0:0:0:
256,192,43490,1,8,0:0:0:0:
256,192,43940,1,8,0:0:0:0:
256,192,44090,1,0,0:0:0:0:
256,192,44390,1,8,0:0:0:0:
256,192,44540,1,0,0:0:0:0:
256,192,44840,1,8,0:0:0:0:
256,192,44990,1,0,0:0:0:0:
256,192,45140,1,8,0:0:0:0:
256,192,45290,1,0,0:0:0:0:
256,192,45590,1,8,0:0:0:0:
256,192,45740,1,0,0:0:0:0:
256,192,45890,1,0,0:0:0:0:
256,192,45965,1,0,0:0:0:0:
256,192,46040,1,0,0:0:0:0:
256,192,46340,1,8,0:0:0:0:
256,192,46490,1,0,0:0:0:0:
256,192,46790,1,8,0:0:0:0:
256,192,46940,1,0,0:0:0:0:
256,192,47240,1,8,0:0:0:0:
256,192,47540,1,0,0:0:0:0:
256,192,47840,1,8,0:0:0:0:
256,192,47990,1,0,0:0:0:0:
256,192,48290,1,8,0:0:0:0:
256,192,48740,1,8,0:0:0:0:
256,192,48890,1,0,0:0:0:0:
256,192,49340,1,0,0:0:0:0:
256,192,49640,1,0,0:0:0:0:
256,192,49790,1,8,0:0:0:0:
256,192,49940,1,0,0:0:0:0:
256,192,50090,1,8,0:0:0:0:
256,192,50390,1,0,0:0:0:0:
256,192,50540,1,0,0:0:0:0:
256,192,50840,1,0,0:0:0:0:
256,192,50990,1,8,0:0:0:0:
256,192,51290,1,0,0:0:0:0:
256,192,51740,1,0,0:0:0:0:
256,192,52040,1,0,0:0:0:0:
256,192,52190,1,8,0:0:0:0:
256,192,52340,1,0,0:0:0:0:
256,192,52640,1,8,0:0:0:0:
256,192,52790,1,0,0:0:0:0:
256,192,52940,1,8,0:0:0:0:
256,192,53240,1,8,0:0:0:0:
256,192,53390,1,8,0:0:0:0:
256,192,53690,1,0,0:0:0:0:
256,192,54140,1,0,0:0:0:0:
256,192,54440,1,0,0:0:0:0:
256,192,54590,1,8,0:0:0:0:
256,192,54890,1,8,0:0:0:0:
256,192,55040,1,8,0:0:0:0:
256,192,55190,1,0,0:0:0:0:
256,192,55490,1,8,0:0:0:0:
256,192,55640,1,0,0:0:0:0:
256,192,55790,1,8,0:0:0:0:
256,192,56090,1,0,0:0:0:0:
256,192,56390,1,8,0:0:0:0:
256,192,56540,1,0,0:0:0:0:
256,192,56690,1,8,0:0:0:0:
256,192,56990,1,8,0:0:0:0:
256,192,57140,1,0,0:0:0:0:
256,192,57590,1,0,0:0:0:0:
256,192,57890,1,0,0:0:0:0:
256,192,58190,1,8,0:0:0:0:
256,192,58490,1,0,0:0:0:0:
256,192,58940,1,0,0:0:0:0:
256,192,59090,1,8,0:0:0:0:
256,192,59240,1,0,0:0:0:0:
256,192,59540,1,8,0:0:0:0:
256,192,59840,1,8,0:0:0:0:
256,192,60140,1,0,0:0:0:0:
256,192,60890,1,8,0:0:0:0:
256,192,61340,1,8,0:0:0:0:
256,192,61490,1,8,0:0:0:0:
256,192,61640,1,0,0:0:0:0:
256,192,61940,1,0,0:0:0:0:
256,192,62240,1,0,0:0:0:0:
256,192,62540,1,8,0:0:0:0:
256,192,62840,1,8,0:0:0:0:
256,192,62990,1,0,0:0:0:0:
256,192,63290,1,0,0:0:0:0:
256,192,63440,1,8,0:0:0:0:
256,192,63590,1,0,0:0:0:0:
256,192,63890,1,8,0:0:0:0:
256,192,64190,1,8,0:0:0:0:
256,192,64340,1,8,0:0:0:0:
256,192,64640,1,0,0:0:0:0:
256,192,64790,1,0,0:0:0:0:
256,192,65090,1,8,0:0:0:0:
256,192,65390,1,8,0:0:0:0:
256,192,65540,1,8,0:0:0:0:
256,192,65690,1,0,0:0:0:0:
256,192,66140,1,0,0:0:0:0:
256,192,66740,8,0,67940,0:0:0:0:
256,192,68090,5,0,0:0:0:0:
256,192,68540,1,0,0:0:0:0:
256,192,68690,1,8,0:0:0:0:
256,192,68990,1,0,0:0:0:0:
256,192,69140,1,8,0:0:0:0:
256,192,69290,1,0,0:0:0:0:
256,192,69740,1,8,0:0:0:0:
256,192,69890,1,8,0:0:0:0:
256,192,70040,1,0,0:0:0:0:
256,192,70190,1,8,0:0:0:0:
256,192,70340,1,0,0:0:0:0:
256,192,70490,1,0,0:0:0:0:
256,192,70940,1,0,0:0:0:0:
256,192,71090,1,8,0:0:0:0:
256,192,71390,1,8,0:0:0:0:
245,192,71540,1,8,0:0:0:0:
245,192,71690,1,0,0:0:0:0:
256,192,71990,1,8,0:0:0:0:
256,192,72290,1,8,0:0:0:0:
256,192,72590,1,8,0:0:0:0:
256,192,72740,1,8,0:0:0:0:
256,192,72890,1,0,0:0:0:0:
256,192,73340,1,0,0:0:0:0:
256,192,73490,1,8,0:0:0:0:
256,192,73790,1,0,0:0:0:0:
256,192,73940,1,8,0:0:0:0:
256,192,74090,1,0,0:0:0:0:
256,192,74390,1,0,0:0:0:0:
256,192,74540,1,0,0:0:0:0:
256,192,74690,1,8,0:0:0:0:
256,192,74840,1,0,0:0:0:0:
256,192,74990,1,8,0:0:0:0:
256,192,75140,1,8,0:0:0:0:
256,192,75290,1,0,0:0:0:0:
256,192,75740,1,0,0:0:0:0:
256,192,75890,1,8,0:0:0:0:
256,192,76190,1,8,0:0:0:0:
256,192,76490,1,0,0:0:0:0:
256,192,76565,1,0,0:0:0:0:
256,192,76640,1,0,0:0:0:0:
256,192,76790,1,8,0:0:0:0:
256,192,77090,1,8,0:0:0:0:
256,192,77165,1,8,0:0:0:0:
256,192,77240,1,8,0:0:0:0:
256,192,77390,1,0,0:0:0:0:
256,96,77690,5,4,0:0:0:0:
256,192,77990,1,8,0:0:0:0:
256,192,78290,1,8,0:0:0:0:
256,192,78440,1,0,0:0:0:0:
256,192,78590,1,8,0:0:0:0:
256,192,78890,1,0,0:0:0:0:
256,192,79040,1,0,0:0:0:0:
256,192,79190,1,8,0:0:0:0:
256,192,79340,1,8,0:0:0:0:
256,192,79415,1,8,0:0:0:0:
256,192,79490,1,8,0:0:0:0:
256,192,79640,1,0,0:0:0:0:
256,192,79790,1,8,0:0:0:0:
256,192,80090,1,0,0:0:0:0:
256,192,80390,1,8,0:0:0:0:
256,192,80540,1,0,0:0:0:0:
256,192,80690,1,0,0:0:0:0:
256,192,80840,1,0,0:0:0:0:
256,192,80990,1,8,0:0:0:0:
256,192,81290,1,8,0:0:0:0:
256,192,81440,1,0,0:0:0:0:
256,192,81590,1,8,0:0:0:0:
256,192,81890,1,8,0:0:0:0:
256,192,81965,1,8,0:0:0:0:
256,192,82040,1,8,0:0:0:0:
256,192,82190,1,0,0:0:0:0:
256,192,82340,1,8,0:0:0:0:
256,192,82490,1,0,0:0:0:0:
256,192,82790,1,8,0:0:0:0:
256,192,83240,1,0,0:0:0:0:
256,192,83390,1,8,0:0:0:0:
256,192,83540,1,8,0:0:0:0:
256,192,83840,1,0,0:0:0:0:
256,192,83990,1,8,0:0:0:0:
256,192,84140,1,8,0:0:0:0:
256,192,84215,1,8,0:0:0:0:
256,192,84290,1,8,0:0:0:0:
256,192,84440,1,0,0:0:0:0:
256,192,84590,1,8,0:0:0:0:
256,192,84890,1,0,0:0:0:0:
256,192,85190,1,8,0:0:0:0:
256,192,85490,1,8,0:0:0:0:
256,192,85640,1,0,0:0:0:0:
256,192,85790,1,8,0:0:0:0:
256,192,86090,1,0,0:0:0:0:
256,192,86240,1,8,0:0:0:0:
256,192,86315,1,8,0:0:0:0:
256,192,86390,1,8,0:0:0:0:
256,192,86690,1,8,0:0:0:0:
256,192,86840,1,0,0:0:0:0:
256,192,86915,1,0,0:0:0:0:
256,192,86990,1,0,0:0:0:0:
256,192,87140,1,8,0:0:0:0:
256,96,87290,5,4,0:0:0:0:
256,192,87740,1,8,0:0:0:0:
256,192,88040,1,0,0:0:0:0:
256,192,88190,1,8,0:0:0:0:
256,192,88490,1,0,0:0:0:0:
256,192,88790,1,8,0:0:0:0:
256,192,88940,1,8,0:0:0:0:
256,192,89015,1,8,0:0:0:0:
256,192,89090,1,8,0:0:0:0:
256,192,89390,1,8,0:0:0:0:
256,192,89540,1,0,0:0:0:0:
256,192,89615,1,0,0:0:0:0:
256,192,89690,1,0,0:0:0:0:
256,192,90140,1,0,0:0:0:0:
256,192,90440,1,0,0:0:0:0:
256,192,90590,1,8,0:0:0:0:
256,192,91040,1,0,0:0:0:0:
256,192,91190,1,8,0:0:0:0:
256,192,91340,1,8,0:0:0:0:
256,192,91415,1,8,0:0:0:0:
256,192,91490,1,8,0:0:0:0:
256,192,91640,1,0,0:0:0:0:
256,192,91790,1,8,0:0:0:0:
256,192,92090,1,0,0:0:0:0:
256,192,92390,1,8,0:0:0:0:
256,192,92540,1,0,0:0:0:0:
256,192,92840,1,8,0:0:0:0:
256,192,92915,1,8,0:0:0:0:
256,192,92990,1,8,0:0:0:0:
256,192,93140,1,0,0:0:0:0:
256,192,93290,1,8,0:0:0:0:
256,192,93740,1,8,0:0:0:0:
256,192,93815,1,8,0:0:0:0:
256,192,93890,1,8,0:0:0:0:
256,192,94040,1,0,0:0:0:0:
256,192,94490,1,0,0:0:0:0:
256,192,94640,1,8,0:0:0:0:
256,192,94790,1,0,0:0:0:0:
256,192,94940,1,8,0:0:0:0:
256,192,95240,1,0,0:0:0:0:
256,192,95390,1,8,0:0:0:0:
256,192,95690,1,0,0:0:0:0:
256,192,95990,1,0,0:0:0:0:
256,192,96065,1,0,0:0:0:0:
256,192,96140,1,0,0:0:0:0:
256,192,96290,1,8,0:0:0:0:
256,192,96590,1,8,0:0:0:0:
256,192,96665,1,8,0:0:0:0:
256,192,96740,1,8,0:0:0:0:
256,192,96890,1,0,0:0:0:0:
256,192,97190,1,8,0:0:0:0:
256,192,97340,1,0,0:0:0:0:
256,192,97640,1,8,0:0:0:0:
256,192,98090,1,0,0:0:0:0:
256,192,98390,1,8,0:0:0:0:
256,192,98690,1,0,0:0:0:0:
256,192,98765,1,0,0:0:0:0:
256,192,98840,1,0,0:0:0:0:
256,192,98990,1,0,0:0:0:0:
256,192,99140,1,8,0:0:0:0:
256,192,99290,1,0,0:0:0:0:
256,192,99590,1,8,0:0:0:0:
256,192,99740,1,0,0:0:0:0:
256,192,100040,1,8,0:0:0:0:
256,192,100190,1,8,0:0:0:0:
256,192,100265,1,8,0:0:0:0:
256,192,100340,1,8,0:0:0:0:
256,192,100490,1,0,0:0:0:0:
256,192,100640,1,8,0:0:0:0:
256,192,100790,1,0,0:0:0:0:
256,192,101090,1,8,0:0:0:0:
256,192,101390,1,0,0:0:0:0:
256,192,101540,1,8,0:0:0:0:
256,192,101690,1,0,0:0:0:0:
256,192,101990,1,8,0:0:0:0:
256,192,102440,1,0,0:0:0:0:
256,192,102590,1,8,0:0:0:0:
256,192,102890,1,0,0:0:0:0:
256,192,103190,1,8,0:0:0:0:
256,192,103340,1,0,0:0:0:0:
256,192,103415,1,0,0:0:0:0:
256,192,103490,1,0,0:0:0:0:
256,192,103640,1,0,0:0:0:0:
266,190,103790,1,8,0:0:0:0:
256,192,104090,1,0,0:0:0:0:
256,192,104390,1,8,0:0:0:0:
256,192,104840,1,0,0:0:0:0:
257,182,104990,1,8,0:0:0:0:
257,182,105290,1,0,0:0:0:0:
257,182,105440,1,0,0:0:0:0:
257,182,105590,1,8,0:0:0:0:
257,182,105890,1,0,0:0:0:0:
257,182,105965,1,0,0:0:0:0:
257,182,106040,1,0,0:0:0:0:
257,182,106190,1,8,0:0:0:0:
257,182,106340,1,8,0:0:0:0:
257,182,106490,1,0,0:0:0:0:
257,182,106790,1,8,0:0:0:0:
257,182,107240,1,0,0:0:0:0:
254,145,107390,1,8,0:0:0:0:
254,145,107540,1,8,0:0:0:0:
254,145,107690,1,0,0:0:0:0:
254,145,107990,1,8,0:0:0:0:
254,145,108290,1,0,0:0:0:0:
254,145,108365,1,0,0:0:0:0:
258,156,108440,1,0,0:0:0:0:
252,153,108590,1,8,0:0:0:0:
245,143,108890,1,0,0:0:0:0:
245,140,109190,1,8,0:0:0:0:
245,143,109640,1,0,0:0:0:0:
254,138,109790,1,8,0:0:0:0:
254,138,109865,1,8,0:0:0:0:
254,138,109940,1,8,0:0:0:0:
245,140,110090,1,0,0:0:0:0:
254,138,110390,1,8,0:0:0:0:
254,138,110540,1,0,0:0:0:0:
254,138,110690,1,8,0:0:0:0:
252,145,110765,1,8,0:0:0:0:
254,138,110840,1,8,0:0:0:0:
254,138,110990,1,0,0:0:0:0:
254,138,111140,1,8,0:0:0:0:
254,138,111290,1,0,0:0:0:0:
254,138,111590,1,8,0:0:0:0:
254,138,112040,1,0,0:0:0:0:
254,138,112190,1,8,0:0:0:0:
261,142,112340,1,8,0:0:0:0:
255,142,112490,1,0,0:0:0:0:
254,138,112790,1,0,0:0:0:0:
271,138,113090,1,0,0:0:0:0:
254,138,113165,1,0,0:0:0:0:
254,138,113240,1,0,0:0:0:0:
255,142,113390,1,0,0:0:0:0:
254,138,113690,1,8,0:0:0:0:
256,192,113990,1,8,0:0:0:0:
256,192,114140,1,0,0:0:0:0:
256,192,114290,1,8,0:0:0:0:
256,192,114740,8,0,115940,0:0:0:0:
242,169,116090,5,0,0:0:0:0:
262,182,124790,5,8,0:0:0:0:
262,182,125090,1,8,0:0:0:0:
252,171,125390,1,8,0:0:0:0:
256,192,135290,5,0,0:0:0:0:
256,192,136490,1,8,0:0:0:0:
256,192,137690,1,0,0:0:0:0:
256,192,138290,1,8,0:0:0:0:
256,192,138890,1,0,0:0:0:0:
256,192,140090,12,0,141140,0:0:0:0:
256,192,141290,12,0,142340,0:0:0:0:
256,192,142490,5,8,0:0:0:0:
256,192,142940,1,0,0:0:0:0:
256,192,143540,12,0,144740,0:0:0:0:
256,192,144890,5,0,0:0:0:0:
256,192,145340,1,0,0:0:0:0:
256,192,145790,1,8,0:0:0:0:
256,192,146540,1,8,0:0:0:0:
256,192,146690,1,8,0:0:0:0:
256,192,146990,1,0,0:0:0:0:
256,192,147140,1,8,0:0:0:0:
256,192,147290,1,0,0:0:0:0:
256,192,147740,1,0,0:0:0:0:
256,192,148190,1,0,0:0:0:0:
256,192,148790,1,8,0:0:0:0:
256,192,149690,1,0,0:0:0:0:
256,192,150140,1,0,0:0:0:0:
256,192,150590,1,8,0:0:0:0:
256,192,151190,1,0,0:0:0:0:
256,192,151340,1,8,0:0:0:0:
256,192,151490,1,0,0:0:0:0:
256,192,151640,1,0,0:0:0:0:
256,192,151790,1,8,0:0:0:0:
256,192,151940,1,8,0:0:0:0:
256,192,152090,1,0,0:0:0:0:
256,192,152540,1,0,0:0:0:0:
256,192,152990,1,8,0:0:0:0:
256,192,153290,1,0,0:0:0:0:
256,192,153365,1,0,0:0:0:0:
256,192,153440,1,0,0:0:0:0:
256,192,153590,1,8,0:0:0:0:
256,192,153890,1,8,0:0:0:0:
256,192,153965,1,8,0:0:0:0:
256,192,154040,1,8,0:0:0:0:
256,192,154190,1,0,0:0:0:0:
256,192,154490,1,0,0:0:0:0:
256,192,155090,1,8,0:0:0:0:
256,192,155390,1,0,0:0:0:0:
256,192,155540,1,8,0:0:0:0:
256,192,155690,1,0,0:0:0:0:
256,192,156140,1,8,0:0:0:0:
256,192,156290,1,8,0:0:0:0:
256,192,156440,1,0,0:0:0:0:
256,192,156590,1,8,0:0:0:0:
256,192,156740,1,0,0:0:0:0:
256,192,156890,1,0,0:0:0:0:
256,192,157490,1,8,0:0:0:0:
256,192,157790,1,8,0:0:0:0:
245,192,158090,1,0,0:0:0:0:
256,192,158390,1,0,0:0:0:0:
256,192,158690,1,8,0:0:0:0:
256,192,158990,1,8,0:0:0:0:
256,192,159290,1,0,0:0:0:0:
256,192,159890,1,8,0:0:0:0:
256,192,160190,1,0,0:0:0:0:
256,192,160340,1,8,0:0:0:0:
256,192,160490,1,0,0:0:0:0:
256,192,160790,1,8,0:0:0:0:
256,192,160940,1,0,0:0:0:0:
256,192,161090,1,8,0:0:0:0:
256,192,161390,1,0,0:0:0:0:
256,192,161690,1,0,0:0:0:0:
256,192,162290,1,8,0:0:0:0:
256,192,162590,1,8,0:0:0:0:
256,192,162890,1,0,0:0:0:0:
256,192,162965,1,0,0:0:0:0:
256,192,163040,1,0,0:0:0:0:
256,192,163190,1,8,0:0:0:0:
256,192,163490,1,8,0:0:0:0:
256,192,163565,1,8,0:0:0:0:
256,192,163640,1,8,0:0:0:0:
256,192,163790,1,0,0:0:0:0:
256,96,164090,5,4,0:0:0:0:
256,192,164390,1,8,0:0:0:0:
256,192,164840,1,0,0:0:0:0:
256,192,164990,1,8,0:0:0:0:
256,192,165140,1,8,0:0:0:0:
256,192,165290,1,0,0:0:0:0:
256,192,165590,1,8,0:0:0:0:
256,192,165740,1,8,0:0:0:0:
256,192,165815,1,8,0:0:0:0:
256,192,165890,1,8,0:0:0:0:
256,192,166040,1,0,0:0:0:0:
256,192,166190,1,8,0:0:0:0:
256,192,166490,1,0,0:0:0:0:
256,192,166790,1,8,0:0:0:0:
256,192,166940,1,8,0:0:0:0:
256,192,167090,1,0,0:0:0:0:
256,192,167390,1,8,0:0:0:0:
256,192,167690,1,8,0:0:0:0:
256,192,167840,1,0,0:0:0:0:
256,192,167990,1,8,0:0:0:0:
256,192,168290,1,8,0:0:0:0:
256,192,168365,1,8,0:0:0:0:
256,192,168440,1,8,0:0:0:0:
256,192,168590,1,0,0:0:0:0:
256,192,168740,1,8,0:0:0:0:
256,192,168890,1,0,0:0:0:0:
256,192,169190,1,8,0:0:0:0:
256,192,169640,1,0,0:0:0:0:
256,192,169790,1,8,0:0:0:0:
256,192,170090,1,0,0:0:0:0:
256,192,170390,1,8,0:0:0:0:
256,192,170540,1,8,0:0:0:0:
256,192,170615,1,8,0:0:0:0:
256,192,170690,1,8,0:0:0:0:
256,192,170840,1,0,0:0:0:0:
256,192,170990,1,8,0:0:0:0:
256,192,171290,1,0,0:0:0:0:
256,192,171590,1,8,0:0:0:0:
244,174,171890,1,0,0:0:0:0:
256,192,172040,1,0,0:0:0:0:
256,192,172190,1,8,0:0:0:0:
256,192,172340,1,0,0:0:0:0:
256,192,172490,1,0,0:0:0:0:
256,192,172790,1,0,0:0:0:0:
256,192,172940,1,8,0:0:0:0:
256,192,173015,1,8,0:0:0:0:
256,192,173090,1,8,0:0:0:0:
256,192,173240,1,0,0:0:0:0:
256,192,173390,1,8,0:0:0:0:
256,96,173690,5,4,0:0:0:0:
256,192,173990,1,8,0:0:0:0:
256,192,174440,1,0,0:0:0:0:
256,192,174590,1,8,0:0:0:0:
256,192,174740,1,8,0:0:0:0:
256,192,174890,1,0,0:0:0:0:
256,192,175190,1,8,0:0:0:0:
256,192,175340,1,8,0:0:0:0:
256,192,175415,1,8,0:0:0:0:
256,192,175490,1,8,0:0:0:0:
256,192,175640,1,0,0:0:0:0:
256,192,175790,1,8,0:0:0:0:
256,192,176090,1,0,0:0:0:0:
256,192,176390,1,8,0:0:0:0:
256,192,176540,1,0,0:0:0:0:
256,192,176690,1,0,0:0:0:0:
256,192,176990,1,8,0:0:0:0:
256,192,177290,1,8,0:0:0:0:
256,192,177440,1,0,0:0:0:0:
256,192,177590,1,8,0:0:0:0:
256,192,177890,1,8,0:0:0:0:
256,192,177965,1,8,0:0:0:0:
256,192,178040,1,8,0:0:0:0:
256,192,178190,1,8,0:0:0:0:
256,192,178490,1,0,0:0:0:0:
256,192,178790,1,8,0:0:0:0:
256,192,179240,1,0,0:0:0:0:
256,192,179390,1,8,0:0:0:0:
256,192,179540,1,8,0:0:0:0:
256,192,179840,1,0,0:0:0:0:
256,192,179990,1,8,0:0:0:0:
256,192,180140,1,8,0:0:0:0:
256,192,180215,1,8,0:0:0:0:
256,192,180290,1,8,0:0:0:0:
256,192,180440,1,0,0:0:0:0:
256,192,180590,1,8,0:0:0:0:
256,192,180890,1,0,0:0:0:0:
256,192,181190,1,8,0:0:0:0:
262,167,181490,1,8,0:0:0:0:
256,192,181640,1,0,0:0:0:0:
256,192,181790,1,8,0:0:0:0:
256,192,181940,1,0,0:0:0:0:
256,192,182090,1,0,0:0:0:0:
256,192,182390,1,0,0:0:0:0:
256,192,182540,1,8,0:0:0:0:
256,192,182615,1,8,0:0:0:0:
256,192,182690,1,8,0:0:0:0:
256,192,182840,1,0,0:0:0:0:
256,192,182990,1,8,0:0:0:0:
256,96,183290,5,4,0:0:0:0:
256,192,183740,1,0,0:0:0:0:
256,192,184040,1,0,0:0:0:0:
256,192,184190,1,8,0:0:0:0:
256,192,184340,1,8,0:0:0:0:
256,192,184490,1,0,0:0:0:0:
256,192,184790,1,8,0:0:0:0:
256,192,184940,1,8,0:0:0:0:
256,192,185090,1,8,0:0:0:0:
256,192,185240,1,0,0:0:0:0:
256,192,185390,1,8,0:0:0:0:
256,192,185540,1,0,0:0:0:0:
256,192,185690,1,0,0:0:0:0:
256,192,186140,1,0,0:0:0:0:
256,192,186440,1,0,0:0:0:0:
256,192,186590,1,8,0:0:0:0:
256,192,186740,1,0,0:0:0:0:
256,192,186890,1,0,0:0:0:0:
256,192,187190,1,8,0:0:0:0:
256,192,187340,1,8,0:0:0:0:
256,192,187490,1,8,0:0:0:0:
256,192,187640,1,0,0:0:0:0:
256,192,187790,1,8,0:0:0:0:
256,192,188090,1,0,0:0:0:0:
256,192,188540,1,0,0:0:0:0:
256,192,188840,1,0,0:0:0:0:
256,192,188990,1,8,0:0:0:0:
256,192,189290,1,8,0:0:0:0:
256,192,189590,1,8,0:0:0:0:
256,192,189740,1,0,0:0:0:0:
256,192,189890,1,0,0:0:0:0:
256,192,190040,1,0,0:0:0:0:
256,192,190190,1,8,0:0:0:0:
256,192,190340,1,8,0:0:0:0:
256,192,190490,1,0,0:0:0:0:
256,192,190940,1,0,0:0:0:0:
256,192,191090,1,8,0:0:0:0:
256,192,191240,1,0,0:0:0:0:
256,192,191390,1,8,0:0:0:0:
256,192,191540,1,8,0:0:0:0:
256,192,191690,1,0,0:0:0:0:
256,192,191990,1,0,0:0:0:0:
256,192,192065,1,0,0:0:0:0:
256,192,192140,1,0,0:0:0:0:
256,192,192290,1,8,0:0:0:0:
256,192,192590,1,8,0:0:0:0:
256,192,192665,1,8,0:0:0:0:
256,192,192740,1,8,0:0:0:0:
256,192,192890,1,0,0:0:0:0:
256,192,193340,1,0,0:0:0:0:
256,192,193640,1,0,0:0:0:0:
256,192,193790,1,8,0:0:0:0:
256,192,193940,1,8,0:0:0:0:
256,192,194090,1,0,0:0:0:0:
256,192,194390,1,8,0:0:0:0:
256,192,194540,1,8,0:0:0:0:
256,192,194690,1,8,0:0:0:0:
256,192,194840,1,0,0:0:0:0:
256,192,194990,1,8,0:0:0:0:
256,192,195140,1,0,0:0:0:0:
256,192,195290,1,0,0:0:0:0:
256,192,195740,1,0,0:0:0:0:
256,192,196040,1,0,0:0:0:0:
256,192,196190,1,8,0:0:0:0:
256,192,196340,1,0,0:0:0:0:
256,192,196490,1,0,0:0:0:0:
256,192,196790,1,8,0:0:0:0:
256,192,196940,1,8,0:0:0:0:
256,192,197090,1,8,0:0:0:0:
256,192,197240,1,0,0:0:0:0:
256,192,197390,1,8,0:0:0:0:
256,192,197690,1,0,0:0:0:0:
256,192,198140,1,0,0:0:0:0:
256,192,198440,1,0,0:0:0:0:
256,192,198590,1,8,0:0:0:0:
256,192,198740,1,8,0:0:0:0:
256,192,199040,1,0,0:0:0:0:
256,192,199190,1,8,0:0:0:0:
256,192,199340,1,0,0:0:0:0:
256,192,199490,1,0,0:0:0:0:
256,192,199640,1,0,0:0:0:0:
256,192,199790,1,8,0:0:0:0:
256,192,199940,1,8,0:0:0:0:
256,192,200090,1,0,0:0:0:0:
256,192,200540,1,0,0:0:0:0:
256,192,200690,1,8,0:0:0:0:
256,192,200840,1,0,0:0:0:0:
256,192,200990,1,8,0:0:0:0:
256,192,201140,1,8,0:0:0:0:
256,192,201290,1,0,0:0:0:0:
256,192,201590,1,0,0:0:0:0:
256,192,201665,1,0,0:0:0:0:
256,192,201740,1,0,0:0:0:0:
256,192,201890,1,8,0:0:0:0:
256,192,202190,1,8,0:0:0:0:
256,192,202265,1,8,0:0:0:0:
256,192,202340,1,8,0:0:0:0:
256,192,202490,1,0,0:0:0:0:
265,189,202940,1,0,0:0:0:0:
279,204,203390,1,8,0:0:0:0:
279,204,204140,1,8,0:0:0:0:
279,204,204290,1,8,0:0:0:0:
279,204,204590,1,8,0:0:0:0:
279,204,204740,1,0,0:0:0:0:
279,204,204890,1,8,0:0:0:0:
279,204,205340,1,0,0:0:0:0:
279,204,205790,1,8,0:0:0:0:
279,204,206390,1,8,0:0:0:0:
279,204,207290,1,0,0:0:0:0:
279,204,207740,1,0,0:0:0:0:
279,204,208190,1,8,0:0:0:0:
279,204,209690,1,8,0:0:0:0:
279,204,210140,1,8,0:0:0:0:
279,204,210590,1,0,0:0:0:0:
