osu file format v14

[General]
AudioFilename: audio.ogg
AudioLeadIn: 0
PreviewTime: 144890
Countdown: 1
SampleSet: Normal
StackLeniency: 0.7
Mode: 1
LetterboxInBreaks: 0
WidescreenStoryboard: 1

[Editor]
Bookmarks: 890,10490,20090,29690,39290,48890,58490,68090,72890,77690,87290,96890,101690,116090,125690,135290,144890,154490,164090,173690,183290,192890,202490
DistanceSpacing: 1.2
BeatDivisor: 2
GridSize: 32
TimelineZoom: 1.599999

[Metadata]
Title:LANA - Kiroku no Kakera (sasakure.UK Framework Remix) -
TitleUnicode:LANA - キロクノカケラ (sasakure.UK Framework Remix) -
Artist:TOMOSUKE x Jazzin'park
ArtistUnicode:TOMOSUKE×Jazzin'park
Creator:gaston_2199
Version:Futsuu
Source:jubeat saucer
Tags:- a Piece of Memories - 村上来渚 Murakami 栗原暁 Satoru Kurihara 久保田真悟 Singo Kubota ささくれP SasakureP 舟木智介 Funaki ゼクトバッハ Zektbach ジャジンパーク full version pop jpop video game electronic japanese famale vocal Axer _DUSK_ -Dusk Dusk- Megafan
BeatmapID:3001813
BeatmapSetID:925255

[Difficulty]
HPDrainRate:7
CircleSize:2
OverallDifficulty:3
ApproachRate:10
SliderMultiplier:1.4
SliderTickRate:1

[Events]
//Background and Video events
0,0,"BG.jpg",0,0
//Break Periods
2,116290,124340
2,125690,134840
//Storyboard Layer 0 (Background)
//Storyboard Layer 1 (Fail)
//Storyboard Layer 2 (Pass)
//Storyboard Layer 3 (Foreground)
//Storyboard Layer 4 (Overlay)
//Storyboard Sound Samples

[TimingPoints]
890,300,4,1,0,60,1,0
890,-133.333333333333,4,1,0,60,0,0
10490,-125,4,1,0,70,0,0
20090,-100,4,1,0,80,0,0
48890,-111.111111111111,4,1,0,70,0,0
57890,-114.942528735632,4,1,0,70,0,0
58190,-120.481927710843,4,1,0,70,0,0
58490,-125,4,1,0,60,0,0
68090,-111.111111111111,4,1,0,80,0,0
76490,-125,4,1,0,80,0,0
76790,-121.231224314134,4,1,0,80,0,0
77090,-117.682917500744,4,1,0,80,0,0
77390,-114.336545046884,4,1,0,80,0,0
77690,-100,4,1,0,90,0,1
87290,-100,4,1,0,80,0,0
96890,-111.111111111111,4,1,0,80,0,0
97040,-111.111111111111,4,1,0,70,0,0
101690,-100,4,1,0,80,0,0
113690,-111.111111111111,4,1,0,70,0,0
116240,-125,4,1,0,70,0,0
135290,-125,4,1,0,60,0,0
144890,-125,4,1,0,70,0,0
153290,-121.951219512195,4,1,0,70,0,0
153590,-119.047619047619,4,1,0,70,0,0
153890,-116.279069767442,4,1,0,70,0,0
154190,-113.636363636364,4,1,0,70,0,0
154490,-111.111111111111,4,1,0,80,0,0
162890,-108.695652173913,4,1,0,80,0,0
163190,-106.382978723404,4,1,0,80,0,0
163490,-104.166666666667,4,1,0,80,0,0
163790,-102.040816326531,4,1,0,80,0,0
164090,-100,4,1,0,90,0,1
183290,-100,4,1,0,80,0,0
202940,-125,4,1,0,70,0,0

[HitObjects]
256,192,890,5,0,0:0:0:0:
256,192,2090,1,0,0:0:0:0:
256,192,3290,1,0,0:0:0:0:
256,192,4490,1,0,0:0:0:0:
256,192,5090,1,8,0:0:0:0:
256,192,5690,1,0,0:0:0:0:
256,192,6890,1,0,0:0:0:0:
256,192,8090,1,0,0:0:0:0:
256,192,9290,1,0,0:0:0:0:
256,192,9890,1,8,0:0:0:0:
256,192,10490,1,0,0:0:0:0:
256,192,11690,1,8,0:0:0:0:
256,192,12890,1,0,0:0:0:0:
256,192,14090,1,8,0:0:0:0:
256,192,14690,1,8,0:0:0:0:
256,192,15290,1,0,0:0:0:0:
256,192,16490,1,8,0:0:0:0:
256,192,17690,1,8,0:0:0:0:
256,192,18140,1,8,0:0:0:0:
256,192,18740,8,0,19790,0:0:0:0:
256,96,20090,5,4,0:0:0:0:
256,192,20540,1,0,0:0:0:0:
256,192,21290,1,0,0:0:0:0:
257,183,21740,1,0,0:0:0:0:
256,192,21890,1,8,0:0:0:0:
256,192,22190,1,0,0:0:0:0:
256,192,22340,1,8,0:0:0:0:
256,192,22490,1,0,0:0:0:0:
256,192,22940,1,0,0:0:0:0:
256,192,23240,1,8,0:0:0:0:
256,192,23690,1,0,0:0:0:0:
136,108,23990,1,0,0:0:0:0:
256,192,24290,1,8,0:0:0:0:
256,192,24890,1,0,0:0:0:0:
256,192,25340,1,0,0:0:0:0:
256,192,26090,1,0,0:0:0:0:
256,192,26540,1,0,0:0:0:0:
256,192,26690,1,8,0:0:0:0:
256,192,26990,1,0,0:0:0:0:
256,192,27140,1,8,0:0:0:0:
256,192,27290,1,0,0:0:0:0:
256,192,27740,1,0,0:0:0:0:
256,192,28040,1,8,0:0:0:0:
256,192,28490,1,0,0:0:0:0:
256,192,28790,1,0,0:0:0:0:
256,192,29090,1,0,0:0:0:0:
256,96,29690,5,4,0:0:0:0:
256,192,30140,1,0,0:0:0:0:
256,192,30890,1,0,0:0:0:0:
256,192,31190,1,8,0:0:0:0:
256,192,31490,1,0,0:0:0:0:
221,136,31640,1,0,0:0:0:0:
256,192,31790,1,8,0:0:0:0:
256,192,32090,1,0,0:0:0:0:
256,192,32540,1,0,0:0:0:0:
256,192,32990,1,8,0:0:0:0:
256,192,33140,1,0,0:0:0:0:
256,192,33290,1,8,0:0:0:0:
256,192,33590,1,8,0:0:0:0:
256,192,33890,1,0,0:0:0:0:
256,192,34490,1,0,0:0:0:0:
256,192,34940,1,0,0:0:0:0:
256,192,35240,1,8,0:0:0:0:
256,192,35690,1,0,0:0:0:0:
256,192,35990,1,8,0:0:0:0:
256,192,36290,1,8,0:0:0:0:
256,192,36440,1,0,0:0:0:0:
256,192,36590,1,8,0:0:0:0:
256,192,36890,1,0,0:0:0:0:
256,192,37340,1,0,0:0:0:0:
256,192,37640,1,8,0:0:0:0:
256,192,38090,1,0,0:0:0:0:
256,192,38390,1,0,0:0:0:0:
256,192,38690,1,8,0:0:0:0:
256,192,38990,1,0,0:0:0:0:
256,192,39140,1,8,0:0:0:0:
256,192,39290,1,0,0:0:0:0:
256,192,39740,1,0,0:0:0:0:
256,192,40490,1,0,0:0:0:0:
256,192,40790,1,8,0:0:0:0:
256,192,41090,1,0,0:0:0:0:
256,192,41240,1,0,0:0:0:0:
256,192,41390,1,8,0:0:0:0:
256,192,41690,1,0,0:0:0:0:
256,192,42140,1,0,0:0:0:0:
256,192,42590,1,8,0:0:0:0:
212,123,42740,1,0,0:0:0:0:
256,192,42890,1,8,0:0:0:0:
256,192,43190,1,8,0:0:0:0:
256,192,43490,1,0,0:0:0:0:
256,192,44090,1,0,0:0:0:0:
256,192,44540,1,0,0:0:0:0:
256,192,44840,1,8,0:0:0:0:
256,192,45290,1,0,0:0:0:0:
256,192,45590,1,8,0:0:0:0:
256,192,45890,1,8,0:0:0:0:
256,192,46040,1,0,0:0:0:0:
188,82,46190,1,8,0:0:0:0:
256,192,46490,1,0,0:0:0:0:
256,192,46940,1,0,0:0:0:0:
256,192,47240,1,8,0:0:0:0:
256,192,47540,1,0,0:0:0:0:
256,192,47990,1,0,0:0:0:0:
256,192,48290,1,8,0:0:0:0:
256,192,48890,1,0,0:0:0:0:
256,192,49340,1,0,0:0:0:0:
256,192,50090,1,8,0:0:0:0:
160,96,50390,1,8,0:0:0:0:
256,192,50540,1,0,0:0:0:0:
256,192,51290,1,0,0:0:0:0:
256,192,51740,1,0,0:0:0:0:
244,70,52490,1,8,0:0:0:0:
160,96,52790,1,0,0:0:0:0:
256,192,52940,1,8,0:0:0:0:
256,192,53690,1,0,0:0:0:0:
256,192,54140,1,0,0:0:0:0:
256,192,54890,1,8,0:0:0:0:
160,96,55190,1,8,0:0:0:0:
137,45,55340,1,0,0:0:0:0:
256,192,55490,1,8,0:0:0:0:
256,192,56090,1,0,0:0:0:0:
256,192,56390,1,0,0:0:0:0:
256,192,56690,1,8,0:0:0:0:
256,192,57140,1,0,0:0:0:0:
256,192,57890,1,0,0:0:0:0:
256,192,58190,1,8,0:0:0:0:
256,192,58490,1,0,0:0:0:0:
256,192,59090,1,8,0:0:0:0:
199,15,59690,1,0,0:0:0:0:
256,192,59990,1,8,0:0:0:0:
256,192,60290,1,0,0:0:0:0:
256,192,60890,1,0,0:0:0:0:
256,192,61490,1,8,0:0:0:0:
256,192,62090,1,0,0:0:0:0:
238,87,62390,1,0,0:0:0:0:
256,192,62690,1,8,0:0:0:0:
256,192,63290,1,0,0:0:0:0:
256,192,63890,1,8,0:0:0:0:
256,192,64490,1,0,0:0:0:0:
256,192,65090,1,8,0:0:0:0:
256,192,65690,1,0,0:0:0:0:
256,192,66740,8,0,67940,0:0:0:0:
256,192,68090,5,0,0:0:0:0:
256,192,68690,1,8,0:0:0:0:
160,128,68990,1,0,0:0:0:0:
256,192,69290,1,0,0:0:0:0:
256,192,69740,1,0,0:0:0:0:
256,192,69890,1,8,0:0:0:0:
256,192,70190,1,8,0:0:0:0:
256,192,70490,1,0,0:0:0:0:
256,192,71090,1,8,0:0:0:0:
160,128,71390,1,0,0:0:0:0:
245,192,71690,1,8,0:0:0:0:
256,192,72290,1,8,0:0:0:0:
256,192,72890,1,0,0:0:0:0:
256,192,73490,1,8,0:0:0:0:
160,96,73790,1,8,0:0:0:0:
256,192,74090,1,0,0:0:0:0:
256,192,74540,1,0,0:0:0:0:
256,192,74690,1,8,0:0:0:0:
256,192,74990,1,8,0:0:0:0:
256,192,75290,1,0,0:0:0:0:
256,192,75890,1,8,0:0:0:0:
256,192,76490,1,0,0:0:0:0:
256,192,76790,1,0,0:0:0:0:
256,192,77090,1,8,0:0:0:0:
256,192,77390,1,8,0:0:0:0:
256,96,77690,5,4,0:0:0:0:
256,192,78290,1,8,0:0:0:0:
256,192,78590,1,8,0:0:0:0:
256,192,78890,1,0,0:0:0:0:
256,192,79190,1,8,0:0:0:0:
256,192,79340,1,8,0:0:0:0:
256,192,79490,1,0,0:0:0:0:
256,192,79790,1,8,0:0:0:0:
256,192,80090,1,0,0:0:0:0:
256,192,80390,1,0,0:0:0:0:
256,192,80690,1,8,0:0:0:0:
256,192,80990,1,8,0:0:0:0:
256,192,81290,1,0,0:0:0:0:
256,192,81590,1,8,0:0:0:0:
256,192,81890,1,8,0:0:0:0:
256,192,82040,1,8,0:0:0:0:
256,192,82190,1,8,0:0:0:0:
256,192,82490,1,0,0:0:0:0:
256,192,82790,1,8,0:0:0:0:
256,192,83390,1,8,0:0:0:0:
256,192,83540,1,8,0:0:0:0:
256,192,83840,1,0,0:0:0:0:
256,192,83990,1,8,0:0:0:0:
256,192,84290,1,0,0:0:0:0:
256,192,84590,1,8,0:0:0:0:
256,192,84890,1,0,0:0:0:0:
256,192,85490,1,8,0:0:0:0:
256,192,86090,1,0,0:0:0:0:
256,192,86390,1,0,0:0:0:0:
256,192,86690,1,8,0:0:0:0:
256,192,86990,1,8,0:0:0:0:
256,96,87290,5,4,0:0:0:0:
256,192,87740,1,0,0:0:0:0:
167,46,88190,1,8,0:0:0:0:
256,192,88490,1,0,0:0:0:0:
256,192,88790,1,8,0:0:0:0:
216,127,88940,1,0,0:0:0:0:
256,192,89090,1,8,0:0:0:0:
256,192,89690,1,0,0:0:0:0:
256,192,90140,1,0,0:0:0:0:
141,4,90590,1,8,0:0:0:0:
207,55,90890,1,0,0:0:0:0:
256,192,91190,1,8,0:0:0:0:
256,192,91340,1,0,0:0:0:0:
256,192,91490,1,8,0:0:0:0:
256,192,91790,1,8,0:0:0:0:
256,192,92090,1,0,0:0:0:0:
256,192,92540,1,0,0:0:0:0:
169,33,92990,1,8,0:0:0:0:
256,192,93290,1,0,0:0:0:0:
130,83,93590,1,8,0:0:0:0:
256,192,93740,1,0,0:0:0:0:
256,192,93890,1,8,0:0:0:0:
256,192,94490,1,0,0:0:0:0:
256,192,94940,1,0,0:0:0:0:
256,192,95390,1,8,0:0:0:0:
256,192,95690,1,0,0:0:0:0:
256,192,95990,1,0,0:0:0:0:
256,192,96290,1,8,0:0:0:0:
160,96,96590,1,8,0:0:0:0:
256,192,96890,1,0,0:0:0:0:
256,192,97340,1,0,0:0:0:0:
256,192,98090,1,0,0:0:0:0:
256,192,98390,1,0,0:0:0:0:
256,192,98690,1,8,0:0:0:0:
179,74,98990,1,0,0:0:0:0:
213,54,99140,1,8,0:0:0:0:
256,192,99290,1,0,0:0:0:0:
256,192,99740,1,0,0:0:0:0:
256,192,100190,1,8,0:0:0:0:
256,192,100490,1,0,0:0:0:0:
256,192,100790,1,0,0:0:0:0:
256,192,101090,1,8,0:0:0:0:
256,192,101690,1,4,0:0:0:0:
256,192,102140,1,0,0:0:0:0:
256,192,102590,1,8,0:0:0:0:
256,192,102890,1,0,0:0:0:0:
256,192,103190,1,8,0:0:0:0:
256,192,103340,1,0,0:0:0:0:
256,192,103490,1,0,0:0:0:0:
266,190,103790,1,8,0:0:0:0:
256,192,104090,1,0,0:0:0:0:
256,192,104540,1,0,0:0:0:0:
257,182,104990,1,8,0:0:0:0:
257,182,105290,1,0,0:0:0:0:
257,182,105590,1,8,0:0:0:0:
160,96,105740,1,0,0:0:0:0:
257,182,105890,1,8,0:0:0:0:
257,182,106490,1,0,0:0:0:0:
257,182,106940,1,0,0:0:0:0:
160,64,107390,1,8,0:0:0:0:
254,145,107690,1,0,0:0:0:0:
254,145,107990,1,8,0:0:0:0:
254,145,108290,1,0,0:0:0:0:
258,156,108440,1,0,0:0:0:0:
252,153,108590,1,8,0:0:0:0:
245,143,108890,1,0,0:0:0:0:
245,140,109340,1,0,0:0:0:0:
254,138,109790,1,8,0:0:0:0:
245,140,110090,1,0,0:0:0:0:
254,138,110390,1,8,0:0:0:0:
254,138,110540,1,0,0:0:0:0:
254,138,110690,1,8,0:0:0:0:
254,138,111290,1,0,0:0:0:0:
254,138,111740,1,0,0:0:0:0:
254,138,112190,1,8,0:0:0:0:
255,142,112490,1,0,0:0:0:0:
254,138,112790,1,0,0:0:0:0:
271,138,113090,1,8,0:0:0:0:
192,128,113390,1,8,0:0:0:0:
254,138,113690,1,0,0:0:0:0:
256,192,114740,8,0,115940,0:0:0:0:
242,169,116090,5,0,0:0:0:0:
262,182,124790,5,0,0:0:0:0:
262,182,125090,1,8,0:0:0:0:
252,171,125390,1,8,0:0:0:0:
256,192,135290,5,0,0:0:0:0:
256,192,135890,1,8,0:0:0:0:
199,15,136490,1,0,0:0:0:0:
256,192,136790,1,8,0:0:0:0:
256,192,137090,1,0,0:0:0:0:
256,192,137690,1,0,0:0:0:0:
256,192,138290,1,8,0:0:0:0:
256,192,138890,1,0,0:0:0:0:
238,87,139190,1,0,0:0:0:0:
256,192,139490,1,8,0:0:0:0:
211,114,139790,1,8,0:0:0:0:
256,192,140090,1,0,0:0:0:0:
256,192,140690,1,8,0:0:0:0:
256,192,141290,1,0,0:0:0:0:
256,192,141890,1,8,0:0:0:0:
256,192,142490,1,0,0:0:0:0:
256,192,143540,12,0,144740,0:0:0:0:
256,192,144890,5,0,0:0:0:0:
256,192,145790,1,8,0:0:0:0:
256,192,146690,1,8,0:0:0:0:
256,192,146990,1,8,0:0:0:0:
256,192,147290,1,0,0:0:0:0:
256,192,148190,1,0,0:0:0:0:
256,192,148790,1,8,0:0:0:0:
256,192,149690,1,0,0:0:0:0:
256,192,150590,1,8,0:0:0:0:
256,192,151340,1,0,0:0:0:0:
256,192,151490,1,8,0:0:0:0:
256,192,151790,1,8,0:0:0:0:
256,192,152090,1,0,0:0:0:0:
256,192,152990,1,8,0:0:0:0:
256,192,153290,1,0,0:0:0:0:
256,192,153590,1,0,0:0:0:0:
256,192,153890,1,8,0:0:0:0:
256,192,154190,1,8,0:0:0:0:
256,192,154490,1,0,0:0:0:0:
256,192,155090,1,8,0:0:0:0:
256,192,155390,1,8,0:0:0:0:
256,192,155690,1,0,0:0:0:0:
160,64,156140,1,0,0:0:0:0:
256,192,156290,1,8,0:0:0:0:
256,192,156590,1,8,0:0:0:0:
256,192,156890,1,0,0:0:0:0:
256,192,157490,1,8,0:0:0:0:
128,64,157790,1,0,0:0:0:0:
245,192,158090,1,8,0:0:0:0:
256,192,158690,1,8,0:0:0:0:
256,192,159290,1,0,0:0:0:0:
256,192,159890,1,8,0:0:0:0:
256,192,160190,1,8,0:0:0:0:
256,192,160490,1,0,0:0:0:0:
256,192,160790,1,8,0:0:0:0:
192,64,161390,1,8,0:0:0:0:
256,192,161690,1,0,0:0:0:0:
256,192,162290,1,8,0:0:0:0:
256,192,162890,1,0,0:0:0:0:
256,192,163190,1,0,0:0:0:0:
256,192,163490,1,8,0:0:0:0:
256,192,163790,1,8,0:0:0:0:
256,96,164090,5,4,0:0:0:0:
256,192,164690,1,8,0:0:0:0:
256,192,164990,1,8,0:0:0:0:
256,192,165290,1,0,0:0:0:0:
256,192,165590,1,8,0:0:0:0:
256,192,165740,1,0,0:0:0:0:
256,192,165890,1,8,0:0:0:0:
256,192,166190,1,8,0:0:0:0:
256,192,166490,1,0,0:0:0:0:
256,192,166790,1,8,0:0:0:0:
256,192,167090,1,0,0:0:0:0:
252,186,167240,1,0,0:0:0:0:
256,192,167390,1,8,0:0:0:0:
256,192,167690,1,0,0:0:0:0:
256,192,167990,1,8,0:0:0:0:
256,192,168290,1,8,0:0:0:0:
256,192,168440,1,8,0:0:0:0:
256,192,168590,1,8,0:0:0:0:
256,192,168890,1,0,0:0:0:0:
256,192,169490,1,8,0:0:0:0:
256,192,169790,1,8,0:0:0:0:
256,192,170090,1,0,0:0:0:0:
256,192,170390,1,8,0:0:0:0:
256,192,170540,1,0,0:0:0:0:
256,192,170690,1,8,0:0:0:0:
256,192,170990,1,8,0:0:0:0:
256,192,171290,1,0,0:0:0:0:
256,192,171590,1,8,0:0:0:0:
256,192,172190,1,8,0:0:0:0:
256,192,172490,1,0,0:0:0:0:
256,192,172790,1,0,0:0:0:0:
256,192,173090,1,8,0:0:0:0:
256,192,173390,1,8,0:0:0:0:
256,192,173540,1,8,0:0:0:0:
256,96,173690,5,4,0:0:0:0:
256,192,174290,1,8,0:0:0:0:
256,192,174590,1,8,0:0:0:0:
256,192,174890,1,0,0:0:0:0:
256,192,175190,1,8,0:0:0:0:
256,192,175340,1,8,0:0:0:0:
256,192,175490,1,0,0:0:0:0:
256,192,175790,1,8,0:0:0:0:
256,192,176090,1,0,0:0:0:0:
256,192,176390,1,0,0:0:0:0:
256,192,176690,1,8,0:0:0:0:
256,192,176840,1,0,0:0:0:0:
256,192,176990,1,8,0:0:0:0:
256,192,177290,1,0,0:0:0:0:
256,192,177590,1,8,0:0:0:0:
256,192,177890,1,8,0:0:0:0:
256,192,178040,1,8,0:0:0:0:
256,192,178190,1,8,0:0:0:0:
256,192,178490,1,0,0:0:0:0:
256,192,178790,1,8,0:0:0:0:
256,192,179390,1,8,0:0:0:0:
256,192,179540,1,8,0:0:0:0:
256,192,179840,1,0,0:0:0:0:
256,192,179990,1,8,0:0:0:0:
256,192,180290,1,0,0:0:0:0:
256,192,180590,1,8,0:0:0:0:
256,192,180890,1,0,0:0:0:0:
256,192,181490,1,8,0:0:0:0:
256,192,182090,1,0,0:0:0:0:
256,192,182390,1,0,0:0:0:0:
256,192,182690,1,8,0:0:0:0:
256,192,182990,1,8,0:0:0:0:
256,96,183290,5,4,0:0:0:0:
256,192,183740,5,0,0:0:0:0:
256,192,184190,1,8,0:0:0:0:
128,128,184790,1,8,0:0:0:0:
256,192,184940,1,8,0:0:0:0:
256,192,185090,1,0,0:0:0:0:
256,192,185390,1,8,0:0:0:0:
256,192,185690,1,0,0:0:0:0:
256,192,186140,1,0,0:0:0:0:
256,192,186590,1,8,0:0:0:0:
256,192,186890,1,0,0:0:0:0:
256,192,187190,1,8,0:0:0:0:
256,192,187340,1,0,0:0:0:0:
256,192,187490,1,8,0:0:0:0:
192,96,187790,1,8,0:0:0:0:
256,192,188090,1,0,0:0:0:0:
256,192,188540,1,0,0:0:0:0:
256,192,188990,1,8,0:0:0:0:
256,192,189590,1,8,0:0:0:0:
256,192,189740,1,0,0:0:0:0:
256,192,189890,1,0,0:0:0:0:
256,192,190190,1,8,0:0:0:0:
256,192,190490,1,0,0:0:0:0:
256,192,190940,1,0,0:0:0:0:
256,192,191390,1,8,0:0:0:0:
256,192,191690,1,0,0:0:0:0:
256,192,191990,1,0,0:0:0:0:
256,192,192290,1,8,0:0:0:0:
256,192,192590,1,8,0:0:0:0:
256,192,192890,1,0,0:0:0:0:
256,192,193340,1,0,0:0:0:0:
256,192,193790,1,8,0:0:0:0:
192,96,194390,1,8,0:0:0:0:
256,192,194540,1,8,0:0:0:0:
256,192,194690,1,0,0:0:0:0:
256,192,194990,1,8,0:0:0:0:
256,192,195290,1,0,0:0:0:0:
256,192,195740,1,0,0:0:0:0:
256,192,196190,1,8,0:0:0:0:
128,64,196490,1,0,0:0:0:0:
256,192,196790,1,8,0:0:0:0:
256,192,196940,1,0,0:0:0:0:
256,192,197090,1,8,0:0:0:0:
128,64,197390,1,8,0:0:0:0:
256,192,197690,1,0,0:0:0:0:
256,192,198140,1,0,0:0:0:0:
256,192,198590,1,8,0:0:0:0:
256,192,199190,1,8,0:0:0:0:
256,192,199340,1,0,0:0:0:0:
256,192,199490,1,0,0:0:0:0:
256,192,199790,1,8,0:0:0:0:
256,192,200090,1,0,0:0:0:0:
256,192,200540,1,0,0:0:0:0:
256,192,200990,1,8,0:0:0:0:
256,192,201290,1,0,0:0:0:0:
256,192,201590,1,0,0:0:0:0:
256,192,201890,1,8,0:0:0:0:
256,192,202190,1,8,0:0:0:0:
256,192,202490,1,0,0:0:0:0:
279,204,203390,1,8,0:0:0:0:
279,204,204290,1,8,0:0:0:0:
279,204,204590,1,8,0:0:0:0:
279,204,204890,1,0,0:0:0:0:
279,204,205790,1,0,0:0:0:0:
279,204,206390,1,8,0:0:0:0:
279,204,207290,1,0,0:0:0:0:
279,204,208190,1,8,0:0:0:0:
279,204,209690,1,8,0:0:0:0:
279,204,210590,1,0,0:0:0:0:
