osu file format v14

[General]
AudioFilename: audio.ogg
AudioLeadIn: 0
PreviewTime: 144890
Countdown: 1
SampleSet: Normal
StackLeniency: 0.7
Mode: 1
LetterboxInBreaks: 0
WidescreenStoryboard: 1

[Editor]
Bookmarks: 890,10490,20090,29690,39290,48890,58490,68090,72890,77690,87290,96890,101690,116090,135290,144890,154490,164090,173690,183290,192890,202490
DistanceSpacing: 1.2
BeatDivisor: 3
GridSize: 32
TimelineZoom: 2.6

[Metadata]
Title:LANA - Kiroku no Kakera (sasakure.UK Framework Remix) -
TitleUnicode:LANA - キロクノカケラ (sasakure.UK Framework Remix) -
Artist:TOMOSUKE x Jazzin'park
ArtistUnicode:TOMOSUKE×Jazzin'park
Creator:gaston_2199
Version:Dusk's Inner Oni
Source:jubeat saucer
Tags:- a Piece of Memories - 村上来渚 Murakami 栗原暁 Satoru Kurihara 久保田真悟 Singo Kubota ささくれP SasakureP 舟木智介 Funaki ゼクトバッハ Zektbach ジャジンパーク full version pop jpop video game electronic japanese famale vocal Axer _DUSK_ -Dusk Dusk- Megafan
BeatmapID:2967440
BeatmapSetID:925255

[Difficulty]
HPDrainRate:6
CircleSize:5
OverallDifficulty:6
ApproachRate:9
SliderMultiplier:1.4
SliderTickRate:1

[Events]
//Background and Video events
0,0,"BG.jpg",0,0
//Break Periods
//Storyboard Layer 0 (Background)
//Storyboard Layer 1 (Fail)
//Storyboard Layer 2 (Pass)
//Storyboard Layer 3 (Foreground)
//Storyboard Layer 4 (Overlay)
//Storyboard Sound Samples

[TimingPoints]
890,300,4,1,0,50,1,0
890,-166.666666666667,4,1,0,50,0,0
10490,-153.846153846154,4,1,0,50,0,0
18665,-153.846153846154,4,1,0,30,0,0
20015,-111.111111111111,4,1,0,70,0,0
28790,-114.942528735632,4,1,0,70,0,0
29090,-120.481927710843,4,1,0,70,0,0
29390,-128.205128205128,4,1,0,70,0,0
29690,-111.111111111111,4,1,0,70,0,0
49040,-112.359550561798,4,1,0,60,0,0
49190,-113.636363636364,4,1,0,60,0,0
49340,-114.942528735632,4,1,0,60,0,0
50090,-129.87012987013,4,1,0,60,0,0
66665,-129.87012987013,4,1,0,40,0,0
68015,-129.87012987013,4,1,0,70,0,0
76490,-128.205128205128,4,1,0,70,0,0
76565,-125.995522119144,4,1,0,70,0,0
76640,-123.860790380476,4,1,0,70,0,0
76715,-121.797338971738,4,1,0,70,0,0
76790,-119.801369329651,4,1,0,70,0,0
76940,-115.999457122541,4,1,0,70,0,0
77015,-114.18770860667,4,1,0,70,0,0
77090,-112.4315572895,4,1,0,70,0,0
77165,-110.728605295706,4,1,0,70,0,0
77240,-109.076471332522,4,1,0,70,0,0
77315,-107.473029643211,4,1,0,70,0,0
77390,-105.915934522769,4,1,0,70,0,0
77465,-104.403314178805,4,1,0,70,0,0
77540,-102.933289964107,4,1,0,70,0,0
77615,-101.504190600509,4,1,0,70,0,0
77690,-100,4,1,0,80,0,1
87290,-100,4,1,0,80,0,0
96890,-100,4,1,0,80,0,0
97190,-133.333333333333,4,1,0,70,0,0
101540,-120.481927710843,4,1,0,70,0,0
101690,-111.111111111111,4,1,0,70,0,0
114140,-142.857142857143,4,1,0,70,0,0
143465,-142.857142857143,4,1,0,40,0,0
144815,-142.857142857143,4,1,0,50,0,0
153290,-142.222222222222,4,1,0,60,0,0
153365,-141.592920353982,4,1,0,60,0,0
153440,-140.969162995595,4,1,0,60,0,0
153515,-140.350877192982,4,1,0,60,0,0
153590,-139.737991266376,4,1,0,60,0,0
153740,-139.130434782609,4,1,0,60,0,0
153815,-138.528138528139,4,1,0,60,0,0
153890,-137.931034482759,4,1,0,60,0,0
153965,-137.339055793991,4,1,0,60,0,0
154040,-136.752136752137,4,1,0,60,0,0
154115,-136.170212765957,4,1,0,60,0,0
154190,-135.593220338983,4,1,0,60,0,0
154265,-135.021097046414,4,1,0,60,0,0
154340,-134.453781512605,4,1,0,60,0,0
154415,-133.891213389121,4,1,0,60,0,0
154490,-133.333333333333,4,1,0,60,0,0
162890,-130.612244897959,4,1,0,70,0,0
162965,-128,4,1,0,70,0,0
163040,-125.490196078431,4,1,0,70,0,0
163115,-123.076923076923,4,1,0,70,0,0
163190,-120.754716981132,4,1,0,70,0,0
163340,-118.518518518519,4,1,0,70,0,0
163415,-116.363636363636,4,1,0,70,0,0
163490,-114.285714285714,4,1,0,70,0,0
163565,-112.280701754386,4,1,0,70,0,0
163640,-110.344827586207,4,1,0,70,0,0
163715,-108.474576271186,4,1,0,70,0,0
163790,-106.666666666667,4,1,0,70,0,0
163865,-104.918032786885,4,1,0,70,0,0
163940,-103.225806451613,4,1,0,70,0,0
164015,-101.587301587302,4,1,0,70,0,0
164090,-100,4,1,0,80,0,1
183290,-100.114130108323,4,1,0,80,0,0
202790,-143.090175428554,4,1,0,70,0,0

[HitObjects]
256,192,890,5,0,0:0:0:0:
237,60,1340,1,0,0:0:0:0:
256,192,2090,1,0,0:0:0:0:
256,192,2540,1,0,0:0:0:0:
256,192,3290,1,0,0:0:0:0:
256,192,3740,1,0,0:0:0:0:
256,192,4490,1,0,0:0:0:0:
256,192,4940,1,8,0:0:0:0:
256,192,5690,1,0,0:0:0:0:
256,192,6140,1,0,0:0:0:0:
256,192,6890,1,0,0:0:0:0:
256,192,7340,1,0,0:0:0:0:
256,192,8090,1,0,0:0:0:0:
256,192,8540,1,0,0:0:0:0:
256,192,9290,1,0,0:0:0:0:
256,192,9740,1,0,0:0:0:0:
256,192,10490,1,0,0:0:0:0:
256,192,10940,1,0,0:0:0:0:
256,192,11390,1,0,0:0:0:0:
256,192,11690,1,8,0:0:0:0:
256,192,12140,1,0,0:0:0:0:
256,192,12890,1,0,0:0:0:0:
256,192,13340,1,0,0:0:0:0:
256,192,13790,1,0,0:0:0:0:
256,192,14090,1,8,0:0:0:0:
256,192,14540,1,8,0:0:0:0:
256,192,15290,1,0,0:0:0:0:
256,192,15740,1,0,0:0:0:0:
256,192,16190,1,0,0:0:0:0:
256,192,16490,1,8,0:0:0:0:
256,192,16940,1,0,0:0:0:0:
256,192,17690,1,8,0:0:0:0:
256,192,18140,1,8,0:0:0:0:
256,192,18740,12,0,19940,0:0:0:0:
256,192,20090,5,12,0:0:0:0:
256,192,20315,1,0,0:0:0:0:
256,192,20390,1,8,0:0:0:0:
256,192,20540,1,0,0:0:0:0:
256,192,20840,1,8,0:0:0:0:
256,192,21140,1,8,0:0:0:0:
256,192,21290,1,0,0:0:0:0:
256,192,21590,1,8,0:0:0:0:
256,192,21740,1,0,0:0:0:0:
256,192,21890,1,8,0:0:0:0:
256,192,22115,1,0,0:0:0:0:
256,192,22190,1,8,0:0:0:0:
256,192,22340,1,8,0:0:0:0:
256,192,22490,1,0,0:0:0:0:
256,192,22640,1,0,0:0:0:0:
256,192,22790,1,8,0:0:0:0:
256,192,22940,1,0,0:0:0:0:
256,192,23240,1,8,0:0:0:0:
256,192,23540,1,8,0:0:0:0:
256,192,23615,1,8,0:0:0:0:
256,192,23690,1,0,0:0:0:0:
256,192,23840,1,8,0:0:0:0:
256,192,23990,1,0,0:0:0:0:
256,192,24140,1,0,0:0:0:0:
256,192,24290,1,8,0:0:0:0:
256,192,24590,1,0,0:0:0:0:
256,192,24740,1,8,0:0:0:0:
256,192,24890,1,0,0:0:0:0:
256,192,25115,1,0,0:0:0:0:
256,192,25190,1,8,0:0:0:0:
256,192,25340,1,0,0:0:0:0:
256,192,25490,1,0,0:0:0:0:
256,192,25640,1,8,0:0:0:0:
256,192,26090,1,8,0:0:0:0:
256,192,26240,1,0,0:0:0:0:
256,192,26390,1,0,0:0:0:0:
256,192,26690,1,8,0:0:0:0:
256,192,26915,1,0,0:0:0:0:
256,192,26990,1,8,0:0:0:0:
256,192,27140,1,8,0:0:0:0:
256,192,27290,1,0,0:0:0:0:
256,192,27440,1,0,0:0:0:0:
256,192,27590,1,8,0:0:0:0:
256,192,27740,1,0,0:0:0:0:
256,192,28040,1,8,0:0:0:0:
256,192,28340,1,8,0:0:0:0:
256,192,28415,1,8,0:0:0:0:
256,192,28490,1,0,0:0:0:0:
256,192,28790,1,0,0:0:0:0:
256,192,29090,1,0,0:0:0:0:
256,192,29390,1,0,0:0:0:0:
256,192,29690,1,12,0:0:0:0:
256,192,29990,1,8,0:0:0:0:
256,192,30140,1,0,0:0:0:0:
256,192,30440,1,8,0:0:0:0:
256,192,30890,1,0,0:0:0:0:
256,192,31040,1,0,0:0:0:0:
256,192,31190,1,8,0:0:0:0:
256,192,31340,1,0,0:0:0:0:
256,192,31490,1,8,0:0:0:0:
256,192,31565,1,8,0:0:0:0:
256,192,31640,1,0,0:0:0:0:
256,192,32090,1,0,0:0:0:0:
256,192,32240,1,0,0:0:0:0:
256,192,32390,1,8,0:0:0:0:
256,192,32540,1,0,0:0:0:0:
256,192,32840,1,8,0:0:0:0:
256,192,32990,1,0,0:0:0:0:
256,192,33065,1,0,0:0:0:0:
256,192,33140,1,8,0:0:0:0:
256,192,33215,1,8,0:0:0:0:
256,192,33290,1,0,0:0:0:0:
256,192,33590,1,8,0:0:0:0:
256,192,33740,1,0,0:0:0:0:
256,192,33890,1,8,0:0:0:0:
256,192,34040,1,8,0:0:0:0:
256,192,34340,1,8,0:0:0:0:
256,192,34490,1,0,0:0:0:0:
256,192,34790,1,8,0:0:0:0:
256,192,34940,1,0,0:0:0:0:
256,192,35090,1,0,0:0:0:0:
256,192,35240,1,8,0:0:0:0:
256,192,35690,1,0,0:0:0:0:
256,192,35990,1,8,0:0:0:0:
256,192,36140,1,0,0:0:0:0:
256,192,36290,1,8,0:0:0:0:
256,192,36440,1,8,0:0:0:0:
256,192,36515,1,0,0:0:0:0:
256,192,36590,1,0,0:0:0:0:
256,192,36740,1,0,0:0:0:0:
256,192,36890,1,8,0:0:0:0:
256,192,37040,1,0,0:0:0:0:
256,192,37190,1,0,0:0:0:0:
256,192,37340,1,8,0:0:0:0:
256,192,37640,1,8,0:0:0:0:
256,192,37790,1,0,0:0:0:0:
256,192,38090,1,8,0:0:0:0:
256,192,38240,1,8,0:0:0:0:
256,192,38390,1,0,0:0:0:0:
256,192,38540,1,0,0:0:0:0:
256,192,38690,1,8,0:0:0:0:
256,192,38990,1,0,0:0:0:0:
256,192,39140,1,8,0:0:0:0:
256,192,39290,1,8,0:0:0:0:
256,192,39590,1,8,0:0:0:0:
256,192,39740,1,0,0:0:0:0:
256,192,39890,1,0,0:0:0:0:
256,192,40040,1,8,0:0:0:0:
256,192,40490,1,0,0:0:0:0:
256,192,40790,1,8,0:0:0:0:
256,192,40940,1,0,0:0:0:0:
256,192,41090,1,8,0:0:0:0:
256,192,41165,1,0,0:0:0:0:
256,192,41240,1,0,0:0:0:0:
256,192,41540,1,8,0:0:0:0:
256,192,41690,1,0,0:0:0:0:
256,192,41840,1,0,0:0:0:0:
256,192,41990,1,8,0:0:0:0:
256,192,42140,1,0,0:0:0:0:
256,192,42440,1,8,0:0:0:0:
256,192,42590,1,0,0:0:0:0:
256,192,42665,1,0,0:0:0:0:
256,192,42740,1,8,0:0:0:0:
256,192,42815,1,8,0:0:0:0:
256,192,42890,1,0,0:0:0:0:
256,192,43190,1,8,0:0:0:0:
256,192,43340,1,0,0:0:0:0:
256,192,43490,1,8,0:0:0:0:
256,192,43640,1,0,0:0:0:0:
256,192,43790,1,8,0:0:0:0:
256,192,43940,1,8,0:0:0:0:
256,192,44090,1,0,0:0:0:0:
256,192,44390,1,8,0:0:0:0:
256,192,44540,1,0,0:0:0:0:
256,192,44690,1,0,0:0:0:0:
256,192,44840,1,8,0:0:0:0:
256,192,45290,1,0,0:0:0:0:
256,192,45590,1,8,0:0:0:0:
256,192,45740,1,0,0:0:0:0:
256,192,45890,1,8,0:0:0:0:
256,192,45965,1,8,0:0:0:0:
256,192,46040,1,8,0:0:0:0:
256,192,46490,5,0,0:0:0:0:
256,192,46790,1,8,0:0:0:0:
256,192,46940,1,0,0:0:0:0:
256,192,47240,1,8,0:0:0:0:
256,192,47540,1,0,0:0:0:0:
256,192,47840,1,8,0:0:0:0:
256,192,47990,1,0,0:0:0:0:
256,192,48290,1,8,0:0:0:0:
256,192,48740,1,8,0:0:0:0:
256,192,48890,1,0,0:0:0:0:
256,192,49040,1,0,0:0:0:0:
256,192,49190,1,0,0:0:0:0:
256,192,49340,1,8,0:0:0:0:
256,192,50090,1,8,0:0:0:0:
256,192,50540,1,0,0:0:0:0:
256,192,51290,1,0,0:0:0:0:
256,192,51440,1,8,0:0:0:0:
256,192,51590,1,0,0:0:0:0:
256,192,51740,1,8,0:0:0:0:
256,192,52340,1,8,0:0:0:0:
256,192,53690,1,8,0:0:0:0:
256,192,53840,1,0,0:0:0:0:
256,192,53990,1,0,0:0:0:0:
256,192,54140,1,8,0:0:0:0:
256,192,54890,1,8,0:0:0:0:
256,192,55340,1,0,0:0:0:0:
256,192,56090,1,0,0:0:0:0:
256,192,56240,1,8,0:0:0:0:
256,192,56390,1,8,0:0:0:0:
256,192,56540,1,0,0:0:0:0:
256,192,56690,1,8,0:0:0:0:
256,192,57140,1,8,0:0:0:0:
256,192,57440,1,8,0:0:0:0:
256,192,57590,1,8,0:0:0:0:
256,192,57740,1,8,0:0:0:0:
256,192,57890,1,8,0:0:0:0:
256,192,58040,1,8,0:0:0:0:
256,192,58190,1,0,0:0:0:0:
256,192,58490,1,8,0:0:0:0:
256,192,58940,1,0,0:0:0:0:
256,192,59090,1,8,0:0:0:0:
256,192,59240,1,8,0:0:0:0:
256,192,59540,1,0,0:0:0:0:
256,192,59840,1,8,0:0:0:0:
256,192,60140,1,8,0:0:0:0:
256,192,60890,1,8,0:0:0:0:
256,192,61340,1,8,0:0:0:0:
256,192,61490,1,0,0:0:0:0:
256,192,61640,1,0,0:0:0:0:
256,192,61940,1,8,0:0:0:0:
256,192,62240,1,0,0:0:0:0:
256,192,62540,1,8,0:0:0:0:
256,192,62840,1,8,0:0:0:0:
256,192,62990,1,0,0:0:0:0:
256,192,63140,1,0,0:0:0:0:
256,192,63290,1,8,0:0:0:0:
256,192,63440,1,0,0:0:0:0:
256,192,63740,1,0,0:0:0:0:
256,192,63890,1,8,0:0:0:0:
256,192,64040,1,8,0:0:0:0:
256,192,64190,1,0,0:0:0:0:
256,192,64340,1,8,0:0:0:0:
256,192,64640,1,8,0:0:0:0:
256,192,64790,1,0,0:0:0:0:
256,192,65090,1,8,0:0:0:0:
256,192,65390,1,0,0:0:0:0:
256,192,65540,1,0,0:0:0:0:
256,192,65690,1,8,0:0:0:0:
256,192,66140,1,0,0:0:0:0:
256,192,66740,12,0,67940,0:0:0:0:
256,192,68090,5,0,0:0:0:0:
256,192,68540,1,0,0:0:0:0:
256,192,68990,1,8,0:0:0:0:
256,192,69740,1,8,0:0:0:0:
256,192,69890,1,8,0:0:0:0:
256,192,70040,1,0,0:0:0:0:
256,192,70190,1,0,0:0:0:0:
256,192,70340,1,0,0:0:0:0:
256,192,70490,1,8,0:0:0:0:
256,192,70940,1,0,0:0:0:0:
256,192,71390,1,8,0:0:0:0:
256,192,71990,1,8,0:0:0:0:
256,192,72890,1,0,0:0:0:0:
256,192,73340,1,0,0:0:0:0:
256,192,73790,1,8,0:0:0:0:
256,192,74390,1,0,0:0:0:0:
256,192,74540,1,8,0:0:0:0:
256,192,74690,1,0,0:0:0:0:
256,192,74840,1,0,0:0:0:0:
256,192,74990,1,8,0:0:0:0:
256,192,75140,1,8,0:0:0:0:
256,192,75290,1,0,0:0:0:0:
256,192,75740,1,0,0:0:0:0:
256,192,76190,1,8,0:0:0:0:
256,192,76490,1,0,0:0:0:0:
256,192,76565,1,0,0:0:0:0:
256,192,76640,1,8,0:0:0:0:
256,192,76715,1,8,0:0:0:0:
256,192,76790,1,0,0:0:0:0:
256,192,76940,1,8,0:0:0:0:
256,192,77015,1,8,0:0:0:0:
256,192,77090,1,0,0:0:0:0:
256,192,77165,1,8,0:0:0:0:
256,192,77240,1,0,0:0:0:0:
256,192,77315,1,0,0:0:0:0:
256,192,77390,1,8,0:0:0:0:
256,192,77465,1,8,0:0:0:0:
256,192,77540,1,8,0:0:0:0:
256,192,77615,1,8,0:0:0:0:
256,192,77690,1,4,0:0:0:0:
256,192,77990,1,8,0:0:0:0:
256,192,78140,1,0,0:0:0:0:
256,192,78215,1,0,0:0:0:0:
256,192,78290,1,8,0:0:0:0:
256,192,78440,1,0,0:0:0:0:
256,192,78590,1,8,0:0:0:0:
256,192,78740,1,8,0:0:0:0:
256,192,78890,1,0,0:0:0:0:
256,192,79190,1,8,0:0:0:0:
256,192,79340,1,0,0:0:0:0:
256,192,79415,1,8,0:0:0:0:
256,192,79490,1,0,0:0:0:0:
256,192,79640,1,0,0:0:0:0:
256,192,79790,1,8,0:0:0:0:
256,192,79940,1,8,0:0:0:0:
256,192,80015,1,8,0:0:0:0:
256,192,80090,1,0,0:0:0:0:
256,192,80315,1,0,0:0:0:0:
256,192,80390,1,8,0:0:0:0:
256,192,80540,1,0,0:0:0:0:
256,192,80690,1,8,0:0:0:0:
256,192,80765,1,0,0:0:0:0:
256,192,80915,1,0,0:0:0:0:
256,192,80990,1,8,0:0:0:0:
256,192,81065,1,8,0:0:0:0:
256,192,81140,1,0,0:0:0:0:
256,192,81290,1,8,0:0:0:0:
256,192,81440,1,0,0:0:0:0:
256,192,81590,1,8,0:0:0:0:
256,192,81665,1,0,0:0:0:0:
256,192,81740,1,0,0:0:0:0:
256,192,81815,1,8,0:0:0:0:
256,192,81890,1,8,0:0:0:0:
256,192,82040,1,0,0:0:0:0:
256,192,82190,1,8,0:0:0:0:
256,192,82265,1,8,0:0:0:0:
256,192,82340,1,0,0:0:0:0:
256,192,82415,1,0,0:0:0:0:
256,192,82490,1,8,0:0:0:0:
256,192,82715,1,0,0:0:0:0:
256,192,82790,1,8,0:0:0:0:
256,192,82940,1,0,0:0:0:0:
256,192,83015,1,8,0:0:0:0:
256,192,83090,1,0,0:0:0:0:
256,192,83240,1,0,0:0:0:0:
256,192,83390,1,8,0:0:0:0:
256,192,83540,1,0,0:0:0:0:
256,192,83615,1,0,0:0:0:0:
256,192,83690,1,8,0:0:0:0:
256,192,83765,1,0,0:0:0:0:
256,192,83840,1,8,0:0:0:0:
256,192,83990,1,0,0:0:0:0:
256,192,84140,1,8,0:0:0:0:
256,192,84215,1,8,0:0:0:0:
256,192,84290,1,0,0:0:0:0:
256,192,84365,1,8,0:0:0:0:
256,192,84440,1,0,0:0:0:0:
256,192,84515,1,0,0:0:0:0:
256,192,84590,1,8,0:0:0:0:
256,192,84740,1,0,0:0:0:0:
256,192,84815,1,0,0:0:0:0:
256,192,84890,1,8,0:0:0:0:
256,192,85115,1,0,0:0:0:0:
256,192,85190,1,8,0:0:0:0:
256,192,85340,1,0,0:0:0:0:
256,192,85490,1,8,0:0:0:0:
256,192,85640,1,0,0:0:0:0:
256,192,85715,1,8,0:0:0:0:
256,192,85790,1,8,0:0:0:0:
256,192,85940,1,0,0:0:0:0:
256,192,86090,1,8,0:0:0:0:
256,192,86240,1,0,0:0:0:0:
256,192,86315,1,8,0:0:0:0:
256,192,86390,1,0,0:0:0:0:
256,192,86540,1,0,0:0:0:0:
256,192,86615,1,0,0:0:0:0:
256,192,86690,1,8,0:0:0:0:
256,192,86765,1,8,0:0:0:0:
256,192,86840,1,0,0:0:0:0:
256,192,86990,1,8,0:0:0:0:
256,192,87065,1,8,0:0:0:0:
256,192,87140,1,8,0:0:0:0:
256,192,87215,1,8,0:0:0:0:
256,192,87290,1,0,0:0:0:0:
256,192,87440,1,0,0:0:0:0:
256,192,87590,1,8,0:0:0:0:
256,192,87740,1,8,0:0:0:0:
256,192,88040,1,0,0:0:0:0:
256,192,88190,1,8,0:0:0:0:
256,192,88340,1,8,0:0:0:0:
256,192,88490,1,0,0:0:0:0:
256,192,88790,1,8,0:0:0:0:
256,192,88940,1,0,0:0:0:0:
256,192,89015,1,0,0:0:0:0:
256,192,89090,1,8,0:0:0:0:
256,192,89240,1,0,0:0:0:0:
256,192,89390,1,8,0:0:0:0:
256,192,89540,1,8,0:0:0:0:
256,192,89615,1,8,0:0:0:0:
256,192,89690,1,0,0:0:0:0:
256,192,89840,1,0,0:0:0:0:
256,192,89990,1,8,0:0:0:0:
256,192,90140,1,0,0:0:0:0:
256,192,90440,1,0,0:0:0:0:
256,192,90590,1,8,0:0:0:0:
256,192,90740,1,8,0:0:0:0:
256,192,90890,1,0,0:0:0:0:
256,192,91040,1,0,0:0:0:0:
256,192,91190,1,8,0:0:0:0:
256,192,91340,1,0,0:0:0:0:
256,192,91415,1,0,0:0:0:0:
256,192,91490,1,8,0:0:0:0:
256,192,91565,1,8,0:0:0:0:
256,192,91640,1,0,0:0:0:0:
256,192,91790,1,8,0:0:0:0:
256,192,91940,1,8,0:0:0:0:
256,192,92090,1,0,0:0:0:0:
256,192,92240,1,0,0:0:0:0:
256,192,92390,1,8,0:0:0:0:
256,192,92540,1,0,0:0:0:0:
256,192,92690,1,8,0:0:0:0:
256,192,92840,1,8,0:0:0:0:
256,192,92915,1,8,0:0:0:0:
256,192,92990,1,0,0:0:0:0:
256,192,93065,1,0,0:0:0:0:
256,192,93140,1,8,0:0:0:0:
256,192,93215,1,0,0:0:0:0:
256,192,93290,1,8,0:0:0:0:
256,192,93590,1,8,0:0:0:0:
256,192,93740,1,0,0:0:0:0:
256,192,93815,1,8,0:0:0:0:
256,192,93890,1,0,0:0:0:0:
256,192,94040,1,0,0:0:0:0:
256,192,94190,1,8,0:0:0:0:
256,192,94490,1,0,0:0:0:0:
256,192,94640,1,0,0:0:0:0:
256,192,94790,1,8,0:0:0:0:
256,192,94940,1,8,0:0:0:0:
256,192,95090,1,0,0:0:0:0:
256,192,95240,1,0,0:0:0:0:
256,192,95390,1,8,0:0:0:0:
256,192,95465,1,8,0:0:0:0:
256,192,95540,1,0,0:0:0:0:
256,192,95690,1,0,0:0:0:0:
256,192,95840,1,8,0:0:0:0:
256,192,95915,1,0,0:0:0:0:
256,192,95990,1,0,0:0:0:0:
256,192,96140,1,0,0:0:0:0:
256,192,96290,1,8,0:0:0:0:
256,192,96365,1,8,0:0:0:0:
256,192,96440,1,0,0:0:0:0:
256,192,96515,1,0,0:0:0:0:
256,192,96590,1,8,0:0:0:0:
256,192,96665,1,8,0:0:0:0:
256,192,96740,1,8,0:0:0:0:
256,192,96815,1,8,0:0:0:0:
256,192,96890,1,0,0:0:0:0:
256,192,97190,1,8,0:0:0:0:
256,192,97340,1,0,0:0:0:0:
256,192,97640,1,8,0:0:0:0:
256,192,98090,1,0,0:0:0:0:
256,192,98240,1,0,0:0:0:0:
256,192,98390,1,8,0:0:0:0:
256,192,98690,1,8,0:0:0:0:
256,192,98990,1,0,0:0:0:0:
256,192,99140,1,8,0:0:0:0:
256,192,99290,1,0,0:0:0:0:
256,192,99590,1,8,0:0:0:0:
256,192,99740,1,0,0:0:0:0:
256,192,100040,1,8,0:0:0:0:
256,192,100190,1,0,0:0:0:0:
256,192,100265,1,0,0:0:0:0:
256,192,100340,1,8,0:0:0:0:
256,192,100415,1,8,0:0:0:0:
256,192,100490,1,0,0:0:0:0:
256,192,100640,1,8,0:0:0:0:
256,192,100790,1,0,0:0:0:0:
256,192,101090,1,8,0:0:0:0:
256,192,101540,1,8,0:0:0:0:
256,192,101690,1,0,0:0:0:0:
256,192,101990,1,8,0:0:0:0:
256,192,102140,1,0,0:0:0:0:
256,192,102215,1,0,0:0:0:0:
256,192,102290,1,0,0:0:0:0:
256,192,102440,1,0,0:0:0:0:
256,192,102590,1,8,0:0:0:0:
256,192,102890,1,0,0:0:0:0:
256,192,103190,1,8,0:0:0:0:
256,192,103340,1,0,0:0:0:0:
256,192,103415,1,8,0:0:0:0:
256,192,103490,1,8,0:0:0:0:
256,192,103640,1,0,0:0:0:0:
256,192,103790,1,8,0:0:0:0:
256,192,103940,1,8,0:0:0:0:
256,192,104090,1,0,0:0:0:0:
256,192,104390,1,8,0:0:0:0:
256,192,104540,1,0,0:0:0:0:
256,192,104615,1,0,0:0:0:0:
256,192,104690,1,8,0:0:0:0:
256,192,104840,1,0,0:0:0:0:
256,192,104990,1,8,0:0:0:0:
256,192,105140,1,8,0:0:0:0:
256,192,105290,1,0,0:0:0:0:
256,192,105440,1,0,0:0:0:0:
256,192,105590,1,8,0:0:0:0:
256,192,105740,1,8,0:0:0:0:
256,192,105815,1,8,0:0:0:0:
256,192,105890,1,8,0:0:0:0:
256,192,106040,1,0,0:0:0:0:
256,192,106190,1,8,0:0:0:0:
256,192,106265,1,0,0:0:0:0:
256,192,106340,1,8,0:0:0:0:
256,192,106415,1,8,0:0:0:0:
256,192,106490,1,0,0:0:0:0:
256,192,106715,1,0,0:0:0:0:
256,192,106790,1,8,0:0:0:0:
256,192,106940,1,0,0:0:0:0:
256,192,107090,1,8,0:0:0:0:
256,192,107240,1,0,0:0:0:0:
256,192,107390,1,8,0:0:0:0:
256,192,107540,1,8,0:0:0:0:
256,192,107690,1,0,0:0:0:0:
256,192,107990,1,8,0:0:0:0:
256,192,108140,1,0,0:0:0:0:
256,192,108215,1,0,0:0:0:0:
256,192,108290,1,8,0:0:0:0:
256,192,108440,1,0,0:0:0:0:
256,192,108590,1,8,0:0:0:0:
256,192,108740,1,0,0:0:0:0:
256,192,108890,1,0,0:0:0:0:
256,192,109115,1,0,0:0:0:0:
256,192,109190,1,8,0:0:0:0:
256,192,109340,1,0,0:0:0:0:
256,192,109490,1,8,0:0:0:0:
256,192,109640,1,0,0:0:0:0:
256,192,109790,1,8,0:0:0:0:
256,192,109865,1,8,0:0:0:0:
256,192,109940,1,8,0:0:0:0:
256,192,110015,1,8,0:0:0:0:
256,192,110090,1,0,0:0:0:0:
256,192,110240,1,0,0:0:0:0:
256,192,110390,1,8,0:0:0:0:
256,192,110540,1,0,0:0:0:0:
256,192,110615,1,0,0:0:0:0:
256,192,110690,1,8,0:0:0:0:
256,192,110765,1,0,0:0:0:0:
256,192,110840,1,0,0:0:0:0:
256,192,110990,1,8,0:0:0:0:
256,192,111140,1,8,0:0:0:0:
256,192,111215,1,8,0:0:0:0:
256,192,111290,1,0,0:0:0:0:
256,192,111515,1,0,0:0:0:0:
256,192,111590,1,8,0:0:0:0:
256,192,111740,1,0,0:0:0:0:
256,192,111890,1,8,0:0:0:0:
256,192,112040,1,0,0:0:0:0:
256,192,112115,1,0,0:0:0:0:
256,192,112190,1,8,0:0:0:0:
256,192,112340,1,8,0:0:0:0:
256,192,112490,1,0,0:0:0:0:
256,192,112790,1,0,0:0:0:0:
256,192,112940,1,8,0:0:0:0:
256,192,113090,1,0,0:0:0:0:
256,192,113390,1,0,0:0:0:0:
256,192,113690,1,0,0:0:0:0:
256,192,114140,1,0,0:0:0:0:
256,192,114290,1,8,0:0:0:0:
256,192,114740,1,0,0:0:0:0:
256,192,115190,1,0,0:0:0:0:
256,192,115490,1,8,0:0:0:0:
256,192,115790,1,8,0:0:0:0:
256,192,115940,1,0,0:0:0:0:
256,192,116090,1,8,0:0:0:0:
256,192,117290,1,8,0:0:0:0:
256,192,118490,1,0,0:0:0:0:
256,192,119690,1,8,0:0:0:0:
256,192,120890,1,8,0:0:0:0:
256,192,122090,1,0,0:0:0:0:
256,192,123290,1,8,0:0:0:0:
256,192,124490,1,0,0:0:0:0:
256,192,124790,1,0,0:0:0:0:
256,192,125090,1,8,0:0:0:0:
256,192,125390,1,8,0:0:0:0:
256,192,125690,1,0,0:0:0:0:
256,192,126890,1,0,0:0:0:0:
256,192,128090,1,8,0:0:0:0:
256,192,129290,1,8,0:0:0:0:
256,192,130490,1,0,0:0:0:0:
256,192,131690,1,0,0:0:0:0:
256,192,132890,1,8,0:0:0:0:
256,192,134090,1,0,0:0:0:0:
256,192,135290,1,0,0:0:0:0:
256,192,135740,1,8,0:0:0:0:
256,192,135890,1,0,0:0:0:0:
256,192,136040,1,0,0:0:0:0:
256,192,136340,1,8,0:0:0:0:
256,192,136640,1,8,0:0:0:0:
256,192,136940,1,0,0:0:0:0:
256,192,137690,1,0,0:0:0:0:
256,192,138140,1,0,0:0:0:0:
256,192,138290,1,8,0:0:0:0:
256,192,138440,1,8,0:0:0:0:
256,192,138740,1,0,0:0:0:0:
256,192,139040,1,8,0:0:0:0:
256,192,139340,1,0,0:0:0:0:
256,192,139640,1,8,0:0:0:0:
256,192,139790,1,0,0:0:0:0:
256,192,139940,1,0,0:0:0:0:
256,192,140090,1,8,0:0:0:0:
256,192,140390,1,0,0:0:0:0:
256,192,140540,1,8,0:0:0:0:
256,192,140690,1,8,0:0:0:0:
256,192,140840,1,0,0:0:0:0:
256,192,141140,1,0,0:0:0:0:
256,192,141440,1,8,0:0:0:0:
256,192,141590,1,0,0:0:0:0:
256,192,141890,1,8,0:0:0:0:
256,192,142190,1,0,0:0:0:0:
256,192,142340,1,0,0:0:0:0:
256,192,142490,1,8,0:0:0:0:
256,192,142940,5,0,0:0:0:0:
256,192,143540,12,0,144740,0:0:0:0:
256,192,144890,5,0,0:0:0:0:
256,192,145340,1,0,0:0:0:0:
256,192,145790,1,8,0:0:0:0:
256,192,146540,1,8,0:0:0:0:
256,192,146690,1,8,0:0:0:0:
256,192,146840,1,0,0:0:0:0:
256,192,146990,1,0,0:0:0:0:
256,192,147140,1,0,0:0:0:0:
256,192,147290,1,8,0:0:0:0:
256,192,147740,1,8,0:0:0:0:
256,192,148190,1,0,0:0:0:0:
256,192,148790,1,8,0:0:0:0:
256,192,149690,1,0,0:0:0:0:
256,192,150140,1,8,0:0:0:0:
256,192,150590,1,0,0:0:0:0:
256,192,152090,1,8,0:0:0:0:
256,192,152540,1,0,0:0:0:0:
256,192,152990,1,8,0:0:0:0:
256,192,153290,1,0,0:0:0:0:
256,192,153365,1,0,0:0:0:0:
256,192,153440,1,0,0:0:0:0:
256,192,153515,1,8,0:0:0:0:
256,192,153590,1,0,0:0:0:0:
256,192,153740,1,8,0:0:0:0:
256,192,153815,1,8,0:0:0:0:
256,192,153890,1,0,0:0:0:0:
256,192,153965,1,8,0:0:0:0:
256,192,154040,1,0,0:0:0:0:
256,192,154115,1,0,0:0:0:0:
256,192,154190,1,8,0:0:0:0:
256,192,154265,1,8,0:0:0:0:
256,192,154340,1,8,0:0:0:0:
256,192,154415,1,8,0:0:0:0:
256,192,154490,1,0,0:0:0:0:
256,192,154940,1,0,0:0:0:0:
256,192,155090,1,8,0:0:0:0:
256,192,155390,1,0,0:0:0:0:
256,192,156140,1,8,0:0:0:0:
256,192,156290,1,8,0:0:0:0:
256,192,156440,1,0,0:0:0:0:
256,192,156590,1,8,0:0:0:0:
256,192,156740,1,0,0:0:0:0:
256,192,156890,1,0,0:0:0:0:
256,192,157340,1,0,0:0:0:0:
256,192,157490,1,8,0:0:0:0:
256,192,157790,1,0,0:0:0:0:
256,192,158390,1,8,0:0:0:0:
256,192,158690,1,0,0:0:0:0:
256,192,159290,1,0,0:0:0:0:
256,192,159740,1,0,0:0:0:0:
256,192,159890,1,8,0:0:0:0:
256,192,160190,1,0,0:0:0:0:
256,192,160790,1,0,0:0:0:0:
256,192,161090,1,8,0:0:0:0:
256,192,161390,1,8,0:0:0:0:
256,192,161690,1,0,0:0:0:0:
256,192,162140,1,0,0:0:0:0:
256,192,162290,1,8,0:0:0:0:
256,192,162590,1,0,0:0:0:0:
256,192,162890,1,0,0:0:0:0:
256,192,162965,1,0,0:0:0:0:
256,192,163040,1,8,0:0:0:0:
256,192,163115,1,8,0:0:0:0:
256,192,163190,1,0,0:0:0:0:
256,192,163340,1,8,0:0:0:0:
256,192,163415,1,8,0:0:0:0:
256,192,163490,1,0,0:0:0:0:
256,192,163565,1,0,0:0:0:0:
256,192,163640,1,0,0:0:0:0:
256,192,163715,1,8,0:0:0:0:
256,192,163790,1,0,0:0:0:0:
256,192,163865,1,0,0:0:0:0:
256,192,163940,1,8,0:0:0:0:
256,192,164015,1,8,0:0:0:0:
256,192,164090,1,4,0:0:0:0:
256,192,164390,1,8,0:0:0:0:
256,192,164540,1,0,0:0:0:0:
256,192,164615,1,0,0:0:0:0:
256,192,164690,1,8,0:0:0:0:
256,192,164840,1,0,0:0:0:0:
256,192,164990,1,8,0:0:0:0:
256,192,165140,1,8,0:0:0:0:
256,192,165215,1,8,0:0:0:0:
256,192,165290,1,0,0:0:0:0:
256,192,165440,1,0,0:0:0:0:
256,192,165590,1,8,0:0:0:0:
256,192,165740,1,0,0:0:0:0:
256,192,165815,1,0,0:0:0:0:
256,192,165890,1,8,0:0:0:0:
256,192,165965,1,8,0:0:0:0:
256,192,166040,1,0,0:0:0:0:
256,192,166190,1,8,0:0:0:0:
256,192,166340,1,8,0:0:0:0:
256,192,166490,1,0,0:0:0:0:
256,192,166715,1,0,0:0:0:0:
256,192,166790,1,8,0:0:0:0:
256,192,166940,1,0,0:0:0:0:
256,192,167090,1,8,0:0:0:0:
256,192,167240,1,0,0:0:0:0:
256,192,167315,1,0,0:0:0:0:
256,192,167390,1,8,0:0:0:0:
256,192,167465,1,0,0:0:0:0:
256,192,167540,1,8,0:0:0:0:
256,192,167690,1,8,0:0:0:0:
256,192,167840,1,0,0:0:0:0:
256,192,167990,1,8,0:0:0:0:
256,192,168140,1,8,0:0:0:0:
256,192,168215,1,8,0:0:0:0:
256,192,168290,1,0,0:0:0:0:
256,192,168365,1,8,0:0:0:0:
256,192,168440,1,0,0:0:0:0:
256,192,168515,1,0,0:0:0:0:
256,192,168590,1,8,0:0:0:0:
256,192,168740,1,8,0:0:0:0:
256,192,168815,1,8,0:0:0:0:
256,192,168890,1,0,0:0:0:0:
256,192,169115,1,0,0:0:0:0:
256,192,169190,1,8,0:0:0:0:
256,192,169340,1,0,0:0:0:0:
256,192,169490,1,8,0:0:0:0:
256,192,169565,1,0,0:0:0:0:
256,192,169640,1,0,0:0:0:0:
256,192,169715,1,0,0:0:0:0:
256,192,169790,1,8,0:0:0:0:
256,192,169865,1,8,0:0:0:0:
256,192,169940,1,0,0:0:0:0:
256,192,170090,1,8,0:0:0:0:
256,192,170240,1,0,0:0:0:0:
256,192,170315,1,0,0:0:0:0:
256,192,170390,1,8,0:0:0:0:
256,192,170540,1,8,0:0:0:0:
256,192,170615,1,8,0:0:0:0:
256,192,170690,1,8,0:0:0:0:
256,192,170765,1,0,0:0:0:0:
256,192,170840,1,0,0:0:0:0:
256,192,170915,1,0,0:0:0:0:
256,192,170990,1,8,0:0:0:0:
256,192,171065,1,8,0:0:0:0:
256,192,171140,1,0,0:0:0:0:
256,192,171215,1,0,0:0:0:0:
256,192,171290,1,8,0:0:0:0:
256,192,171515,1,0,0:0:0:0:
256,192,171590,1,8,0:0:0:0:
256,192,171740,1,0,0:0:0:0:
256,192,171890,1,8,0:0:0:0:
256,192,171965,1,8,0:0:0:0:
256,192,172040,1,0,0:0:0:0:
256,192,172190,1,8,0:0:0:0:
256,192,172340,1,0,0:0:0:0:
256,192,172490,1,8,0:0:0:0:
256,192,172565,1,0,0:0:0:0:
256,192,172640,1,0,0:0:0:0:
256,192,172715,1,8,0:0:0:0:
256,192,172790,1,8,0:0:0:0:
256,192,172940,1,0,0:0:0:0:
256,192,173015,1,0,0:0:0:0:
256,192,173090,1,8,0:0:0:0:
256,192,173165,1,0,0:0:0:0:
256,192,173240,1,8,0:0:0:0:
256,192,173315,1,8,0:0:0:0:
256,192,173390,1,0,0:0:0:0:
256,192,173465,1,8,0:0:0:0:
256,192,173540,1,0,0:0:0:0:
256,192,173615,1,0,0:0:0:0:
256,192,173690,1,12,0:0:0:0:
256,192,173915,1,0,0:0:0:0:
256,192,173990,1,8,0:0:0:0:
256,192,174140,1,0,0:0:0:0:
256,192,174290,1,8,0:0:0:0:
256,192,174365,1,0,0:0:0:0:
256,192,174440,1,8,0:0:0:0:
256,192,174590,1,8,0:0:0:0:
256,192,174740,1,8,0:0:0:0:
256,192,174890,1,0,0:0:0:0:
256,192,175040,1,0,0:0:0:0:
256,192,175115,1,0,0:0:0:0:
256,192,175190,1,8,0:0:0:0:
256,192,175265,1,8,0:0:0:0:
256,192,175340,1,0,0:0:0:0:
256,192,175490,1,8,0:0:0:0:
256,192,175640,1,8,0:0:0:0:
256,192,175715,1,0,0:0:0:0:
256,192,175790,1,0,0:0:0:0:
256,192,175940,1,0,0:0:0:0:
256,192,176090,1,8,0:0:0:0:
256,192,176315,1,0,0:0:0:0:
256,192,176390,1,8,0:0:0:0:
256,192,176540,1,0,0:0:0:0:
256,192,176690,1,8,0:0:0:0:
256,192,176765,1,0,0:0:0:0:
256,192,176915,1,0,0:0:0:0:
256,192,176990,1,8,0:0:0:0:
256,192,177065,1,8,0:0:0:0:
256,192,177140,1,0,0:0:0:0:
256,192,177290,1,8,0:0:0:0:
256,192,177440,1,0,0:0:0:0:
256,192,177590,1,0,0:0:0:0:
256,192,177665,1,8,0:0:0:0:
256,192,177740,1,8,0:0:0:0:
256,192,177815,1,0,0:0:0:0:
256,192,177890,1,8,0:0:0:0:
256,192,177965,1,0,0:0:0:0:
256,192,178040,1,0,0:0:0:0:
256,192,178115,1,0,0:0:0:0:
256,192,178190,1,8,0:0:0:0:
256,192,178265,1,8,0:0:0:0:
256,192,178340,1,0,0:0:0:0:
256,192,178415,1,0,0:0:0:0:
256,192,178490,1,8,0:0:0:0:
256,192,178715,1,0,0:0:0:0:
256,192,178790,1,8,0:0:0:0:
256,192,178940,1,8,0:0:0:0:
256,192,179090,1,0,0:0:0:0:
256,192,179240,1,0,0:0:0:0:
256,192,179315,1,0,0:0:0:0:
256,192,179390,1,8,0:0:0:0:
256,192,179540,1,8,0:0:0:0:
256,192,179690,1,0,0:0:0:0:
256,192,179840,1,0,0:0:0:0:
256,192,179990,1,8,0:0:0:0:
256,192,180065,1,0,0:0:0:0:
256,192,180140,1,0,0:0:0:0:
256,192,180290,1,8,0:0:0:0:
256,192,180365,1,8,0:0:0:0:
256,192,180440,1,0,0:0:0:0:
256,192,180515,1,8,0:0:0:0:
256,192,180590,1,0,0:0:0:0:
256,192,180665,1,0,0:0:0:0:
256,192,180740,1,8,0:0:0:0:
256,192,180815,1,8,0:0:0:0:
256,192,180890,1,0,0:0:0:0:
256,192,181115,1,0,0:0:0:0:
256,192,181190,1,8,0:0:0:0:
256,192,181340,1,0,0:0:0:0:
256,192,181490,1,8,0:0:0:0:
256,192,181640,1,0,0:0:0:0:
256,192,181715,1,8,0:0:0:0:
256,192,181790,1,0,0:0:0:0:
256,192,181940,1,0,0:0:0:0:
256,192,182090,1,8,0:0:0:0:
256,192,182165,1,0,0:0:0:0:
256,160,182240,1,0,0:0:0:0:
256,192,182315,1,8,0:0:0:0:
256,192,182390,1,0,0:0:0:0:
256,192,182540,1,8,0:0:0:0:
256,192,182615,1,8,0:0:0:0:
256,192,182690,1,0,0:0:0:0:
256,192,182765,1,0,0:0:0:0:
256,192,182840,1,8,0:0:0:0:
256,192,182915,1,8,0:0:0:0:
256,192,182990,1,0,0:0:0:0:
256,192,183065,1,8,0:0:0:0:
256,192,183140,1,8,0:0:0:0:
256,192,183215,1,8,0:0:0:0:
256,192,183290,1,4,0:0:0:0:
256,192,183590,1,8,0:0:0:0:
256,192,183740,1,0,0:0:0:0:
256,192,183815,1,0,0:0:0:0:
256,192,183890,1,0,0:0:0:0:
256,192,184040,1,0,0:0:0:0:
256,192,184190,1,8,0:0:0:0:
256,192,184340,1,0,0:0:0:0:
256,192,184490,1,8,0:0:0:0:
256,192,184640,1,0,0:0:0:0:
256,192,184715,1,0,0:0:0:0:
256,192,184790,1,8,0:0:0:0:
256,192,184940,1,0,0:0:0:0:
256,192,185090,1,8,0:0:0:0:
256,192,185240,1,8,0:0:0:0:
256,192,185315,1,0,0:0:0:0:
256,192,185390,1,0,0:0:0:0:
256,192,185540,1,8,0:0:0:0:
256,192,185690,1,0,0:0:0:0:
256,192,185915,1,0,0:0:0:0:
256,192,185990,1,8,0:0:0:0:
256,192,186140,1,0,0:0:0:0:
256,192,186290,1,8,0:0:0:0:
256,192,186440,1,0,0:0:0:0:
256,192,186590,1,8,0:0:0:0:
256,192,186740,1,8,0:0:0:0:
256,192,186815,1,8,0:0:0:0:
256,192,186890,1,0,0:0:0:0:
256,192,187040,1,0,0:0:0:0:
256,192,187190,1,8,0:0:0:0:
256,192,187340,1,0,0:0:0:0:
256,192,187415,1,8,0:0:0:0:
256,192,187490,1,0,0:0:0:0:
256,192,187565,1,0,0:0:0:0:
256,192,187640,1,8,0:0:0:0:
256,192,187715,1,8,0:0:0:0:
256,192,187790,1,0,0:0:0:0:
256,192,187940,1,8,0:0:0:0:
256,192,188090,1,0,0:0:0:0:
256,192,188315,1,0,0:0:0:0:
256,192,188390,1,8,0:0:0:0:
256,192,188540,1,0,0:0:0:0:
256,192,188690,1,8,0:0:0:0:
256,192,188840,1,0,0:0:0:0:
256,192,188915,1,0,0:0:0:0:
256,192,188990,1,8,0:0:0:0:
256,192,189140,1,8,0:0:0:0:
256,192,189290,1,0,0:0:0:0:
256,192,189440,1,0,0:0:0:0:
256,192,189590,1,8,0:0:0:0:
256,192,189740,1,0,0:0:0:0:
256,192,189815,1,8,0:0:0:0:
256,192,189890,1,8,0:0:0:0:
256,192,190040,1,0,0:0:0:0:
256,192,190190,1,8,0:0:0:0:
256,192,190265,1,0,0:0:0:0:
256,192,190340,1,8,0:0:0:0:
256,192,190490,1,0,0:0:0:0:
256,192,190715,1,0,0:0:0:0:
256,192,190790,1,8,0:0:0:0:
256,192,190940,1,0,0:0:0:0:
256,192,191090,1,0,0:0:0:0:
256,192,191240,1,8,0:0:0:0:
256,192,191390,1,8,0:0:0:0:
256,192,191540,1,0,0:0:0:0:
256,192,191690,1,0,0:0:0:0:
256,192,191765,1,0,0:0:0:0:
256,192,191840,1,8,0:0:0:0:
256,192,191915,1,8,0:0:0:0:
256,192,191990,1,0,0:0:0:0:
256,192,192140,1,8,0:0:0:0:
256,192,192215,1,0,0:0:0:0:
256,192,192290,1,0,0:0:0:0:
256,192,192365,1,0,0:0:0:0:
256,192,192440,1,8,0:0:0:0:
256,192,192515,1,8,0:0:0:0:
256,192,192590,1,0,0:0:0:0:
256,192,192665,1,8,0:0:0:0:
256,192,192740,1,8,0:0:0:0:
256,192,192815,1,8,0:0:0:0:
256,192,192890,1,0,0:0:0:0:
256,192,193190,1,8,0:0:0:0:
256,192,193340,1,0,0:0:0:0:
256,192,193415,1,0,0:0:0:0:
256,192,193490,1,0,0:0:0:0:
256,192,193640,1,0,0:0:0:0:
256,192,193790,1,8,0:0:0:0:
256,192,193940,1,8,0:0:0:0:
256,192,194015,1,8,0:0:0:0:
256,192,194090,1,0,0:0:0:0:
256,192,194240,1,0,0:0:0:0:
256,192,194390,1,8,0:0:0:0:
256,192,194540,1,0,0:0:0:0:
256,192,194615,1,8,0:0:0:0:
256,192,194690,1,0,0:0:0:0:
256,192,194840,1,0,0:0:0:0:
256,192,194990,1,8,0:0:0:0:
256,192,195140,1,8,0:0:0:0:
256,192,195290,1,0,0:0:0:0:
256,192,195515,1,0,0:0:0:0:
256,192,195590,1,8,0:0:0:0:
256,192,195740,1,0,0:0:0:0:
256,192,195890,1,8,0:0:0:0:
256,192,196040,1,8,0:0:0:0:
256,192,196115,1,0,0:0:0:0:
256,192,196190,1,0,0:0:0:0:
256,192,196340,1,8,0:0:0:0:
256,192,196490,1,8,0:0:0:0:
256,192,196640,1,0,0:0:0:0:
256,192,196790,1,8,0:0:0:0:
256,192,196940,1,0,0:0:0:0:
256,192,197015,1,0,0:0:0:0:
256,192,197090,1,8,0:0:0:0:
256,192,197165,1,8,0:0:0:0:
256,192,197240,1,0,0:0:0:0:
256,192,197390,1,8,0:0:0:0:
256,192,197540,1,8,0:0:0:0:
256,192,197690,1,0,0:0:0:0:
256,192,197915,1,0,0:0:0:0:
256,192,197990,1,8,0:0:0:0:
256,192,198140,1,0,0:0:0:0:
256,192,198290,1,8,0:0:0:0:
256,192,198440,1,0,0:0:0:0:
256,192,198515,1,0,0:0:0:0:
256,192,198590,1,8,0:0:0:0:
256,192,198740,1,8,0:0:0:0:
256,192,198890,1,0,0:0:0:0:
256,192,199040,1,0,0:0:0:0:
256,192,199190,1,8,0:0:0:0:
256,192,199340,1,8,0:0:0:0:
256,192,199415,1,8,0:0:0:0:
256,192,199490,1,0,0:0:0:0:
256,192,199640,1,0,0:0:0:0:
256,192,199790,1,8,0:0:0:0:
256,192,199865,1,0,0:0:0:0:
256,192,199940,1,8,0:0:0:0:
256,192,200090,1,0,0:0:0:0:
256,192,200315,1,0,0:0:0:0:
256,192,200390,1,8,0:0:0:0:
256,192,200540,1,0,0:0:0:0:
256,192,200690,1,8,0:0:0:0:
256,192,200765,1,0,0:0:0:0:
256,192,200840,1,0,0:0:0:0:
256,192,200990,1,8,0:0:0:0:
256,192,201140,1,8,0:0:0:0:
256,192,201290,1,0,0:0:0:0:
256,192,201365,1,0,0:0:0:0:
256,192,201440,1,8,0:0:0:0:
256,192,201515,1,8,0:0:0:0:
256,192,201590,1,0,0:0:0:0:
256,192,201740,1,0,0:0:0:0:
256,192,201815,1,0,0:0:0:0:
256,192,201890,1,0,0:0:0:0:
256,192,201965,1,8,0:0:0:0:
256,192,202040,1,0,0:0:0:0:
256,192,202115,1,0,0:0:0:0:
256,192,202190,1,8,0:0:0:0:
256,192,202265,1,8,0:0:0:0:
256,192,202340,1,0,0:0:0:0:
256,192,202415,1,0,0:0:0:0:
256,192,202490,5,8,0:0:0:0:
256,192,202940,1,8,0:0:0:0:
256,192,203390,1,8,0:0:0:0:
256,192,204890,1,0,0:0:0:0:
256,192,205340,1,0,0:0:0:0:
256,192,205790,1,8,0:0:0:0:
256,192,206390,1,8,0:0:0:0:
256,192,207290,1,0,0:0:0:0:
256,192,207740,1,0,0:0:0:0:
256,192,208190,1,0,0:0:0:0:
256,192,209690,1,8,0:0:0:0:
256,192,210140,1,8,0:0:0:0:
256,192,210590,1,8,0:0:0:0:
