osu file format v14

[General]
AudioFilename: audio.ogg
AudioLeadIn: 0
PreviewTime: 144890
Countdown: 1
SampleSet: Normal
StackLeniency: 0.7
Mode: 1
LetterboxInBreaks: 0
WidescreenStoryboard: 1

[Editor]
Bookmarks: 890,10490,20090,29690,39290,48890,58490,68090,72890,77690,87290,96890,101690,116090,125690,135290,144890,154490,164090,173690,183290,192890,202490
DistanceSpacing: 1.2
BeatDivisor: 4
GridSize: 32
TimelineZoom: 2.5

[Metadata]
Title:LANA - Kiroku no Kakera (sasakure.UK Framework Remix) -
TitleUnicode:LANA - キロクノカケラ (sasakure.UK Framework Remix) -
Artist:TOMOSUKE x Jazzin'park
ArtistUnicode:TOMOSUKE×Jazzin'park
Creator:gaston_2199
Version:Colorless
Source:jubeat saucer
Tags:- a Piece of Memories - 村上来渚 Murakami 栗原暁 Satoru Kurihara 久保田真悟 Singo Kubota ささくれP SasakureP 舟木智介 Funaki ゼクトバッハ Zektbach ジャジンパーク full version pop jpop video game electronic japanese famale vocal Axer _DUSK_ -Dusk Dusk- Megafan
BeatmapID:1932756
BeatmapSetID:925255

[Difficulty]
HPDrainRate:6
CircleSize:2
OverallDifficulty:7
ApproachRate:10
SliderMultiplier:1.4
SliderTickRate:1

[Events]
//Background and Video events
0,0,"BG.jpg",0,0
//Break Periods
//Storyboard Layer 0 (Background)
//Storyboard Layer 1 (Fail)
//Storyboard Layer 2 (Pass)
//Storyboard Layer 3 (Foreground)
//Storyboard Layer 4 (Overlay)
//Storyboard Sound Samples

[TimingPoints]
890,300,4,1,0,60,1,0
890,-133.333333333333,4,1,0,60,0,0
10490,-125,4,1,0,70,0,0
20090,-100,4,1,0,80,0,0
28790,-110.983972804487,4,1,0,80,0,0
29090,-124.678640803329,4,1,0,80,0,0
29390,-111.238541039791,4,1,0,80,0,0
29540,-105.434739059564,4,1,0,80,0,0
29690,-100.206626062942,4,1,0,80,0,0
49040,-111.111111111111,4,1,0,70,0,0
58490,-125,4,1,0,60,0,0
68090,-111.111111111111,4,1,0,80,0,0
76490,-109.58904109589,4,1,0,80,0,0
76565,-108.108108108108,4,1,0,80,0,0
76640,-106.666666666667,4,1,0,80,0,0
76715,-105.263157894737,4,1,0,80,0,0
76790,-103.896103896104,4,1,0,80,0,0
76865,-102.564102564103,4,1,0,80,0,0
76940,-101.26582278481,4,1,0,80,0,0
77015,-100,4,1,0,80,0,0
77090,-98.7654320987654,4,1,0,80,0,0
77165,-97.5609756097561,4,1,0,80,0,0
77240,-96.3855421686747,4,1,0,80,0,0
77315,-95.2380952380952,4,1,0,80,0,0
77390,-94.1176470588235,4,1,0,80,0,0
77465,-93.0232558139535,4,1,0,80,0,0
77540,-91.9540229885057,4,1,0,80,0,0
77690,-90.9090909090909,4,1,0,90,0,1
86090,-91.8324241923338,4,1,0,90,0,1
86165,-92.301160225584,4,1,0,90,0,1
86240,-92.7747059041823,4,1,0,90,0,1
86315,-93.2531356366858,4,1,0,90,0,1
86390,-93.7365253744774,4,1,0,90,0,1
86465,-94.2249526519613,4,1,0,90,0,1
86540,-94.7184966280215,4,1,0,90,0,1
86615,-95.2172381287908,4,1,0,90,0,1
86690,-95.7212596917775,4,1,0,90,0,1
86765,-96.230553008119,4,1,0,90,0,1
86840,-96.745388389199,4,1,0,90,0,1
86915,-97.2657621599224,4,1,0,90,0,1
86990,-97.7917641732049,4,1,0,90,0,1
87065,-98.3234862361868,4,1,0,90,0,1
87140,-98.8610221636526,4,1,0,90,0,1
87290,-100,4,1,0,80,0,0
97040,-124.941121496495,4,1,0,70,0,0
101690,-100,4,1,0,80,0,0
112640,-102.550429173546,4,1,0,80,0,0
112790,-105.23446765566,4,1,0,80,0,0
112940,-108.062663377239,4,1,0,80,0,0
113090,-111.047197279788,4,1,0,80,0,0
113140,-112.078975329176,4,1,0,80,0,0
113190,-113.130106410178,4,1,0,80,0,0
113240,-114.201140184184,4,1,0,80,0,0
113390,-117.539613788337,4,1,0,80,0,0
113540,-121.079007684885,4,1,0,80,0,0
113690,-124.838334357008,4,1,0,70,0,0
135290,-124.838334357008,4,1,0,60,0,0
144890,-142.857142857143,4,1,0,70,0,0
153290,-140.495867768595,4,1,0,70,0,0
153365,-138.211382113821,4,1,0,70,0,0
153440,-136,4,1,0,70,0,0
153515,-133.858267716535,4,1,0,70,0,0
153590,-131.782945736434,4,1,0,70,0,0
153665,-129.770992366412,4,1,0,70,0,0
153740,-127.81954887218,4,1,0,70,0,0
153815,-125.925925925926,4,1,0,70,0,0
153890,-124.087591240876,4,1,0,70,0,0
153965,-122.302158273381,4,1,0,70,0,0
154040,-120.567375886525,4,1,0,70,0,0
154115,-118.881118881119,4,1,0,70,0,0
154190,-117.241379310345,4,1,0,70,0,0
154265,-115.646258503401,4,1,0,70,0,0
154340,-114.093959731544,4,1,0,70,0,0
154415,-112.582781456954,4,1,0,70,0,0
154490,-111.111111111111,4,1,0,80,0,0
162890,-109.58904109589,4,1,0,80,0,0
162965,-108.108108108108,4,1,0,80,0,0
163040,-106.666666666667,4,1,0,80,0,0
163115,-105.263157894737,4,1,0,80,0,0
163190,-103.896103896104,4,1,0,80,0,0
163265,-102.564102564103,4,1,0,80,0,0
163340,-101.26582278481,4,1,0,80,0,0
163415,-100,4,1,0,80,0,0
163490,-98.7654320987654,4,1,0,80,0,0
163565,-97.5609756097561,4,1,0,80,0,0
163640,-96.3855421686747,4,1,0,80,0,0
163715,-95.2380952380952,4,1,0,80,0,0
163790,-94.1176470588235,4,1,0,80,0,0
163865,-93.0232558139535,4,1,0,80,0,0
163940,-91.9540229885057,4,1,0,80,0,0
164090,-90.9090909090909,4,1,0,90,0,1
172490,-90.0041401904488,4,1,0,90,0,1
172565,-89.5583875907898,4,1,0,90,0,1
172640,-89.1170284818023,4,1,0,90,0,1
172715,-88.6799982264,4,1,0,90,0,1
172790,-88.2472334492314,4,1,0,90,0,1
172865,-87.8186720060419,4,1,0,90,0,1
172940,-87.3942529539258,4,1,0,90,0,1
173015,-86.9739165224349,4,1,0,90,0,1
173090,-86.5576040855189,4,1,0,90,0,1
173165,-86.1453323443849,4,1,0,90,0,1
173240,-85.73689575851,4,1,0,90,0,1
173315,-85.3323138966233,4,1,0,90,0,1
173390,-84.9315324451194,4,1,0,90,0,1
173465,-84.5344981060046,4,1,0,90,0,1
173540,-84.1411585732689,4,1,0,90,0,1
173690,-83.3653595256178,4,1,0,90,0,1
182090,-84.8982918463681,4,1,0,90,0,1
182165,-85.7030218885518,4,1,0,90,0,1
182240,-86.5231535959023,4,1,0,90,0,1
182315,-87.3591333973967,4,1,0,90,0,1
182390,-88.211347331298,4,1,0,90,0,1
182465,-89.0804316125072,4,1,0,90,0,1
182540,-89.9668112433323,4,1,0,90,0,1
182615,-90.8710076958656,4,1,0,90,0,1
182690,-91.7935636189062,4,1,0,90,0,1
182765,-92.7350439239536,4,1,0,90,0,1
182840,-93.6960369387256,4,1,0,90,0,1
182915,-94.6771556331487,4,1,0,90,0,1
182990,-95.6790389231898,4,1,0,90,0,1
183065,-96.702353058357,4,1,0,90,0,1
183140,-97.7477930992013,4,1,0,90,0,1
183290,-100,4,1,0,80,0,0
201290,-101.492537313433,4,1,0,80,0,0
201365,-103.030303030303,4,1,0,80,0,0
201440,-104.615384615385,4,1,0,80,0,0
201515,-106.25,4,1,0,80,0,0
201590,-107.936507936508,4,1,0,80,0,0
201665,-109.677419354839,4,1,0,80,0,0
201740,-111.475409836066,4,1,0,80,0,0
201815,-113.333333333333,4,1,0,80,0,0
201890,-115.254237288136,4,1,0,80,0,0
201965,-117.241379310345,4,1,0,80,0,0
202040,-119.298245614035,4,1,0,80,0,0
202115,-121.428571428571,4,1,0,80,0,0
202190,-123.636363636364,4,1,0,80,0,0
202265,-125.925925925926,4,1,0,80,0,0
202340,-128.301886792453,4,1,0,80,0,0
202415,-130.769230769231,4,1,0,80,0,0
202490,-133.333333333333,4,1,0,70,0,0

[HitObjects]
256,192,890,5,0,0:0:0:0:
256,192,1340,1,0,0:0:0:0:
256,192,2090,1,0,0:0:0:0:
256,192,2540,1,0,0:0:0:0:
256,192,3290,1,0,0:0:0:0:
256,192,3740,1,0,0:0:0:0:
256,192,4490,1,0,0:0:0:0:
256,192,4940,1,0,0:0:0:0:
219,111,5090,1,8,0:0:0:0:
256,192,5690,5,0,0:0:0:0:
256,192,6140,1,0,0:0:0:0:
256,192,6890,1,0,0:0:0:0:
256,192,7340,1,0,0:0:0:0:
256,192,8090,1,0,0:0:0:0:
256,192,8540,1,0,0:0:0:0:
256,192,9290,1,0,0:0:0:0:
256,192,9740,1,0,0:0:0:0:
256,192,9890,1,8,0:0:0:0:
256,192,10490,5,0,0:0:0:0:
256,192,10940,1,0,0:0:0:0:
256,192,11390,1,0,0:0:0:0:
256,192,11690,1,8,0:0:0:0:
256,192,12890,1,0,0:0:0:0:
256,192,13340,1,0,0:0:0:0:
256,192,13790,1,0,0:0:0:0:
256,192,14090,1,8,0:0:0:0:
256,192,14690,1,8,0:0:0:0:
256,192,15290,5,0,0:0:0:0:
256,192,15740,1,0,0:0:0:0:
256,192,16190,1,0,0:0:0:0:
256,192,16490,1,8,0:0:0:0:
256,192,17690,1,8,0:0:0:0:
256,192,18140,1,8,0:0:0:0:
256,192,18740,8,0,19940,0:0:0:0:
256,192,20090,5,4,0:0:0:0:
256,192,20240,1,0,0:0:0:0:
256,192,20315,1,0,0:0:0:0:
256,192,20390,1,8,0:0:0:0:
256,192,20540,1,0,0:0:0:0:
256,192,20840,1,8,0:0:0:0:
256,192,20990,1,0,0:0:0:0:
256,192,21065,1,0,0:0:0:0:
256,192,21140,1,0,0:0:0:0:
256,192,21290,1,0,0:0:0:0:
257,183,21440,1,8,0:0:0:0:
257,183,21590,1,8,0:0:0:0:
257,183,21665,1,8,0:0:0:0:
257,183,21740,1,0,0:0:0:0:
256,192,21890,1,8,0:0:0:0:
256,160,21940,1,8,0:0:0:0:
256,192,21990,1,0,0:0:0:0:
256,192,22040,1,0,0:0:0:0:
256,192,22190,1,0,0:0:0:0:
256,192,22340,1,8,0:0:0:0:
256,192,22490,1,0,0:0:0:0:
256,192,22640,1,0,0:0:0:0:
256,192,22715,1,0,0:0:0:0:
256,192,22790,1,8,0:0:0:0:
256,192,22940,1,0,0:0:0:0:
256,192,23240,1,8,0:0:0:0:
256,192,23390,1,0,0:0:0:0:
248,189,23465,1,0,0:0:0:0:
256,192,23540,1,0,0:0:0:0:
256,192,23690,1,0,0:0:0:0:
256,192,23840,1,8,0:0:0:0:
256,192,23990,1,8,0:0:0:0:
256,192,24065,1,0,0:0:0:0:
256,192,24140,1,0,0:0:0:0:
256,192,24290,1,8,0:0:0:0:
256,192,24340,1,8,0:0:0:0:
256,192,24390,1,8,0:0:0:0:
256,192,24440,1,0,0:0:0:0:
256,192,24515,1,0,0:0:0:0:
256,192,24590,1,8,0:0:0:0:
256,192,24740,1,8,0:0:0:0:
256,192,24890,5,0,0:0:0:0:
256,192,25040,1,0,0:0:0:0:
256,192,25115,1,0,0:0:0:0:
256,192,25190,1,8,0:0:0:0:
256,192,25340,1,0,0:0:0:0:
256,192,25640,1,8,0:0:0:0:
256,192,25790,1,0,0:0:0:0:
256,192,25865,1,0,0:0:0:0:
256,192,25940,1,0,0:0:0:0:
256,192,26090,1,0,0:0:0:0:
256,192,26240,1,8,0:0:0:0:
256,192,26390,1,8,0:0:0:0:
256,160,26465,1,8,0:0:0:0:
256,192,26540,1,0,0:0:0:0:
256,192,26690,1,8,0:0:0:0:
256,192,26765,1,8,0:0:0:0:
256,192,26840,1,0,0:0:0:0:
256,192,26915,1,0,0:0:0:0:
256,192,26990,1,0,0:0:0:0:
256,192,27140,1,8,0:0:0:0:
256,192,27290,1,0,0:0:0:0:
256,192,27440,1,0,0:0:0:0:
256,192,27515,1,0,0:0:0:0:
256,192,27590,1,8,0:0:0:0:
256,192,27740,1,0,0:0:0:0:
256,192,28040,1,8,0:0:0:0:
256,192,28190,1,0,0:0:0:0:
256,192,28265,1,0,0:0:0:0:
256,192,28340,1,0,0:0:0:0:
256,192,28490,1,0,0:0:0:0:
256,192,28790,1,0,0:0:0:0:
256,192,29090,1,0,0:0:0:0:
256,192,29390,1,8,0:0:0:0:
256,192,29540,1,8,0:0:0:0:
256,192,29690,5,4,0:0:0:0:
256,192,29840,1,0,0:0:0:0:
256,192,29915,1,0,0:0:0:0:
256,192,29990,1,8,0:0:0:0:
256,192,30140,1,0,0:0:0:0:
256,192,30290,1,8,0:0:0:0:
256,192,30440,1,8,0:0:0:0:
256,192,30515,1,8,0:0:0:0:
256,192,30590,1,0,0:0:0:0:
256,192,30740,1,0,0:0:0:0:
256,192,30890,1,8,0:0:0:0:
256,192,31190,1,8,0:0:0:0:
256,192,31340,1,0,0:0:0:0:
256,192,31490,1,8,0:0:0:0:
256,192,31540,1,8,0:0:0:0:
256,192,31590,1,0,0:0:0:0:
256,192,31640,1,0,0:0:0:0:
256,192,31790,1,0,0:0:0:0:
256,192,31940,1,8,0:0:0:0:
256,192,32090,1,0,0:0:0:0:
256,192,32240,1,0,0:0:0:0:
256,192,32315,1,0,0:0:0:0:
256,192,32390,1,8,0:0:0:0:
256,192,32540,1,0,0:0:0:0:
256,192,32840,1,8,0:0:0:0:
256,192,32990,1,0,0:0:0:0:
256,192,33065,1,8,0:0:0:0:
256,192,33140,1,8,0:0:0:0:
256,192,33215,1,8,0:0:0:0:
256,192,33290,1,0,0:0:0:0:
256,192,33440,1,8,0:0:0:0:
256,192,33590,1,8,0:0:0:0:
256,192,33665,1,0,0:0:0:0:
256,192,33740,1,0,0:0:0:0:
256,192,33890,1,8,0:0:0:0:
224,160,33940,1,8,0:0:0:0:
256,192,33990,1,8,0:0:0:0:
256,192,34040,1,0,0:0:0:0:
256,192,34115,1,0,0:0:0:0:
256,192,34190,1,8,0:0:0:0:
256,192,34340,1,8,0:0:0:0:
256,192,34490,5,0,0:0:0:0:
256,192,34640,1,0,0:0:0:0:
291,182,34715,1,0,0:0:0:0:
256,192,34790,1,8,0:0:0:0:
256,192,34940,1,0,0:0:0:0:
224,192,35090,1,8,0:0:0:0:
256,192,35240,1,8,0:0:0:0:
256,192,35315,1,8,0:0:0:0:
256,192,35390,1,0,0:0:0:0:
256,192,35540,1,0,0:0:0:0:
256,192,35690,1,8,0:0:0:0:
256,192,35990,1,8,0:0:0:0:
256,192,36140,1,0,0:0:0:0:
256,192,36290,1,8,0:0:0:0:
244,170,36365,1,8,0:0:0:0:
288,192,36440,1,8,0:0:0:0:
288,192,36515,1,8,0:0:0:0:
256,192,36590,1,0,0:0:0:0:
256,192,36740,1,8,0:0:0:0:
256,192,36890,1,0,0:0:0:0:
256,192,37040,1,0,0:0:0:0:
288,192,37115,1,0,0:0:0:0:
256,192,37190,1,8,0:0:0:0:
256,192,37340,1,0,0:0:0:0:
256,192,37640,1,8,0:0:0:0:
256,192,37790,1,0,0:0:0:0:
256,192,37865,1,0,0:0:0:0:
256,192,37940,1,0,0:0:0:0:
256,192,38090,1,0,0:0:0:0:
256,192,38240,1,8,0:0:0:0:
256,192,38390,1,0,0:0:0:0:
256,192,38540,1,8,0:0:0:0:
256,192,38615,1,0,0:0:0:0:
256,192,38690,1,8,0:0:0:0:
256,192,38765,1,8,0:0:0:0:
256,192,38840,1,0,0:0:0:0:
256,192,38915,1,0,0:0:0:0:
256,192,38990,1,8,0:0:0:0:
256,192,39065,1,0,0:0:0:0:
256,192,39140,1,8,0:0:0:0:
256,192,39290,1,0,0:0:0:0:
256,192,39440,5,0,0:0:0:0:
294,181,39515,1,0,0:0:0:0:
256,192,39590,1,8,0:0:0:0:
256,192,39740,1,0,0:0:0:0:
256,192,39890,1,8,0:0:0:0:
256,192,40040,1,8,0:0:0:0:
256,192,40115,1,8,0:0:0:0:
256,192,40190,1,0,0:0:0:0:
256,192,40340,1,0,0:0:0:0:
256,192,40490,1,8,0:0:0:0:
256,192,40790,1,8,0:0:0:0:
256,192,40940,1,0,0:0:0:0:
256,192,41090,1,8,0:0:0:0:
256,192,41140,1,8,0:0:0:0:
256,192,41190,1,0,0:0:0:0:
256,192,41240,1,0,0:0:0:0:
256,192,41390,1,0,0:0:0:0:
256,192,41540,1,8,0:0:0:0:
256,192,41690,1,0,0:0:0:0:
256,192,41840,1,0,0:0:0:0:
301,179,41915,1,0,0:0:0:0:
256,192,41990,1,8,0:0:0:0:
256,192,42140,1,0,0:0:0:0:
256,192,42440,1,8,0:0:0:0:
256,192,42590,1,0,0:0:0:0:
256,192,42665,1,8,0:0:0:0:
256,192,42740,1,8,0:0:0:0:
256,192,42815,1,8,0:0:0:0:
256,192,42890,1,0,0:0:0:0:
256,192,43040,1,8,0:0:0:0:
256,192,43190,1,8,0:0:0:0:
256,192,43265,1,0,0:0:0:0:
256,192,43340,1,0,0:0:0:0:
256,192,43490,1,8,0:0:0:0:
224,160,43540,1,8,0:0:0:0:
256,192,43590,1,8,0:0:0:0:
256,192,43640,1,0,0:0:0:0:
256,192,43715,1,0,0:0:0:0:
256,192,43790,1,8,0:0:0:0:
256,192,43940,1,8,0:0:0:0:
256,192,44090,5,0,0:0:0:0:
256,192,44240,1,0,0:0:0:0:
295,181,44315,1,0,0:0:0:0:
256,192,44390,1,8,0:0:0:0:
256,192,44540,1,0,0:0:0:0:
224,192,44690,1,8,0:0:0:0:
256,192,44840,1,8,0:0:0:0:
256,192,44915,1,8,0:0:0:0:
256,192,44990,1,0,0:0:0:0:
256,192,45140,1,0,0:0:0:0:
256,192,45290,1,8,0:0:0:0:
256,192,45590,1,8,0:0:0:0:
256,192,45740,1,0,0:0:0:0:
256,192,45890,1,8,0:0:0:0:
256,192,45940,1,8,0:0:0:0:
256,192,45990,1,0,0:0:0:0:
256,192,46040,1,0,0:0:0:0:
256,192,46190,1,0,0:0:0:0:
256,192,46340,1,8,0:0:0:0:
256,192,46490,1,0,0:0:0:0:
256,192,46640,1,0,0:0:0:0:
298,180,46715,1,0,0:0:0:0:
256,192,46790,1,8,0:0:0:0:
256,192,46940,1,0,0:0:0:0:
256,192,47240,1,8,0:0:0:0:
256,192,47390,1,0,0:0:0:0:
256,192,47540,1,8,0:0:0:0:
256,192,47615,1,8,0:0:0:0:
256,192,47690,1,0,0:0:0:0:
256,192,47840,1,8,0:0:0:0:
256,192,47990,1,0,0:0:0:0:
256,192,48140,1,8,0:0:0:0:
256,192,48290,1,8,0:0:0:0:
288,192,48365,1,8,0:0:0:0:
256,192,48440,1,0,0:0:0:0:
256,192,48515,1,0,0:0:0:0:
256,192,48590,1,0,0:0:0:0:
256,192,48740,1,8,0:0:0:0:
256,192,48890,5,4,0:0:0:0:
256,192,49190,1,8,0:0:0:0:
256,192,49340,1,0,0:0:0:0:
256,192,49640,1,0,0:0:0:0:
256,192,49790,1,8,0:0:0:0:
256,192,49940,1,0,0:0:0:0:
256,192,50090,1,8,0:0:0:0:
256,192,50240,1,8,0:0:0:0:
256,192,50390,1,0,0:0:0:0:
256,192,50540,1,0,0:0:0:0:
256,192,50840,1,0,0:0:0:0:
256,192,50990,1,8,0:0:0:0:
256,192,51140,1,0,0:0:0:0:
256,192,51290,5,0,0:0:0:0:
256,192,51440,1,0,0:0:0:0:
256,192,51590,1,8,0:0:0:0:
256,192,51740,1,0,0:0:0:0:
256,192,52040,1,0,0:0:0:0:
256,192,52190,1,8,0:0:0:0:
256,192,52340,1,0,0:0:0:0:
256,192,52490,1,8,0:0:0:0:
256,192,52640,1,8,0:0:0:0:
256,192,52790,1,0,0:0:0:0:
256,192,52940,1,8,0:0:0:0:
256,192,53240,1,8,0:0:0:0:
256,192,53390,1,8,0:0:0:0:
256,192,53540,1,0,0:0:0:0:
256,192,53690,5,0,0:0:0:0:
256,192,53840,1,0,0:0:0:0:
256,192,53990,1,8,0:0:0:0:
256,192,54140,1,0,0:0:0:0:
256,192,54440,1,0,0:0:0:0:
256,192,54590,1,8,0:0:0:0:
256,192,54740,1,0,0:0:0:0:
256,192,54890,1,8,0:0:0:0:
256,192,55040,1,8,0:0:0:0:
256,192,55190,1,0,0:0:0:0:
256,192,55340,1,0,0:0:0:0:
256,192,55490,1,8,0:0:0:0:
288,192,55540,1,8,0:0:0:0:
256,192,55590,1,8,0:0:0:0:
256,192,55640,1,0,0:0:0:0:
256,192,55715,1,0,0:0:0:0:
256,192,55790,1,8,0:0:0:0:
256,192,55940,1,8,0:0:0:0:
256,192,56090,5,0,0:0:0:0:
256,192,56240,1,0,0:0:0:0:
256,192,56390,1,8,0:0:0:0:
256,192,56540,1,0,0:0:0:0:
256,192,56690,1,8,0:0:0:0:
256,192,56990,1,8,0:0:0:0:
256,192,57140,1,0,0:0:0:0:
256,192,57440,1,0,0:0:0:0:
256,192,57590,1,0,0:0:0:0:
256,192,57740,1,0,0:0:0:0:
256,192,57890,1,0,0:0:0:0:
256,192,58040,1,0,0:0:0:0:
256,192,58190,1,8,0:0:0:0:
277,191,58490,5,0,0:0:0:0:
288,192,58940,1,0,0:0:0:0:
288,192,59090,1,8,0:0:0:0:
251,188,59240,1,0,0:0:0:0:
288,192,59540,1,8,0:0:0:0:
288,192,59690,1,0,0:0:0:0:
241,187,59840,1,8,0:0:0:0:
288,192,60140,1,0,0:0:0:0:
277,191,60290,1,8,0:0:0:0:
288,192,60740,1,8,0:0:0:0:
288,192,60890,1,0,0:0:0:0:
288,192,61340,1,0,0:0:0:0:
288,192,61490,1,8,0:0:0:0:
253,161,61640,1,8,0:0:0:0:
288,192,61940,1,8,0:0:0:0:
288,192,62090,1,0,0:0:0:0:
288,192,62240,1,8,0:0:0:0:
288,192,62390,1,0,0:0:0:0:
288,192,62540,1,0,0:0:0:0:
288,192,62690,1,8,0:0:0:0:
288,192,62840,1,0,0:0:0:0:
283,119,62990,1,0,0:0:0:0:
288,192,63290,5,0,0:0:0:0:
245,148,63440,1,8,0:0:0:0:
288,192,63590,1,0,0:0:0:0:
288,192,63740,1,0,0:0:0:0:
288,192,63890,1,8,0:0:0:0:
242,146,64040,1,0,0:0:0:0:
288,192,64190,1,8,0:0:0:0:
288,192,64340,1,8,0:0:0:0:
288,192,64490,1,0,0:0:0:0:
288,192,64640,1,0,0:0:0:0:
288,192,64790,1,8,0:0:0:0:
288,192,64940,1,0,0:0:0:0:
288,192,65090,1,8,0:0:0:0:
288,192,65390,1,8,0:0:0:0:
288,192,65540,1,8,0:0:0:0:
288,192,65690,1,0,0:0:0:0:
256,192,66140,1,0,0:0:0:0:
256,192,66740,8,0,67940,0:0:0:0:
256,192,68090,5,0,0:0:0:0:
256,192,68390,1,8,0:0:0:0:
256,192,68540,1,0,0:0:0:0:
256,192,68690,1,8,0:0:0:0:
256,192,68990,1,0,0:0:0:0:
256,192,69140,1,8,0:0:0:0:
256,192,69290,1,0,0:0:0:0:
245,192,69440,1,0,0:0:0:0:
256,192,69590,1,8,0:0:0:0:
256,192,69740,1,8,0:0:0:0:
256,192,69815,1,0,0:0:0:0:
256,192,69890,1,8,0:0:0:0:
256,192,70040,1,0,0:0:0:0:
256,192,70190,1,8,0:0:0:0:
256,192,70340,1,8,0:0:0:0:
256,192,70490,1,0,0:0:0:0:
256,192,70790,1,0,0:0:0:0:
256,192,70940,1,0,0:0:0:0:
256,192,71090,1,8,0:0:0:0:
256,192,71390,1,8,0:0:0:0:
245,192,71540,1,8,0:0:0:0:
245,192,71690,1,0,0:0:0:0:
245,192,71840,1,0,0:0:0:0:
256,192,71990,1,8,0:0:0:0:
256,192,72140,1,0,0:0:0:0:
256,192,72290,1,8,0:0:0:0:
256,192,72340,1,8,0:0:0:0:
256,192,72390,1,8,0:0:0:0:
256,192,72440,1,0,0:0:0:0:
256,192,72515,1,0,0:0:0:0:
256,192,72590,1,8,0:0:0:0:
256,192,72740,1,8,0:0:0:0:
256,192,72890,5,0,0:0:0:0:
256,192,73190,1,8,0:0:0:0:
256,192,73340,1,0,0:0:0:0:
256,192,73490,1,8,0:0:0:0:
256,192,73790,1,0,0:0:0:0:
256,192,73940,1,8,0:0:0:0:
256,192,74090,1,0,0:0:0:0:
245,192,74240,1,0,0:0:0:0:
256,192,74390,1,8,0:0:0:0:
256,192,74540,1,8,0:0:0:0:
256,192,74615,1,0,0:0:0:0:
256,192,74690,1,8,0:0:0:0:
256,192,74765,1,8,0:0:0:0:
256,192,74840,1,0,0:0:0:0:
256,192,74915,1,0,0:0:0:0:
256,192,74990,1,8,0:0:0:0:
256,192,75065,1,0,0:0:0:0:
256,192,75140,1,8,0:0:0:0:
256,192,75290,1,0,0:0:0:0:
256,192,75590,1,0,0:0:0:0:
256,192,75740,1,0,0:0:0:0:
256,192,75890,1,8,0:0:0:0:
256,192,76190,1,8,0:0:0:0:
256,192,76340,1,8,0:0:0:0:
256,192,76490,1,0,0:0:0:0:
256,192,76565,1,0,0:0:0:0:
256,192,76640,1,8,0:0:0:0:
256,192,76715,1,0,0:0:0:0:
256,192,76790,1,0,0:0:0:0:
256,192,76865,1,0,0:0:0:0:
256,192,76940,1,8,0:0:0:0:
256,192,77015,1,8,0:0:0:0:
256,192,77090,1,0,0:0:0:0:
256,192,77165,1,8,0:0:0:0:
256,192,77240,1,0,0:0:0:0:
256,192,77315,1,0,0:0:0:0:
256,192,77390,1,8,0:0:0:0:
256,192,77465,1,0,0:0:0:0:
256,192,77540,1,8,0:0:0:0:
256,192,77690,5,4,0:0:0:0:
256,192,77840,1,0,0:0:0:0:
256,192,77915,1,0,0:0:0:0:
256,192,77990,1,8,0:0:0:0:
256,192,78140,1,0,0:0:0:0:
256,192,78290,1,8,0:0:0:0:
256,192,78365,1,0,0:0:0:0:
256,192,78440,1,8,0:0:0:0:
256,192,78515,1,0,0:0:0:0:
256,192,78590,1,8,0:0:0:0:
256,192,78740,1,0,0:0:0:0:
256,192,78890,1,8,0:0:0:0:
256,192,78965,1,0,0:0:0:0:
256,192,79040,1,0,0:0:0:0:
256,192,79190,1,8,0:0:0:0:
256,192,79340,1,8,0:0:0:0:
256,192,79415,1,0,0:0:0:0:
256,192,79490,1,8,0:0:0:0:
256,192,79640,1,0,0:0:0:0:
256,192,79715,1,0,0:0:0:0:
256,192,79790,1,8,0:0:0:0:
256,192,79940,1,8,0:0:0:0:
256,192,80090,1,0,0:0:0:0:
256,192,80240,1,0,0:0:0:0:
256,192,80315,1,0,0:0:0:0:
256,192,80390,1,8,0:0:0:0:
256,192,80540,1,0,0:0:0:0:
256,192,80690,1,0,0:0:0:0:
256,192,80765,1,8,0:0:0:0:
256,192,80840,1,0,0:0:0:0:
256,192,80915,1,0,0:0:0:0:
256,192,80990,1,8,0:0:0:0:
256,192,81140,1,0,0:0:0:0:
256,192,81290,1,8,0:0:0:0:
256,192,81440,1,8,0:0:0:0:
256,192,81515,1,0,0:0:0:0:
256,192,81590,1,8,0:0:0:0:
256,192,81665,1,8,0:0:0:0:
256,192,81740,1,0,0:0:0:0:
256,192,81815,1,0,0:0:0:0:
256,192,81890,1,8,0:0:0:0:
256,192,81940,1,8,0:0:0:0:
256,192,81990,1,8,0:0:0:0:
256,192,82040,1,0,0:0:0:0:
256,192,82115,1,0,0:0:0:0:
256,192,82190,1,8,0:0:0:0:
256,192,82265,1,0,0:0:0:0:
256,192,82340,1,8,0:0:0:0:
256,192,82490,5,0,0:0:0:0:
256,192,82640,1,0,0:0:0:0:
256,192,82715,1,0,0:0:0:0:
256,192,82790,1,8,0:0:0:0:
256,192,82940,1,0,0:0:0:0:
256,192,83015,1,8,0:0:0:0:
256,192,83090,1,0,0:0:0:0:
256,192,83240,1,0,0:0:0:0:
256,192,83390,1,8,0:0:0:0:
256,192,83465,1,0,0:0:0:0:
256,192,83540,1,8,0:0:0:0:
256,192,83615,1,8,0:0:0:0:
256,192,83690,1,0,0:0:0:0:
256,192,83840,1,0,0:0:0:0:
256,192,83990,1,8,0:0:0:0:
256,192,84140,1,8,0:0:0:0:
256,192,84215,1,0,0:0:0:0:
256,192,84290,1,8,0:0:0:0:
256,160,84365,1,8,0:0:0:0:
256,192,84440,1,0,0:0:0:0:
256,192,84515,1,0,0:0:0:0:
256,192,84590,1,8,0:0:0:0:
256,192,84665,1,0,0:0:0:0:
256,192,84740,1,8,0:0:0:0:
242,217,84815,1,8,0:0:0:0:
256,192,84890,1,0,0:0:0:0:
256,192,85040,1,0,0:0:0:0:
256,192,85115,1,0,0:0:0:0:
256,192,85190,1,8,0:0:0:0:
256,192,85340,1,0,0:0:0:0:
256,192,85415,1,8,0:0:0:0:
256,192,85490,1,0,0:0:0:0:
249,148,85640,1,0,0:0:0:0:
256,192,85790,1,8,0:0:0:0:
256,192,85865,1,8,0:0:0:0:
256,192,85940,1,8,0:0:0:0:
256,192,86090,1,0,0:0:0:0:
256,192,86165,1,0,0:0:0:0:
256,192,86240,1,8,0:0:0:0:
256,192,86315,1,0,0:0:0:0:
256,192,86390,1,0,0:0:0:0:
256,192,86465,1,0,0:0:0:0:
256,192,86540,1,8,0:0:0:0:
256,192,86615,1,8,0:0:0:0:
256,192,86690,1,0,0:0:0:0:
256,192,86765,1,8,0:0:0:0:
256,192,86840,1,0,0:0:0:0:
256,192,86915,1,0,0:0:0:0:
256,192,86990,1,8,0:0:0:0:
256,192,87065,1,0,0:0:0:0:
256,192,87140,1,8,0:0:0:0:
256,192,87290,5,4,0:0:0:0:
256,192,87440,1,0,0:0:0:0:
256,192,87515,1,0,0:0:0:0:
256,192,87590,1,8,0:0:0:0:
256,192,87740,1,0,0:0:0:0:
256,192,88040,1,0,0:0:0:0:
256,192,88190,1,8,0:0:0:0:
256,192,88340,1,0,0:0:0:0:
256,192,88415,1,0,0:0:0:0:
256,192,88490,1,0,0:0:0:0:
256,192,88640,1,0,0:0:0:0:
256,192,88790,1,8,0:0:0:0:
256,192,88940,1,0,0:0:0:0:
256,192,89015,1,8,0:0:0:0:
256,192,89090,1,8,0:0:0:0:
256,192,89240,1,0,0:0:0:0:
256,192,89390,1,8,0:0:0:0:
256,192,89540,1,8,0:0:0:0:
256,192,89615,1,8,0:0:0:0:
256,192,89690,1,0,0:0:0:0:
256,192,89840,1,0,0:0:0:0:
256,192,89915,1,0,0:0:0:0:
256,192,89990,1,8,0:0:0:0:
256,192,90140,1,0,0:0:0:0:
256,192,90440,1,0,0:0:0:0:
256,192,90590,1,8,0:0:0:0:
256,192,90740,1,0,0:0:0:0:
256,192,90815,1,0,0:0:0:0:
256,192,90890,1,8,0:0:0:0:
256,192,91040,1,0,0:0:0:0:
256,192,91190,1,8,0:0:0:0:
256,192,91340,1,0,0:0:0:0:
256,192,91415,1,8,0:0:0:0:
256,192,91490,1,0,0:0:0:0:
256,192,91565,1,8,0:0:0:0:
256,192,91640,1,0,0:0:0:0:
256,192,91790,1,8,0:0:0:0:
256,192,91940,1,8,0:0:0:0:
256,192,92015,1,8,0:0:0:0:
256,192,92090,1,0,0:0:0:0:
256,192,92240,5,0,0:0:0:0:
256,192,92315,1,0,0:0:0:0:
256,192,92390,1,8,0:0:0:0:
256,192,92540,1,0,0:0:0:0:
256,192,92840,1,0,0:0:0:0:
256,192,92915,1,0,0:0:0:0:
256,192,92990,1,8,0:0:0:0:
256,192,93065,1,0,0:0:0:0:
256,192,93140,1,8,0:0:0:0:
256,192,93215,1,8,0:0:0:0:
256,192,93290,1,0,0:0:0:0:
256,192,93440,1,0,0:0:0:0:
256,192,93590,1,8,0:0:0:0:
256,192,93740,1,0,0:0:0:0:
256,192,93815,1,8,0:0:0:0:
256,192,93890,1,8,0:0:0:0:
256,192,94040,1,0,0:0:0:0:
256,192,94190,1,8,0:0:0:0:
256,192,94340,1,8,0:0:0:0:
260,186,94415,1,8,0:0:0:0:
256,192,94490,1,0,0:0:0:0:
256,192,94640,1,0,0:0:0:0:
256,192,94790,1,8,0:0:0:0:
256,192,94940,1,8,0:0:0:0:
256,192,95015,1,0,0:0:0:0:
256,192,95090,1,8,0:0:0:0:
256,192,95240,1,0,0:0:0:0:
256,192,95390,1,8,0:0:0:0:
256,192,95465,1,8,0:0:0:0:
256,192,95540,1,0,0:0:0:0:
256,192,95615,1,8,0:0:0:0:
256,192,95690,1,0,0:0:0:0:
256,192,95765,1,0,0:0:0:0:
256,192,95840,1,8,0:0:0:0:
256,192,95915,1,0,0:0:0:0:
256,192,95990,1,0,0:0:0:0:
256,192,96065,1,0,0:0:0:0:
256,192,96140,1,8,0:0:0:0:
256,192,96215,1,8,0:0:0:0:
256,192,96290,1,0,0:0:0:0:
256,192,96365,1,8,0:0:0:0:
256,192,96440,1,0,0:0:0:0:
256,192,96515,1,0,0:0:0:0:
256,192,96590,1,8,0:0:0:0:
256,192,96665,1,0,0:0:0:0:
256,192,96740,1,8,0:0:0:0:
274,174,96815,1,8,0:0:0:0:
256,192,96890,1,0,0:0:0:0:
256,192,97190,5,8,0:0:0:0:
256,192,97340,1,0,0:0:0:0:
256,192,97640,1,8,0:0:0:0:
256,192,97940,1,8,0:0:0:0:
214,14,98090,1,0,0:0:0:0:
256,192,98240,1,8,0:0:0:0:
256,192,98390,1,8,0:0:0:0:
256,192,98465,1,8,0:0:0:0:
256,192,98540,1,0,0:0:0:0:
256,192,98690,1,8,0:0:0:0:
256,192,98740,1,8,0:0:0:0:
256,192,98790,1,0,0:0:0:0:
256,192,98840,1,0,0:0:0:0:
256,192,98990,1,0,0:0:0:0:
256,192,99140,1,8,0:0:0:0:
256,192,99290,1,0,0:0:0:0:
256,192,99590,1,8,0:0:0:0:
256,192,99740,1,0,0:0:0:0:
256,192,100040,1,8,0:0:0:0:
256,192,100190,1,0,0:0:0:0:
256,192,100265,1,8,0:0:0:0:
256,192,100340,1,8,0:0:0:0:
256,192,100415,1,8,0:0:0:0:
256,192,100490,1,0,0:0:0:0:
256,192,100640,1,8,0:0:0:0:
256,192,100790,1,8,0:0:0:0:
256,192,100865,1,0,0:0:0:0:
256,192,100940,1,0,0:0:0:0:
256,160,101090,1,8,0:0:0:0:
256,160,101140,1,8,0:0:0:0:
256,160,101190,1,8,0:0:0:0:
256,160,101240,1,0,0:0:0:0:
256,192,101315,1,0,0:0:0:0:
256,192,101390,1,8,0:0:0:0:
256,192,101540,1,8,0:0:0:0:
256,192,101690,5,4,0:0:0:0:
256,192,101840,1,0,0:0:0:0:
256,192,101915,1,0,0:0:0:0:
256,192,101990,1,8,0:0:0:0:
256,192,102140,1,0,0:0:0:0:
256,160,102215,1,8,0:0:0:0:
256,160,102290,1,0,0:0:0:0:
256,192,102440,1,0,0:0:0:0:
256,192,102590,1,8,0:0:0:0:
256,192,102740,1,8,0:0:0:0:
256,192,102815,1,8,0:0:0:0:
256,192,102890,1,0,0:0:0:0:
256,192,103040,1,0,0:0:0:0:
256,192,103190,1,8,0:0:0:0:
257,178,103340,1,0,0:0:0:0:
256,192,103415,1,0,0:0:0:0:
256,192,103490,1,8,0:0:0:0:
257,178,103565,1,8,0:0:0:0:
256,192,103640,1,0,0:0:0:0:
257,178,103715,1,0,0:0:0:0:
266,190,103790,1,8,0:0:0:0:
266,190,103940,1,8,0:0:0:0:
263,167,104015,1,8,0:0:0:0:
266,190,104090,1,0,0:0:0:0:
266,190,104240,1,0,0:0:0:0:
266,190,104315,1,0,0:0:0:0:
266,190,104390,1,8,0:0:0:0:
266,190,104540,1,0,0:0:0:0:
258,168,104615,1,8,0:0:0:0:
266,190,104690,1,0,0:0:0:0:
257,182,104840,1,0,0:0:0:0:
257,182,104990,1,8,0:0:0:0:
257,182,105140,1,0,0:0:0:0:
257,182,105215,1,0,0:0:0:0:
257,182,105290,1,8,0:0:0:0:
257,182,105440,1,0,0:0:0:0:
257,182,105590,1,8,0:0:0:0:
257,182,105740,1,8,0:0:0:0:
257,182,105815,1,8,0:0:0:0:
257,182,105890,1,0,0:0:0:0:
257,182,105965,1,8,0:0:0:0:
257,182,106040,1,0,0:0:0:0:
257,182,106115,1,0,0:0:0:0:
257,182,106190,1,8,0:0:0:0:
257,182,106265,1,0,0:0:0:0:
257,182,106340,1,8,0:0:0:0:
238,154,106415,1,8,0:0:0:0:
257,182,106490,1,0,0:0:0:0:
257,182,106640,5,0,0:0:0:0:
257,182,106715,1,0,0:0:0:0:
257,182,106790,1,8,0:0:0:0:
257,182,106940,1,0,0:0:0:0:
257,182,107015,1,8,0:0:0:0:
257,182,107090,1,0,0:0:0:0:
257,182,107240,1,0,0:0:0:0:
254,145,107390,1,8,0:0:0:0:
254,145,107540,1,8,0:0:0:0:
254,145,107615,1,8,0:0:0:0:
254,145,107690,1,0,0:0:0:0:
254,145,107840,1,0,0:0:0:0:
254,145,107990,1,8,0:0:0:0:
254,145,108140,1,0,0:0:0:0:
254,145,108215,1,0,0:0:0:0:
254,145,108290,1,8,0:0:0:0:
254,145,108340,1,8,0:0:0:0:
258,156,108390,1,8,0:0:0:0:
254,145,108440,1,0,0:0:0:0:
249,123,108515,1,0,0:0:0:0:
252,153,108590,1,8,0:0:0:0:
245,143,108740,1,8,0:0:0:0:
245,143,108815,1,8,0:0:0:0:
245,143,108890,1,0,0:0:0:0:
245,142,109040,1,0,0:0:0:0:
255,177,109115,1,0,0:0:0:0:
245,140,109190,1,8,0:0:0:0:
245,140,109340,1,0,0:0:0:0:
254,145,109415,1,8,0:0:0:0:
252,153,109490,1,0,0:0:0:0:
245,143,109640,1,0,0:0:0:0:
254,138,109790,1,8,0:0:0:0:
254,138,109865,1,8,0:0:0:0:
254,138,109940,1,8,0:0:0:0:
245,142,110015,1,8,0:0:0:0:
245,140,110090,1,0,0:0:0:0:
254,138,110240,1,0,0:0:0:0:
254,138,110390,1,8,0:0:0:0:
254,138,110540,1,0,0:0:0:0:
254,138,110615,1,0,0:0:0:0:
254,138,110690,1,8,0:0:0:0:
252,145,110740,1,8,0:0:0:0:
254,138,110790,1,8,0:0:0:0:
254,138,110840,1,0,0:0:0:0:
254,138,110915,1,0,0:0:0:0:
254,138,110990,1,8,0:0:0:0:
245,142,111065,1,0,0:0:0:0:
254,138,111140,1,8,0:0:0:0:
254,138,111290,5,0,0:0:0:0:
255,142,111440,1,0,0:0:0:0:
254,138,111515,1,0,0:0:0:0:
254,138,111590,1,8,0:0:0:0:
257,135,111740,1,0,0:0:0:0:
254,138,111815,1,8,0:0:0:0:
254,138,111890,1,0,0:0:0:0:
254,138,112040,1,0,0:0:0:0:
254,138,112190,1,8,0:0:0:0:
261,142,112340,1,0,0:0:0:0:
255,142,112415,1,0,0:0:0:0:
255,142,112490,1,8,0:0:0:0:
257,135,112640,1,0,0:0:0:0:
254,138,112790,1,8,0:0:0:0:
254,138,112940,1,0,0:0:0:0:
271,138,113090,1,8,0:0:0:0:
254,138,113140,1,8,0:0:0:0:
261,142,113190,1,0,0:0:0:0:
254,138,113240,1,0,0:0:0:0:
255,142,113390,1,8,0:0:0:0:
257,135,113540,1,0,0:0:0:0:
254,138,113690,1,0,0:0:0:0:
261,142,113990,1,8,0:0:0:0:
261,142,114140,1,0,0:0:0:0:
255,142,114290,1,8,0:0:0:0:
261,142,114590,1,8,0:0:0:0:
256,192,114740,8,0,115940,0:0:0:0:
242,169,116090,5,0,0:0:0:0:
242,169,117290,1,8,0:0:0:0:
242,169,118490,1,0,0:0:0:0:
242,169,119690,1,8,0:0:0:0:
242,169,120890,5,0,0:0:0:0:
242,169,122090,1,8,0:0:0:0:
242,169,123290,1,8,0:0:0:0:
242,169,124490,1,8,0:0:0:0:
262,182,124790,5,0,0:0:0:0:
262,182,125090,1,8,0:0:0:0:
252,171,125390,1,8,0:0:0:0:
242,169,125690,5,0,0:0:0:0:
242,169,126890,1,8,0:0:0:0:
242,169,128090,1,0,0:0:0:0:
242,169,129290,1,8,0:0:0:0:
242,169,130490,5,0,0:0:0:0:
242,169,131690,1,8,0:0:0:0:
242,169,132890,1,0,0:0:0:0:
242,169,134090,1,0,0:0:0:0:
247,160,135290,5,0,0:0:0:0:
163,13,135740,1,0,0:0:0:0:
288,192,135890,1,8,0:0:0:0:
268,149,136040,1,0,0:0:0:0:
288,192,136340,1,8,0:0:0:0:
288,192,136490,1,0,0:0:0:0:
288,192,136640,1,8,0:0:0:0:
236,89,136940,1,0,0:0:0:0:
277,191,137090,1,8,0:0:0:0:
288,192,137540,1,8,0:0:0:0:
288,192,137690,1,0,0:0:0:0:
288,192,138140,1,0,0:0:0:0:
288,192,138290,1,8,0:0:0:0:
254,119,138440,1,8,0:0:0:0:
259,146,138740,1,8,0:0:0:0:
269,141,138890,1,0,0:0:0:0:
274,157,139040,1,8,0:0:0:0:
260,93,139190,1,0,0:0:0:0:
288,192,139340,1,0,0:0:0:0:
288,192,139490,1,8,0:0:0:0:
288,192,139640,1,0,0:0:0:0:
288,192,139790,1,8,0:0:0:0:
288,192,140090,5,0,0:0:0:0:
288,192,140240,1,8,0:0:0:0:
288,192,140390,1,0,0:0:0:0:
288,192,140540,1,0,0:0:0:0:
288,192,140690,1,8,0:0:0:0:
264,147,140840,1,8,0:0:0:0:
288,192,140990,1,0,0:0:0:0:
288,192,141140,1,8,0:0:0:0:
288,192,141290,1,0,0:0:0:0:
288,192,141440,1,0,0:0:0:0:
288,192,141590,1,8,0:0:0:0:
288,192,141740,1,0,0:0:0:0:
288,192,141890,1,8,0:0:0:0:
288,192,142190,1,8,0:0:0:0:
288,192,142340,1,8,0:0:0:0:
288,192,142490,1,0,0:0:0:0:
256,192,142940,1,0,0:0:0:0:
256,192,143540,8,0,144740,0:0:0:0:
256,192,144890,5,0,0:0:0:0:
286,195,145340,1,0,0:0:0:0:
286,195,145790,1,8,0:0:0:0:
286,195,146540,1,8,0:0:0:0:
286,195,146690,1,8,0:0:0:0:
286,195,146840,1,0,0:0:0:0:
286,195,146990,1,8,0:0:0:0:
286,195,147140,1,8,0:0:0:0:
286,195,147290,1,0,0:0:0:0:
286,195,147740,1,0,0:0:0:0:
286,195,148190,1,0,0:0:0:0:
286,195,148790,1,8,0:0:0:0:
286,195,149090,1,8,0:0:0:0:
286,195,149140,1,8,0:0:0:0:
286,195,149190,1,8,0:0:0:0:
279,205,149240,1,0,0:0:0:0:
286,195,149315,1,0,0:0:0:0:
286,195,149390,1,8,0:0:0:0:
286,195,149690,5,0,0:0:0:0:
286,195,150140,1,0,0:0:0:0:
286,195,150590,1,8,0:0:0:0:
286,195,151190,1,0,0:0:0:0:
286,195,151340,1,8,0:0:0:0:
286,195,151415,1,0,0:0:0:0:
286,195,151490,1,8,0:0:0:0:
286,195,151565,1,8,0:0:0:0:
286,195,151640,1,0,0:0:0:0:
286,195,151715,1,0,0:0:0:0:
286,195,151790,1,8,0:0:0:0:
286,195,151865,1,0,0:0:0:0:
286,195,151940,1,8,0:0:0:0:
286,195,152090,1,8,0:0:0:0:
286,195,152540,1,0,0:0:0:0:
286,195,152990,1,8,0:0:0:0:
286,195,153290,1,0,0:0:0:0:
286,195,153365,1,0,0:0:0:0:
286,195,153440,1,8,0:0:0:0:
286,195,153515,1,0,0:0:0:0:
286,195,153590,1,0,0:0:0:0:
286,195,153665,1,0,0:0:0:0:
286,195,153740,1,8,0:0:0:0:
286,195,153815,1,8,0:0:0:0:
286,195,153890,1,0,0:0:0:0:
286,195,153965,1,8,0:0:0:0:
286,195,154040,1,0,0:0:0:0:
286,195,154115,1,0,0:0:0:0:
286,195,154190,1,8,0:0:0:0:
286,195,154265,1,0,0:0:0:0:
286,195,154340,1,8,0:0:0:0:
264,168,154415,1,8,0:0:0:0:
256,192,154490,1,0,0:0:0:0:
256,192,154790,5,8,0:0:0:0:
256,192,154940,1,0,0:0:0:0:
256,192,155090,1,8,0:0:0:0:
256,192,155390,1,0,0:0:0:0:
256,192,155540,1,8,0:0:0:0:
256,192,155690,1,0,0:0:0:0:
245,192,155840,1,0,0:0:0:0:
256,192,155990,1,8,0:0:0:0:
256,192,156140,1,8,0:0:0:0:
256,192,156215,1,0,0:0:0:0:
256,192,156290,1,8,0:0:0:0:
256,192,156440,1,0,0:0:0:0:
256,192,156590,1,8,0:0:0:0:
256,192,156740,1,8,0:0:0:0:
256,192,156890,1,0,0:0:0:0:
256,192,157190,1,0,0:0:0:0:
256,192,157340,1,0,0:0:0:0:
256,192,157490,1,8,0:0:0:0:
256,192,157790,1,8,0:0:0:0:
245,192,157940,1,8,0:0:0:0:
245,192,158090,1,0,0:0:0:0:
245,192,158240,1,0,0:0:0:0:
256,192,158390,1,8,0:0:0:0:
256,192,158540,1,0,0:0:0:0:
256,192,158690,1,8,0:0:0:0:
256,192,158740,1,8,0:0:0:0:
256,192,158790,1,8,0:0:0:0:
256,192,158840,1,0,0:0:0:0:
256,192,158915,1,0,0:0:0:0:
256,192,158990,1,8,0:0:0:0:
256,192,159140,1,8,0:0:0:0:
256,192,159290,5,0,0:0:0:0:
256,192,159590,1,8,0:0:0:0:
256,192,159740,1,0,0:0:0:0:
256,192,159890,1,8,0:0:0:0:
256,192,160190,1,0,0:0:0:0:
256,192,160340,1,8,0:0:0:0:
256,192,160490,1,0,0:0:0:0:
245,192,160640,1,0,0:0:0:0:
256,192,160790,1,8,0:0:0:0:
256,192,160940,1,0,0:0:0:0:
256,192,161090,1,8,0:0:0:0:
256,192,161165,1,8,0:0:0:0:
256,192,161240,1,0,0:0:0:0:
256,192,161390,1,0,0:0:0:0:
256,192,161540,1,8,0:0:0:0:
256,192,161690,1,0,0:0:0:0:
256,192,161990,1,0,0:0:0:0:
256,192,162140,1,0,0:0:0:0:
256,192,162290,1,8,0:0:0:0:
256,192,162590,1,8,0:0:0:0:
256,192,162740,1,8,0:0:0:0:
256,192,162890,1,0,0:0:0:0:
256,192,162965,1,0,0:0:0:0:
256,192,163040,1,8,0:0:0:0:
256,192,163115,1,0,0:0:0:0:
256,192,163190,1,0,0:0:0:0:
256,192,163265,1,0,0:0:0:0:
256,192,163340,1,8,0:0:0:0:
256,192,163415,1,8,0:0:0:0:
256,192,163490,1,0,0:0:0:0:
256,192,163565,1,8,0:0:0:0:
256,192,163640,1,0,0:0:0:0:
256,192,163715,1,0,0:0:0:0:
256,192,163790,1,8,0:0:0:0:
256,192,163865,1,0,0:0:0:0:
256,192,163940,1,8,0:0:0:0:
256,192,164090,5,4,0:0:0:0:
256,192,164240,1,0,0:0:0:0:
256,192,164315,1,0,0:0:0:0:
256,192,164390,1,8,0:0:0:0:
256,192,164465,1,0,0:0:0:0:
256,192,164540,1,0,0:0:0:0:
256,192,164690,1,8,0:0:0:0:
256,192,164765,1,8,0:0:0:0:
256,192,164840,1,0,0:0:0:0:
256,192,164990,1,8,0:0:0:0:
256,192,165140,1,0,0:0:0:0:
256,192,165215,1,0,0:0:0:0:
256,192,165290,1,8,0:0:0:0:
256,192,165365,1,8,0:0:0:0:
256,192,165440,1,0,0:0:0:0:
256,192,165590,1,8,0:0:0:0:
256,192,165740,1,8,0:0:0:0:
256,192,165815,1,0,0:0:0:0:
256,192,165890,1,8,0:0:0:0:
256,192,165965,1,8,0:0:0:0:
256,192,166040,1,0,0:0:0:0:
256,192,166115,1,0,0:0:0:0:
256,192,166190,1,8,0:0:0:0:
256,192,166265,1,0,0:0:0:0:
256,192,166340,1,8,0:0:0:0:
256,192,166490,1,0,0:0:0:0:
256,192,166640,1,0,0:0:0:0:
256,192,166715,1,0,0:0:0:0:
256,192,166790,1,8,0:0:0:0:
256,192,166940,1,0,0:0:0:0:
256,192,167090,1,8,0:0:0:0:
256,192,167165,1,8,0:0:0:0:
256,192,167240,1,0,0:0:0:0:
256,192,167315,1,0,0:0:0:0:
256,192,167390,1,8,0:0:0:0:
256,192,167465,1,0,0:0:0:0:
256,192,167540,1,0,0:0:0:0:
256,192,167690,1,8,0:0:0:0:
256,192,167765,1,8,0:0:0:0:
256,192,167840,1,0,0:0:0:0:
256,192,167990,1,8,0:0:0:0:
256,192,168140,1,0,0:0:0:0:
256,192,168215,1,0,0:0:0:0:
256,192,168290,1,8,0:0:0:0:
256,192,168340,1,8,0:0:0:0:
256,192,168390,1,8,0:0:0:0:
256,192,168440,1,0,0:0:0:0:
256,192,168515,1,0,0:0:0:0:
256,192,168590,1,8,0:0:0:0:
256,192,168665,1,0,0:0:0:0:
256,192,168740,1,8,0:0:0:0:
256,192,168890,5,0,0:0:0:0:
256,192,169040,1,0,0:0:0:0:
256,192,169115,1,0,0:0:0:0:
256,192,169190,1,8,0:0:0:0:
256,192,169340,1,0,0:0:0:0:
239,101,169490,1,8,0:0:0:0:
256,192,169565,1,8,0:0:0:0:
256,192,169640,1,0,0:0:0:0:
256,192,169715,1,0,0:0:0:0:
256,192,169790,1,8,0:0:0:0:
256,192,169940,1,0,0:0:0:0:
255,173,170015,1,0,0:0:0:0:
256,192,170090,1,8,0:0:0:0:
254,157,170165,1,0,0:0:0:0:
256,192,170240,1,0,0:0:0:0:
256,192,170390,1,8,0:0:0:0:
256,192,170540,1,8,0:0:0:0:
256,192,170615,1,0,0:0:0:0:
256,192,170690,1,8,0:0:0:0:
256,160,170765,1,8,0:0:0:0:
256,192,170840,1,0,0:0:0:0:
256,192,170915,1,0,0:0:0:0:
256,192,170990,1,8,0:0:0:0:
256,192,171065,1,0,0:0:0:0:
256,192,171140,1,8,0:0:0:0:
236,176,171215,1,8,0:0:0:0:
256,192,171290,1,0,0:0:0:0:
256,192,171440,1,0,0:0:0:0:
256,192,171515,1,0,0:0:0:0:
256,192,171590,1,8,0:0:0:0:
256,192,171740,1,0,0:0:0:0:
256,124,171815,1,8,0:0:0:0:
256,192,171890,1,0,0:0:0:0:
256,192,172040,1,0,0:0:0:0:
256,192,172190,1,8,0:0:0:0:
256,192,172265,1,8,0:0:0:0:
256,192,172340,1,8,0:0:0:0:
256,192,172490,1,0,0:0:0:0:
256,192,172565,1,0,0:0:0:0:
256,192,172640,1,8,0:0:0:0:
256,192,172715,1,0,0:0:0:0:
256,192,172790,1,0,0:0:0:0:
256,192,172865,1,0,0:0:0:0:
256,192,172940,1,8,0:0:0:0:
256,192,173015,1,8,0:0:0:0:
256,192,173090,1,0,0:0:0:0:
256,192,173165,1,8,0:0:0:0:
256,192,173240,1,0,0:0:0:0:
256,192,173315,1,0,0:0:0:0:
256,192,173390,1,8,0:0:0:0:
256,192,173465,1,0,0:0:0:0:
256,192,173540,1,8,0:0:0:0:
256,192,173690,5,4,0:0:0:0:
256,192,173840,1,0,0:0:0:0:
256,192,173915,1,0,0:0:0:0:
256,192,173990,1,8,0:0:0:0:
269,181,174065,1,0,0:0:0:0:
256,192,174140,1,0,0:0:0:0:
256,192,174290,1,8,0:0:0:0:
256,192,174365,1,0,0:0:0:0:
256,192,174440,1,8,0:0:0:0:
254,182,174515,1,0,0:0:0:0:
256,192,174590,1,8,0:0:0:0:
256,192,174740,1,0,0:0:0:0:
256,192,174890,1,8,0:0:0:0:
256,192,174965,1,8,0:0:0:0:
256,192,175040,1,0,0:0:0:0:
256,192,175115,1,0,0:0:0:0:
256,192,175190,1,8,0:0:0:0:
256,192,175340,1,8,0:0:0:0:
256,192,175415,1,0,0:0:0:0:
256,192,175490,1,8,0:0:0:0:
256,192,175565,1,8,0:0:0:0:
256,192,175640,1,0,0:0:0:0:
254,182,175715,1,0,0:0:0:0:
256,192,175790,1,8,0:0:0:0:
256,192,175865,1,0,0:0:0:0:
256,192,175940,1,8,0:0:0:0:
256,192,176090,1,0,0:0:0:0:
256,192,176240,1,0,0:0:0:0:
256,192,176315,1,0,0:0:0:0:
256,192,176390,1,8,0:0:0:0:
281,182,176465,1,0,0:0:0:0:
256,192,176540,1,0,0:0:0:0:
256,192,176690,1,0,0:0:0:0:
256,192,176765,1,8,0:0:0:0:
256,192,176840,1,0,0:0:0:0:
256,192,176915,1,0,0:0:0:0:
256,192,176990,1,8,0:0:0:0:
254,182,177065,1,8,0:0:0:0:
256,192,177140,1,0,0:0:0:0:
256,192,177290,1,8,0:0:0:0:
256,192,177440,1,8,0:0:0:0:
256,192,177515,1,0,0:0:0:0:
256,192,177590,1,8,0:0:0:0:
256,192,177665,1,8,0:0:0:0:
256,192,177740,1,0,0:0:0:0:
256,192,177815,1,0,0:0:0:0:
256,192,177890,1,8,0:0:0:0:
256,192,177940,1,8,0:0:0:0:
256,192,177990,1,8,0:0:0:0:
256,192,178040,1,0,0:0:0:0:
256,192,178115,1,0,0:0:0:0:
256,192,178190,1,8,0:0:0:0:
256,192,178265,1,0,0:0:0:0:
256,192,178340,1,8,0:0:0:0:
256,192,178490,5,0,0:0:0:0:
256,192,178640,1,0,0:0:0:0:
256,192,178715,1,0,0:0:0:0:
256,192,178790,1,8,0:0:0:0:
256,192,178940,1,0,0:0:0:0:
254,182,179015,1,8,0:0:0:0:
256,192,179090,1,0,0:0:0:0:
256,192,179240,1,0,0:0:0:0:
286,153,179315,1,0,0:0:0:0:
256,192,179390,1,8,0:0:0:0:
256,192,179465,1,0,0:0:0:0:
256,192,179540,1,8,0:0:0:0:
256,192,179615,1,8,0:0:0:0:
256,192,179690,1,0,0:0:0:0:
256,192,179840,1,0,0:0:0:0:
256,192,179990,1,8,0:0:0:0:
256,192,180140,1,8,0:0:0:0:
256,192,180215,1,0,0:0:0:0:
256,192,180290,1,8,0:0:0:0:
256,192,180365,1,8,0:0:0:0:
256,192,180440,1,0,0:0:0:0:
256,192,180515,1,0,0:0:0:0:
256,192,180590,1,8,0:0:0:0:
256,192,180665,1,0,0:0:0:0:
256,192,180740,1,8,0:0:0:0:
223,167,180815,1,8,0:0:0:0:
256,192,180890,1,0,0:0:0:0:
256,192,181040,1,0,0:0:0:0:
256,192,181115,1,0,0:0:0:0:
256,192,181190,1,8,0:0:0:0:
256,192,181340,1,0,0:0:0:0:
256,192,181415,1,8,0:0:0:0:
256,192,181490,1,0,0:0:0:0:
256,192,181640,1,0,0:0:0:0:
256,192,181790,1,8,0:0:0:0:
250,156,181865,1,8,0:0:0:0:
256,192,181940,1,8,0:0:0:0:
256,192,182090,1,0,0:0:0:0:
256,192,182165,1,0,0:0:0:0:
256,192,182240,1,8,0:0:0:0:
256,192,182315,1,0,0:0:0:0:
256,192,182390,1,0,0:0:0:0:
256,192,182465,1,0,0:0:0:0:
256,192,182540,1,8,0:0:0:0:
256,192,182615,1,8,0:0:0:0:
256,192,182690,1,0,0:0:0:0:
256,192,182765,1,8,0:0:0:0:
256,192,182840,1,0,0:0:0:0:
256,192,182915,1,0,0:0:0:0:
256,192,182990,1,8,0:0:0:0:
256,192,183065,1,0,0:0:0:0:
256,192,183140,1,8,0:0:0:0:
256,192,183290,5,4,0:0:0:0:
256,192,183440,1,0,0:0:0:0:
256,192,183515,1,0,0:0:0:0:
256,192,183590,1,8,0:0:0:0:
256,192,183740,1,0,0:0:0:0:
256,192,183815,1,8,0:0:0:0:
256,192,183890,1,0,0:0:0:0:
256,192,184040,1,0,0:0:0:0:
256,192,184190,1,8,0:0:0:0:
256,192,184265,1,8,0:0:0:0:
256,192,184340,1,0,0:0:0:0:
256,192,184490,1,8,0:0:0:0:
256,192,184640,1,0,0:0:0:0:
259,159,184715,1,0,0:0:0:0:
256,192,184790,1,8,0:0:0:0:
256,192,184940,1,8,0:0:0:0:
256,192,185015,1,0,0:0:0:0:
256,192,185090,1,8,0:0:0:0:
256,192,185240,1,0,0:0:0:0:
256,192,185315,1,0,0:0:0:0:
256,192,185390,1,8,0:0:0:0:
244,145,185465,1,0,0:0:0:0:
256,192,185540,1,8,0:0:0:0:
256,192,185690,1,0,0:0:0:0:
256,192,185840,1,0,0:0:0:0:
256,192,185915,1,0,0:0:0:0:
256,192,185990,1,8,0:0:0:0:
256,192,186140,1,0,0:0:0:0:
256,192,186290,1,8,0:0:0:0:
256,192,186365,1,8,0:0:0:0:
256,192,186440,1,0,0:0:0:0:
280,192,186515,1,0,0:0:0:0:
256,192,186590,1,8,0:0:0:0:
256,192,186740,1,0,0:0:0:0:
256,192,186890,1,8,0:0:0:0:
256,192,186965,1,0,0:0:0:0:
256,192,187040,1,0,0:0:0:0:
256,192,187190,1,8,0:0:0:0:
256,192,187340,1,0,0:0:0:0:
256,192,187415,1,0,0:0:0:0:
256,192,187490,1,8,0:0:0:0:
256,192,187540,1,8,0:0:0:0:
256,192,187590,1,8,0:0:0:0:
256,192,187640,1,0,0:0:0:0:
256,192,187715,1,0,0:0:0:0:
256,192,187790,1,8,0:0:0:0:
256,192,187865,1,0,0:0:0:0:
256,192,187940,1,8,0:0:0:0:
256,192,188090,5,0,0:0:0:0:
256,192,188240,1,0,0:0:0:0:
244,166,188315,1,0,0:0:0:0:
256,192,188390,1,8,0:0:0:0:
256,192,188540,1,0,0:0:0:0:
256,192,188615,1,8,0:0:0:0:
256,192,188690,1,0,0:0:0:0:
256,192,188840,1,0,0:0:0:0:
256,192,188990,1,8,0:0:0:0:
256,192,189065,1,8,0:0:0:0:
256,192,189140,1,0,0:0:0:0:
256,192,189290,1,8,0:0:0:0:
256,192,189440,1,0,0:0:0:0:
251,145,189515,1,0,0:0:0:0:
256,192,189590,1,8,0:0:0:0:
256,192,189740,1,8,0:0:0:0:
256,192,189815,1,8,0:0:0:0:
256,192,189890,1,0,0:0:0:0:
256,160,189965,1,8,0:0:0:0:
256,192,190040,1,0,0:0:0:0:
256,192,190115,1,0,0:0:0:0:
256,192,190190,1,8,0:0:0:0:
256,192,190265,1,0,0:0:0:0:
256,192,190340,1,8,0:0:0:0:
256,160,190415,1,8,0:0:0:0:
256,192,190490,1,0,0:0:0:0:
256,192,190640,1,0,0:0:0:0:
256,192,190715,1,0,0:0:0:0:
256,192,190790,1,8,0:0:0:0:
256,192,190940,1,0,0:0:0:0:
256,192,191015,1,8,0:0:0:0:
256,192,191090,1,0,0:0:0:0:
256,192,191240,1,0,0:0:0:0:
256,192,191390,1,8,0:0:0:0:
225,153,191465,1,8,0:0:0:0:
256,192,191540,1,8,0:0:0:0:
256,192,191690,1,0,0:0:0:0:
256,192,191765,1,0,0:0:0:0:
256,192,191840,1,8,0:0:0:0:
256,192,191915,1,0,0:0:0:0:
256,192,191990,1,0,0:0:0:0:
256,192,192065,1,0,0:0:0:0:
256,192,192140,1,8,0:0:0:0:
256,192,192215,1,8,0:0:0:0:
256,192,192290,1,0,0:0:0:0:
256,192,192365,1,8,0:0:0:0:
256,192,192440,1,0,0:0:0:0:
256,192,192515,1,0,0:0:0:0:
256,192,192590,1,8,0:0:0:0:
256,192,192665,1,0,0:0:0:0:
256,192,192740,1,8,0:0:0:0:
240,180,192815,1,8,0:0:0:0:
256,192,192890,1,0,0:0:0:0:
256,192,193040,5,0,0:0:0:0:
256,192,193115,1,0,0:0:0:0:
256,192,193190,1,8,0:0:0:0:
256,192,193340,1,0,0:0:0:0:
256,192,193415,1,8,0:0:0:0:
256,192,193490,1,0,0:0:0:0:
256,192,193640,1,0,0:0:0:0:
256,192,193790,1,8,0:0:0:0:
256,192,193865,1,8,0:0:0:0:
256,192,193940,1,0,0:0:0:0:
256,192,194090,1,8,0:0:0:0:
256,192,194240,1,0,0:0:0:0:
252,168,194315,1,0,0:0:0:0:
256,192,194390,1,8,0:0:0:0:
256,192,194540,1,8,0:0:0:0:
256,192,194615,1,0,0:0:0:0:
256,192,194690,1,8,0:0:0:0:
256,192,194840,1,0,0:0:0:0:
256,192,194915,1,0,0:0:0:0:
256,192,194990,1,8,0:0:0:0:
251,160,195065,1,0,0:0:0:0:
256,192,195140,1,8,0:0:0:0:
256,192,195290,1,0,0:0:0:0:
256,192,195440,1,0,0:0:0:0:
256,192,195515,1,0,0:0:0:0:
256,192,195590,1,8,0:0:0:0:
256,192,195740,1,0,0:0:0:0:
256,192,195815,1,8,0:0:0:0:
256,192,195890,1,0,0:0:0:0:
256,192,196040,1,0,0:0:0:0:
256,192,196190,1,8,0:0:0:0:
251,158,196265,1,0,0:0:0:0:
256,192,196340,1,0,0:0:0:0:
256,192,196490,1,8,0:0:0:0:
256,192,196640,1,0,0:0:0:0:
250,151,196715,1,0,0:0:0:0:
256,192,196790,1,8,0:0:0:0:
256,192,196940,1,0,0:0:0:0:
256,192,197015,1,0,0:0:0:0:
256,192,197090,1,8,0:0:0:0:
256,192,197140,1,8,0:0:0:0:
256,192,197190,1,8,0:0:0:0:
256,192,197240,1,0,0:0:0:0:
256,192,197315,1,0,0:0:0:0:
256,192,197390,1,8,0:0:0:0:
286,201,197465,1,0,0:0:0:0:
256,192,197540,1,8,0:0:0:0:
256,192,197690,5,0,0:0:0:0:
256,192,197840,1,0,0:0:0:0:
256,192,197915,1,0,0:0:0:0:
256,192,197990,1,8,0:0:0:0:
256,192,198140,1,0,0:0:0:0:
256,192,198215,1,8,0:0:0:0:
256,192,198290,1,0,0:0:0:0:
256,192,198440,1,0,0:0:0:0:
256,192,198590,1,8,0:0:0:0:
268,155,198665,1,0,0:0:0:0:
256,192,198740,1,8,0:0:0:0:
256,192,198815,1,8,0:0:0:0:
256,192,198890,1,0,0:0:0:0:
256,192,199040,1,0,0:0:0:0:
256,192,199190,1,8,0:0:0:0:
256,192,199340,1,8,0:0:0:0:
256,192,199415,1,0,0:0:0:0:
256,192,199490,1,8,0:0:0:0:
268,184,199565,1,8,0:0:0:0:
256,192,199640,1,0,0:0:0:0:
256,192,199715,1,0,0:0:0:0:
256,192,199790,1,8,0:0:0:0:
256,192,199865,1,0,0:0:0:0:
256,192,199940,1,8,0:0:0:0:
266,166,200015,1,8,0:0:0:0:
256,192,200090,1,0,0:0:0:0:
256,192,200240,1,0,0:0:0:0:
256,192,200315,1,0,0:0:0:0:
256,192,200390,1,8,0:0:0:0:
256,192,200540,1,0,0:0:0:0:
256,192,200615,1,8,0:0:0:0:
256,192,200690,1,0,0:0:0:0:
256,192,200840,1,0,0:0:0:0:
256,192,200990,1,8,0:0:0:0:
279,141,201065,1,8,0:0:0:0:
256,192,201140,1,8,0:0:0:0:
256,192,201290,1,0,0:0:0:0:
256,192,201365,1,0,0:0:0:0:
256,192,201440,1,8,0:0:0:0:
256,192,201515,1,0,0:0:0:0:
256,192,201590,1,0,0:0:0:0:
256,192,201665,1,0,0:0:0:0:
256,192,201740,1,8,0:0:0:0:
256,192,201815,1,8,0:0:0:0:
256,192,201890,1,0,0:0:0:0:
256,192,201965,1,8,0:0:0:0:
256,192,202040,1,0,0:0:0:0:
256,192,202115,1,0,0:0:0:0:
256,192,202190,1,8,0:0:0:0:
256,192,202265,1,0,0:0:0:0:
256,192,202340,1,8,0:0:0:0:
239,158,202415,1,8,0:0:0:0:
256,192,202490,1,0,0:0:0:0:
265,189,202940,5,0,0:0:0:0:
279,204,203390,1,8,0:0:0:0:
279,204,204140,1,8,0:0:0:0:
279,204,204290,1,8,0:0:0:0:
279,204,204440,1,0,0:0:0:0:
279,204,204590,1,8,0:0:0:0:
279,204,204740,1,8,0:0:0:0:
279,204,204890,5,0,0:0:0:0:
279,204,205340,1,0,0:0:0:0:
279,204,205790,1,0,0:0:0:0:
279,204,206390,1,8,0:0:0:0:
279,204,207290,5,0,0:0:0:0:
279,204,207740,1,0,0:0:0:0:
279,204,208190,1,8,0:0:0:0:
279,204,209690,5,8,0:0:0:0:
279,204,210140,1,0,0:0:0:0:
279,204,210590,1,8,0:0:0:0:
