osu file format v14

[General]
AudioFilename: audio.ogg
AudioLeadIn: 0
PreviewTime: 144890
Countdown: 1
SampleSet: Normal
StackLeniency: 0.7
Mode: 1
LetterboxInBreaks: 0
WidescreenStoryboard: 1

[Editor]
Bookmarks: 890,10490,20090,29690,39290,48890,58490,68090,72890,77690,87290,96890,101690,116090,135290,144890,164090,173690,183290,192890,202490
DistanceSpacing: 1.2
BeatDivisor: 4
GridSize: 32
TimelineZoom: 2.099999

[Metadata]
Title:LANA - Kiroku no Kakera (sasakure.UK Framework Remix) -
TitleUnicode:LANA - キロクノカケラ (sasakure.UK Framework Remix) -
Artist:TOMOSUKE x Jazzin'park
ArtistUnicode:TOMOSUKE×Jazzin'park
Creator:gaston_2199
Version:Axer's Oni
Source:jubeat saucer
Tags:- a Piece of Memories - 村上来渚 Murakami 栗原暁 Satoru Kurihara 久保田真悟 Singo Kubota ささくれP SasakureP 舟木智介 Funaki ゼクトバッハ Zektbach ジャジンパーク full version pop jpop video game electronic japanese famale vocal Axer _DUSK_ -Dusk Dusk- Megafan
BeatmapID:2961786
BeatmapSetID:925255

[Difficulty]
HPDrainRate:5
CircleSize:2
OverallDifficulty:5
ApproachRate:10
SliderMultiplier:1.4
SliderTickRate:1

[Events]
//Background and Video events
0,0,"BG.jpg",0,0
//Break Periods
2,116290,124340
2,125690,134840
//Storyboard Layer 0 (Background)
//Storyboard Layer 1 (Fail)
//Storyboard Layer 2 (Pass)
//Storyboard Layer 3 (Foreground)
//Storyboard Layer 4 (Overlay)
//Storyboard Sound Samples

[TimingPoints]
890,300,4,1,0,60,1,0
890,-181.818181818182,4,1,0,60,0,0
10490,-181.818181818182,4,1,0,70,0,0
20090,-125,4,1,0,80,0,0
28490,-133.333333333333,4,1,0,70,0,0
28790,-142.857142857143,4,1,0,70,0,0
29090,-153.846153846154,4,1,0,70,0,0
29390,-166.666666666667,4,1,0,70,0,0
29690,-125,4,1,0,80,0,0
49040,-133.333333333333,4,1,0,70,0,0
58490,-142.857142857143,4,1,0,60,0,0
68090,-133.333333333333,4,1,0,80,0,0
77690,-111.111111111111,4,1,0,90,0,1
86090,-113.636363636364,4,1,0,90,0,1
86390,-116.279069767442,4,1,0,90,0,1
86690,-119.047619047619,4,1,0,90,0,1
86990,-121.951219512195,4,1,0,90,0,1
87290,-125,4,1,0,80,0,0
96890,-142.857142857143,4,1,0,70,0,0
101540,-133.333333333333,4,1,0,70,0,0
101690,-125,4,1,0,80,0,0
116090,-142.857142857143,4,1,0,70,0,0
144890,-166.666666666667,4,1,0,70,0,0
154490,-133.333333333333,4,1,0,80,0,0
164090,-111.111111111111,4,1,0,90,0,1
172490,-109.89010989011,4,1,0,90,0,1
172640,-108.695652173913,4,1,0,90,0,1
172790,-107.52688172043,4,1,0,90,0,1
172940,-106.382978723404,4,1,0,90,0,1
173015,-105.263157894737,4,1,0,90,0,1
173090,-104.166666666667,4,1,0,90,0,1
173240,-103.092783505155,4,1,0,90,0,1
173390,-102.040816326531,4,1,0,90,0,1
173540,-101.010101010101,4,1,0,90,0,1
173690,-100,4,1,0,90,0,1
182090,-104.166666666667,4,1,0,90,0,1
182390,-108.695652173913,4,1,0,90,0,1
182690,-113.636363636364,4,1,0,90,0,1
182990,-119.047619047619,4,1,0,90,0,1
183290,-125,4,1,0,80,0,0
202490,-166.666666666667,4,1,0,70,0,0

[HitObjects]
256,192,890,5,0,0:0:0:0:
256,192,1340,1,0,0:0:0:0:
256,192,2090,1,0,0:0:0:0:
256,192,2540,1,0,0:0:0:0:
256,192,3290,1,0,0:0:0:0:
256,192,3740,1,0,0:0:0:0:
256,192,4490,1,0,0:0:0:0:
256,192,4940,1,8,0:0:0:0:
256,192,5690,1,0,0:0:0:0:
256,192,6140,1,0,0:0:0:0:
256,192,6890,1,0,0:0:0:0:
256,192,7340,1,0,0:0:0:0:
256,192,8090,1,0,0:0:0:0:
256,192,8540,1,0,0:0:0:0:
256,192,9290,1,0,0:0:0:0:
256,192,9740,1,0,0:0:0:0:
256,192,9890,1,8,0:0:0:0:
256,192,10490,1,0,0:0:0:0:
256,192,10940,1,0,0:0:0:0:
256,192,11390,1,0,0:0:0:0:
256,192,11690,1,8,0:0:0:0:
256,192,12890,1,0,0:0:0:0:
256,192,13340,1,0,0:0:0:0:
256,192,13790,1,0,0:0:0:0:
256,192,14090,1,8,0:0:0:0:
256,192,15290,1,0,0:0:0:0:
256,192,15740,1,0,0:0:0:0:
256,192,16190,1,0,0:0:0:0:
256,192,16490,1,8,0:0:0:0:
256,192,17690,1,4,0:0:0:0:
256,192,18140,1,4,0:0:0:0:
256,192,18740,12,0,19940,0:0:0:0:
256,192,20090,5,4,0:0:0:0:
256,192,20390,1,8,0:0:0:0:
256,192,20540,1,0,0:0:0:0:
256,192,20840,1,8,0:0:0:0:
256,192,21290,1,0,0:0:0:0:
256,192,21440,1,0,0:0:0:0:
256,192,21590,1,8,0:0:0:0:
256,192,21890,1,8,0:0:0:0:
256,192,22190,1,0,0:0:0:0:
256,192,22340,1,8,0:0:0:0:
256,192,22490,1,0,0:0:0:0:
256,192,22790,1,8,0:0:0:0:
256,192,22940,1,0,0:0:0:0:
256,192,23240,1,8,0:0:0:0:
256,192,23540,1,0,0:0:0:0:
256,192,23615,1,0,0:0:0:0:
256,192,23690,1,0,0:0:0:0:
256,192,23840,1,8,0:0:0:0:
256,192,23990,1,0,0:0:0:0:
256,192,24290,1,8,0:0:0:0:
256,192,24740,1,8,0:0:0:0:
256,192,24890,1,0,0:0:0:0:
256,192,25190,1,8,0:0:0:0:
256,192,25340,1,0,0:0:0:0:
256,192,25640,1,8,0:0:0:0:
256,192,26090,1,0,0:0:0:0:
256,192,26240,1,0,0:0:0:0:
256,192,26390,1,8,0:0:0:0:
256,192,26690,1,8,0:0:0:0:
256,192,26990,1,0,0:0:0:0:
256,192,27140,1,8,0:0:0:0:
256,192,27290,1,0,0:0:0:0:
256,192,27590,1,8,0:0:0:0:
256,192,27740,1,0,0:0:0:0:
256,192,28040,1,8,0:0:0:0:
256,192,28490,1,0,0:0:0:0:
256,192,28790,1,0,0:0:0:0:
256,192,29090,1,0,0:0:0:0:
256,192,29390,1,0,0:0:0:0:
256,192,29690,1,4,0:0:0:0:
256,192,29990,1,8,0:0:0:0:
256,192,30140,1,0,0:0:0:0:
256,192,30440,1,8,0:0:0:0:
256,192,30890,1,0,0:0:0:0:
256,192,31190,1,8,0:0:0:0:
256,192,31340,1,0,0:0:0:0:
256,192,31490,1,0,0:0:0:0:
256,192,31565,1,0,0:0:0:0:
256,192,31640,1,8,0:0:0:0:
256,192,32090,1,0,0:0:0:0:
256,192,32390,1,8,0:0:0:0:
256,192,32540,1,0,0:0:0:0:
256,192,32840,1,8,0:0:0:0:
256,192,32990,1,0,0:0:0:0:
256,192,33065,1,0,0:0:0:0:
256,192,33140,1,8,0:0:0:0:
256,192,33290,1,0,0:0:0:0:
256,192,33590,1,8,0:0:0:0:
256,192,33740,1,0,0:0:0:0:
256,192,33890,1,8,0:0:0:0:
256,192,34040,1,8,0:0:0:0:
256,192,34490,1,0,0:0:0:0:
256,192,34790,1,8,0:0:0:0:
256,192,34940,1,0,0:0:0:0:
256,192,35240,1,8,0:0:0:0:
256,192,35690,1,0,0:0:0:0:
256,192,35990,1,8,0:0:0:0:
256,192,36140,1,0,0:0:0:0:
256,192,36290,1,0,0:0:0:0:
256,192,36440,1,8,0:0:0:0:
256,192,36890,1,0,0:0:0:0:
256,192,37190,1,8,0:0:0:0:
256,192,37340,1,0,0:0:0:0:
256,192,37640,1,8,0:0:0:0:
256,192,38090,1,0,0:0:0:0:
256,192,38240,1,8,0:0:0:0:
256,192,38390,1,0,0:0:0:0:
256,192,38540,1,0,0:0:0:0:
256,192,38690,1,8,0:0:0:0:
256,192,39140,1,8,0:0:0:0:
256,192,39290,1,0,0:0:0:0:
256,192,39590,1,8,0:0:0:0:
256,192,39740,1,0,0:0:0:0:
256,192,40040,1,8,0:0:0:0:
256,192,40490,1,0,0:0:0:0:
256,192,40790,1,8,0:0:0:0:
256,192,40940,1,0,0:0:0:0:
256,192,41090,1,0,0:0:0:0:
256,192,41165,1,0,0:0:0:0:
256,192,41240,1,8,0:0:0:0:
256,192,41690,1,0,0:0:0:0:
256,192,41990,1,8,0:0:0:0:
256,192,42140,1,0,0:0:0:0:
256,192,42440,1,8,0:0:0:0:
256,192,42590,1,0,0:0:0:0:
256,192,42665,1,0,0:0:0:0:
256,192,42740,1,8,0:0:0:0:
256,192,42890,1,0,0:0:0:0:
256,192,43190,1,8,0:0:0:0:
256,192,43340,1,0,0:0:0:0:
256,192,43490,1,8,0:0:0:0:
256,192,43640,1,8,0:0:0:0:
256,192,44090,1,0,0:0:0:0:
256,192,44390,1,8,0:0:0:0:
256,192,44540,1,0,0:0:0:0:
256,192,44840,1,8,0:0:0:0:
256,192,45290,1,0,0:0:0:0:
256,192,45590,1,8,0:0:0:0:
256,192,45740,1,0,0:0:0:0:
256,192,45890,1,0,0:0:0:0:
256,192,45965,1,0,0:0:0:0:
256,192,46040,1,8,0:0:0:0:
256,192,46490,1,0,0:0:0:0:
256,192,46790,1,8,0:0:0:0:
256,192,46940,1,0,0:0:0:0:
256,192,47240,1,8,0:0:0:0:
256,192,47540,1,0,0:0:0:0:
256,192,47840,1,8,0:0:0:0:
256,192,47990,1,0,0:0:0:0:
256,192,48290,1,8,0:0:0:0:
256,192,48740,1,8,0:0:0:0:
256,192,48890,1,0,0:0:0:0:
256,192,49190,1,8,0:0:0:0:
256,192,49340,1,0,0:0:0:0:
256,192,49640,1,0,0:0:0:0:
256,192,49790,1,8,0:0:0:0:
256,192,49940,1,0,0:0:0:0:
256,192,50090,1,0,0:0:0:0:
256,192,50390,1,8,0:0:0:0:
256,192,50540,1,0,0:0:0:0:
256,192,50840,1,8,0:0:0:0:
256,192,50990,1,8,0:0:0:0:
256,192,51290,1,0,0:0:0:0:
256,192,51590,1,8,0:0:0:0:
256,192,51740,1,0,0:0:0:0:
256,192,52040,1,0,0:0:0:0:
256,192,52190,1,8,0:0:0:0:
256,192,52340,1,8,0:0:0:0:
256,192,52490,1,0,0:0:0:0:
256,192,52790,1,0,0:0:0:0:
256,192,52940,1,8,0:0:0:0:
256,192,53240,1,8,0:0:0:0:
256,192,53390,1,8,0:0:0:0:
256,192,53690,1,0,0:0:0:0:
256,192,53990,1,8,0:0:0:0:
256,192,54140,1,0,0:0:0:0:
256,192,54440,1,0,0:0:0:0:
256,192,54590,1,8,0:0:0:0:
256,192,54740,1,0,0:0:0:0:
256,192,54890,1,0,0:0:0:0:
256,192,55190,1,8,0:0:0:0:
256,192,55340,1,0,0:0:0:0:
256,192,55640,1,8,0:0:0:0:
256,192,55790,1,8,0:0:0:0:
256,192,56090,1,0,0:0:0:0:
256,192,56690,1,8,0:0:0:0:
256,192,57140,1,0,0:0:0:0:
256,192,57440,1,8,0:0:0:0:
256,192,57590,1,8,0:0:0:0:
256,192,57740,1,8,0:0:0:0:
256,192,57890,1,8,0:0:0:0:
256,192,58040,1,8,0:0:0:0:
256,192,58190,1,8,0:0:0:0:
256,192,58490,1,0,0:0:0:0:
256,192,59690,1,8,0:0:0:0:
256,192,60890,1,0,0:0:0:0:
256,192,62090,1,8,0:0:0:0:
256,192,63290,12,0,64340,0:0:0:0:
256,192,64490,12,0,65540,0:0:0:0:
256,192,65690,5,8,0:0:0:0:
256,192,66140,1,0,0:0:0:0:
256,192,66740,12,0,67940,0:0:0:0:
256,192,68090,5,0,0:0:0:0:
256,192,68390,1,8,0:0:0:0:
256,192,68540,1,0,0:0:0:0:
256,192,68690,1,8,0:0:0:0:
256,192,68990,1,0,0:0:0:0:
256,192,69290,1,8,0:0:0:0:
256,192,69740,1,0,0:0:0:0:
256,192,69815,1,0,0:0:0:0:
256,192,69890,1,8,0:0:0:0:
256,192,70040,1,8,0:0:0:0:
256,192,70190,1,0,0:0:0:0:
256,192,70340,1,8,0:0:0:0:
256,192,70490,1,0,0:0:0:0:
256,192,70790,1,8,0:0:0:0:
256,192,70940,1,0,0:0:0:0:
256,192,71090,1,8,0:0:0:0:
256,192,71390,1,0,0:0:0:0:
256,192,71690,1,8,0:0:0:0:
256,192,71990,1,0,0:0:0:0:
256,192,72290,1,8,0:0:0:0:
256,192,72890,1,0,0:0:0:0:
256,192,73190,1,8,0:0:0:0:
256,192,73340,1,0,0:0:0:0:
256,192,73490,1,8,0:0:0:0:
256,192,73790,1,0,0:0:0:0:
256,192,74090,1,8,0:0:0:0:
256,192,74390,1,0,0:0:0:0:
256,192,74540,1,0,0:0:0:0:
256,192,74690,1,8,0:0:0:0:
256,192,74765,1,0,0:0:0:0:
256,192,74840,1,8,0:0:0:0:
256,192,74990,1,0,0:0:0:0:
256,192,75140,1,8,0:0:0:0:
256,192,75290,1,0,0:0:0:0:
256,192,75590,1,8,0:0:0:0:
256,192,75740,1,0,0:0:0:0:
256,192,75890,1,8,0:0:0:0:
256,192,76190,1,0,0:0:0:0:
256,192,76490,2,0,L|290:177,14,26.2500010013581
256,192,77690,1,12,0:0:0:0:
256,192,77990,1,0,0:0:0:0:
256,192,78140,1,8,0:0:0:0:
256,192,78290,1,0,0:0:0:0:
256,192,78440,1,0,0:0:0:0:
256,192,78515,1,0,0:0:0:0:
256,192,78590,1,8,0:0:0:0:
256,192,78740,1,8,0:0:0:0:
256,192,78890,1,0,0:0:0:0:
256,192,79190,1,8,0:0:0:0:
256,192,79340,1,8,0:0:0:0:
256,192,79415,1,0,0:0:0:0:
256,192,79490,1,8,0:0:0:0:
256,192,79640,1,8,0:0:0:0:
256,192,79790,1,0,0:0:0:0:
256,192,79940,1,0,0:0:0:0:
256,192,80090,1,8,0:0:0:0:
256,192,80390,1,8,0:0:0:0:
256,192,80540,1,0,0:0:0:0:
256,192,80690,1,8,0:0:0:0:
256,192,80840,1,8,0:0:0:0:
256,192,80990,1,0,0:0:0:0:
256,192,81290,1,0,0:0:0:0:
256,192,81590,1,8,0:0:0:0:
256,192,81740,1,8,0:0:0:0:
256,192,81815,1,8,0:0:0:0:
256,192,81890,1,0,0:0:0:0:
256,192,81965,1,0,0:0:0:0:
256,192,82040,1,0,0:0:0:0:
256,192,82190,1,8,0:0:0:0:
256,192,82340,1,8,0:0:0:0:
256,192,82490,1,0,0:0:0:0:
256,192,82790,1,0,0:0:0:0:
256,192,82940,1,8,0:0:0:0:
256,192,83090,1,0,0:0:0:0:
256,192,83240,1,0,0:0:0:0:
256,192,83315,1,0,0:0:0:0:
256,192,83390,1,8,0:0:0:0:
256,192,83540,1,8,0:0:0:0:
256,192,83690,1,0,0:0:0:0:
256,192,83840,1,0,0:0:0:0:
256,192,83990,1,8,0:0:0:0:
256,192,84065,1,8,0:0:0:0:
256,192,84140,1,8,0:0:0:0:
256,192,84290,1,0,0:0:0:0:
256,192,84365,1,0,0:0:0:0:
256,192,84440,1,0,0:0:0:0:
256,192,84590,1,8,0:0:0:0:
256,192,84665,1,8,0:0:0:0:
256,192,84740,1,8,0:0:0:0:
256,192,84890,1,0,0:0:0:0:
256,192,85190,1,8,0:0:0:0:
256,192,85340,1,0,0:0:0:0:
256,192,85490,1,8,0:0:0:0:
256,192,85640,1,8,0:0:0:0:
256,192,85790,1,0,0:0:0:0:
256,192,86090,1,0,0:0:0:0:
256,192,86390,1,0,0:0:0:0:
256,192,86690,1,0,0:0:0:0:
256,192,86990,1,0,0:0:0:0:
256,192,87290,1,4,0:0:0:0:
256,192,87590,1,8,0:0:0:0:
256,192,87740,1,0,0:0:0:0:
256,192,88040,1,0,0:0:0:0:
256,192,88190,1,8,0:0:0:0:
256,192,88490,1,0,0:0:0:0:
256,192,88790,1,8,0:0:0:0:
256,192,88940,1,0,0:0:0:0:
256,192,89015,1,8,0:0:0:0:
256,192,89090,1,0,0:0:0:0:
256,192,89240,1,0,0:0:0:0:
256,192,89390,1,8,0:0:0:0:
256,192,89540,1,8,0:0:0:0:
256,192,89615,1,8,0:0:0:0:
256,192,89690,1,0,0:0:0:0:
256,192,89990,1,8,0:0:0:0:
256,192,90140,1,0,0:0:0:0:
256,192,90440,1,0,0:0:0:0:
256,192,90590,1,8,0:0:0:0:
256,192,91040,1,0,0:0:0:0:
256,192,91190,1,8,0:0:0:0:
256,192,91340,1,0,0:0:0:0:
256,192,91415,1,0,0:0:0:0:
256,192,91490,1,8,0:0:0:0:
256,192,91565,1,0,0:0:0:0:
256,192,91640,1,0,0:0:0:0:
256,192,91790,1,8,0:0:0:0:
256,192,91940,1,0,0:0:0:0:
256,192,92240,1,0,0:0:0:0:
256,192,92390,1,8,0:0:0:0:
256,192,92540,1,0,0:0:0:0:
256,192,92840,1,0,0:0:0:0:
256,192,92915,1,8,0:0:0:0:
256,192,92990,1,0,0:0:0:0:
256,192,93140,1,0,0:0:0:0:
256,192,93215,1,0,0:0:0:0:
256,192,93290,1,8,0:0:0:0:
256,192,93590,1,8,0:0:0:0:
256,192,93740,1,0,0:0:0:0:
256,192,93815,1,8,0:0:0:0:
256,192,93890,1,0,0:0:0:0:
256,192,94040,1,0,0:0:0:0:
256,192,94190,1,8,0:0:0:0:
256,192,94490,1,0,0:0:0:0:
256,192,94640,1,0,0:0:0:0:
256,192,94790,1,8,0:0:0:0:
256,192,94940,1,0,0:0:0:0:
256,192,95090,1,0,0:0:0:0:
256,192,95240,1,0,0:0:0:0:
256,192,95390,1,8,0:0:0:0:
256,192,95465,1,0,0:0:0:0:
256,192,95690,12,0,96740,0:0:0:0:
256,192,96890,5,0,0:0:0:0:
256,192,97190,1,8,0:0:0:0:
256,192,97340,1,0,0:0:0:0:
256,192,97640,1,8,0:0:0:0:
256,192,98090,1,0,0:0:0:0:
256,192,98240,1,0,0:0:0:0:
256,192,98390,1,8,0:0:0:0:
256,192,98690,1,8,0:0:0:0:
256,192,98990,1,0,0:0:0:0:
256,192,99140,1,8,0:0:0:0:
256,192,99290,1,0,0:0:0:0:
256,192,99590,1,8,0:0:0:0:
256,192,99740,1,0,0:0:0:0:
256,192,100040,1,8,0:0:0:0:
256,192,100190,1,0,0:0:0:0:
256,192,100265,1,0,0:0:0:0:
256,192,100340,1,8,0:0:0:0:
256,192,100490,1,0,0:0:0:0:
256,192,100640,1,8,0:0:0:0:
256,192,100790,1,0,0:0:0:0:
256,192,101090,1,8,0:0:0:0:
256,192,101540,1,8,0:0:0:0:
256,192,101690,1,4,0:0:0:0:
256,192,101990,1,8,0:0:0:0:
256,192,102140,1,0,0:0:0:0:
256,192,102440,1,0,0:0:0:0:
256,192,102590,1,8,0:0:0:0:
256,192,102890,1,0,0:0:0:0:
256,192,103190,1,8,0:0:0:0:
256,192,103340,1,8,0:0:0:0:
256,192,103415,1,0,0:0:0:0:
256,192,103490,1,0,0:0:0:0:
256,192,103640,1,0,0:0:0:0:
256,192,103790,1,8,0:0:0:0:
256,192,104090,1,0,0:0:0:0:
256,192,104390,1,8,0:0:0:0:
256,192,104540,1,0,0:0:0:0:
256,192,104840,1,0,0:0:0:0:
256,192,104990,1,8,0:0:0:0:
256,192,105290,1,0,0:0:0:0:
256,192,105440,1,0,0:0:0:0:
256,192,105590,1,8,0:0:0:0:
256,192,105740,1,0,0:0:0:0:
256,192,105815,1,0,0:0:0:0:
256,192,105890,1,8,0:0:0:0:
256,192,105965,1,8,0:0:0:0:
256,192,106040,1,0,0:0:0:0:
256,192,106190,1,0,0:0:0:0:
256,192,106340,1,8,0:0:0:0:
256,192,106490,1,0,0:0:0:0:
256,192,106790,1,8,0:0:0:0:
256,192,106940,1,0,0:0:0:0:
256,192,107240,1,0,0:0:0:0:
256,192,107390,1,8,0:0:0:0:
256,192,107690,1,0,0:0:0:0:
256,192,107990,1,8,0:0:0:0:
256,192,108140,1,0,0:0:0:0:
256,192,108215,1,0,0:0:0:0:
256,192,108290,1,8,0:0:0:0:
256,192,108440,1,0,0:0:0:0:
256,192,108590,1,8,0:0:0:0:
256,192,108890,1,0,0:0:0:0:
256,192,109190,1,8,0:0:0:0:
256,192,109340,1,0,0:0:0:0:
256,192,109640,1,0,0:0:0:0:
256,192,109790,1,8,0:0:0:0:
256,192,109865,1,0,0:0:0:0:
256,192,109940,1,8,0:0:0:0:
256,192,110090,1,0,0:0:0:0:
256,192,110240,1,0,0:0:0:0:
256,192,110390,1,8,0:0:0:0:
256,192,110540,1,0,0:0:0:0:
256,192,110615,1,0,0:0:0:0:
256,192,110690,1,8,0:0:0:0:
256,192,110765,1,8,0:0:0:0:
256,192,110840,1,0,0:0:0:0:
256,192,110990,1,8,0:0:0:0:
256,192,111290,1,0,0:0:0:0:
256,192,111590,1,8,0:0:0:0:
256,192,111740,1,0,0:0:0:0:
256,192,112040,1,0,0:0:0:0:
256,192,112190,1,8,0:0:0:0:
256,192,112490,1,0,0:0:0:0:
256,192,112790,1,0,0:0:0:0:
256,192,113090,1,8,0:0:0:0:
256,192,113390,1,0,0:0:0:0:
256,192,113690,1,0,0:0:0:0:
256,192,114140,1,0,0:0:0:0:
256,192,114740,12,0,115940,0:0:0:0:
256,192,116090,5,0,0:0:0:0:
256,192,124790,5,8,0:0:0:0:
256,192,125090,1,8,0:0:0:0:
256,192,125390,1,8,0:0:0:0:
256,192,135290,5,0,0:0:0:0:
256,192,136490,1,8,0:0:0:0:
256,192,137690,1,0,0:0:0:0:
256,192,138290,1,8,0:0:0:0:
256,192,138890,1,0,0:0:0:0:
256,192,140090,12,0,141140,0:0:0:0:
256,192,141290,12,0,142340,0:0:0:0:
256,192,142490,5,8,0:0:0:0:
256,192,142940,1,0,0:0:0:0:
256,192,143540,12,0,144740,0:0:0:0:
256,192,144890,5,0,0:0:0:0:
256,192,145340,1,0,0:0:0:0:
256,192,145790,1,8,0:0:0:0:
256,192,146540,1,0,0:0:0:0:
256,192,146690,1,8,0:0:0:0:
256,192,146840,1,8,0:0:0:0:
256,192,146990,1,0,0:0:0:0:
256,192,147140,1,8,0:0:0:0:
256,192,147290,1,0,0:0:0:0:
256,192,147740,1,0,0:0:0:0:
256,192,148190,1,8,0:0:0:0:
256,192,148790,1,0,0:0:0:0:
256,192,149090,2,0,L|224:192,4,20.9999993591309
256,192,149690,1,0,0:0:0:0:
256,192,150140,1,0,0:0:0:0:
256,192,150590,1,8,0:0:0:0:
256,192,151190,1,0,0:0:0:0:
256,192,151340,1,0,0:0:0:0:
256,192,151490,1,8,0:0:0:0:
256,192,151640,1,8,0:0:0:0:
256,192,151790,1,0,0:0:0:0:
256,192,151940,1,8,0:0:0:0:
256,192,152090,1,0,0:0:0:0:
256,192,152540,1,0,0:0:0:0:
256,192,152990,1,8,0:0:0:0:
256,192,153290,2,0,L|224:192,14,20.9999993591309
256,192,154490,1,0,0:0:0:0:
256,192,154790,1,8,0:0:0:0:
256,192,154940,1,0,0:0:0:0:
256,192,155090,1,8,0:0:0:0:
256,192,155390,1,0,0:0:0:0:
256,192,156140,1,0,0:0:0:0:
256,192,156215,1,0,0:0:0:0:
256,192,156290,1,8,0:0:0:0:
256,192,156440,1,8,0:0:0:0:
256,192,156590,1,0,0:0:0:0:
256,192,156740,1,8,0:0:0:0:
256,192,156890,1,0,0:0:0:0:
256,192,157190,1,8,0:0:0:0:
256,192,157340,1,0,0:0:0:0:
256,192,157490,1,8,0:0:0:0:
256,192,157790,1,0,0:0:0:0:
256,192,158390,1,8,0:0:0:0:
256,192,158690,1,0,0:0:0:0:
256,192,158840,1,0,0:0:0:0:
256,192,158990,1,8,0:0:0:0:
256,192,159290,1,0,0:0:0:0:
256,192,159590,1,8,0:0:0:0:
256,192,159740,1,0,0:0:0:0:
256,192,159890,1,8,0:0:0:0:
256,192,160190,1,0,0:0:0:0:
256,192,160490,1,0,0:0:0:0:
256,192,160790,1,0,0:0:0:0:
256,192,161390,1,8,0:0:0:0:
256,192,161690,1,0,0:0:0:0:
256,192,161990,1,8,0:0:0:0:
256,192,162140,1,0,0:0:0:0:
256,192,162290,1,8,0:0:0:0:
256,192,162590,1,0,0:0:0:0:
229,192,162890,2,0,L|263:191,14,26.2500010013581
256,192,164090,1,12,0:0:0:0:
256,192,164390,1,0,0:0:0:0:
256,192,164540,1,8,0:0:0:0:
256,192,164690,1,0,0:0:0:0:
256,192,164840,1,0,0:0:0:0:
256,192,164915,1,0,0:0:0:0:
256,192,164990,1,8,0:0:0:0:
256,192,165140,1,8,0:0:0:0:
256,192,165290,1,0,0:0:0:0:
256,192,165590,1,8,0:0:0:0:
256,192,165740,1,0,0:0:0:0:
256,192,165815,1,0,0:0:0:0:
256,192,165890,1,8,0:0:0:0:
256,192,166040,1,8,0:0:0:0:
256,192,166190,1,0,0:0:0:0:
256,192,166340,1,8,0:0:0:0:
256,192,166490,1,0,0:0:0:0:
256,192,166790,1,8,0:0:0:0:
256,192,166940,1,0,0:0:0:0:
256,192,167090,1,8,0:0:0:0:
256,192,167240,1,8,0:0:0:0:
256,192,167390,1,0,0:0:0:0:
256,192,167690,1,0,0:0:0:0:
256,192,167990,1,8,0:0:0:0:
256,192,168140,1,0,0:0:0:0:
256,192,168215,1,0,0:0:0:0:
256,192,168290,1,8,0:0:0:0:
256,192,168365,1,0,0:0:0:0:
256,192,168440,1,0,0:0:0:0:
256,192,168590,1,8,0:0:0:0:
256,192,168890,1,8,0:0:0:0:
256,192,169190,1,0,0:0:0:0:
256,192,169340,1,8,0:0:0:0:
256,192,169490,1,0,0:0:0:0:
256,192,169640,1,0,0:0:0:0:
256,192,169715,1,0,0:0:0:0:
256,192,169790,1,8,0:0:0:0:
256,192,169940,1,8,0:0:0:0:
256,192,170090,1,0,0:0:0:0:
256,192,170240,1,0,0:0:0:0:
256,192,170390,1,8,0:0:0:0:
256,192,170465,1,8,0:0:0:0:
256,192,170540,1,8,0:0:0:0:
256,192,170690,1,0,0:0:0:0:
256,192,170765,1,0,0:0:0:0:
256,192,170840,1,0,0:0:0:0:
256,192,170990,1,8,0:0:0:0:
256,192,171065,1,8,0:0:0:0:
256,192,171140,1,8,0:0:0:0:
256,192,171290,1,0,0:0:0:0:
256,192,171590,1,8,0:0:0:0:
256,192,171740,1,0,0:0:0:0:
256,192,171890,1,8,0:0:0:0:
256,192,172040,1,8,0:0:0:0:
256,192,172190,1,0,0:0:0:0:
256,192,172490,1,0,0:0:0:0:
256,192,172640,1,8,0:0:0:0:
256,192,172790,1,0,0:0:0:0:
256,192,172940,1,8,0:0:0:0:
256,192,173015,1,0,0:0:0:0:
256,192,173090,1,8,0:0:0:0:
256,192,173165,1,8,0:0:0:0:
256,192,173240,1,0,0:0:0:0:
256,192,173390,1,8,0:0:0:0:
256,192,173540,1,0,0:0:0:0:
256,192,173690,1,12,0:0:0:0:
256,192,173990,1,0,0:0:0:0:
256,192,174140,1,8,0:0:0:0:
256,192,174290,1,0,0:0:0:0:
256,192,174440,1,0,0:0:0:0:
256,192,174515,1,0,0:0:0:0:
256,192,174590,1,8,0:0:0:0:
256,192,174740,1,8,0:0:0:0:
256,192,174890,1,0,0:0:0:0:
256,192,175190,1,8,0:0:0:0:
256,192,175340,1,8,0:0:0:0:
256,192,175415,1,0,0:0:0:0:
256,192,175490,1,8,0:0:0:0:
256,192,175640,1,8,0:0:0:0:
256,192,175790,1,0,0:0:0:0:
256,192,175940,1,8,0:0:0:0:
256,192,176090,1,0,0:0:0:0:
256,192,176390,1,8,0:0:0:0:
256,192,176540,1,0,0:0:0:0:
256,192,176690,1,8,0:0:0:0:
256,192,176840,1,8,0:0:0:0:
256,192,176990,1,0,0:0:0:0:
256,192,177290,1,0,0:0:0:0:
256,192,177590,1,8,0:0:0:0:
256,192,177740,1,8,0:0:0:0:
256,192,177815,1,8,0:0:0:0:
256,192,177890,1,0,0:0:0:0:
256,192,177965,1,0,0:0:0:0:
256,192,178040,1,0,0:0:0:0:
256,192,178190,1,8,0:0:0:0:
256,192,178340,1,8,0:0:0:0:
256,192,178490,1,0,0:0:0:0:
256,192,178790,1,0,0:0:0:0:
256,192,178940,1,8,0:0:0:0:
256,192,179090,1,0,0:0:0:0:
256,192,179240,1,0,0:0:0:0:
256,192,179315,1,0,0:0:0:0:
256,192,179390,1,8,0:0:0:0:
256,192,179540,1,8,0:0:0:0:
256,192,179690,1,0,0:0:0:0:
256,192,179840,1,0,0:0:0:0:
256,192,179990,1,8,0:0:0:0:
256,192,180065,1,8,0:0:0:0:
256,192,180140,1,8,0:0:0:0:
256,192,180290,1,0,0:0:0:0:
256,192,180365,1,0,0:0:0:0:
256,192,180440,1,0,0:0:0:0:
256,192,180590,1,8,0:0:0:0:
256,192,180665,1,8,0:0:0:0:
256,192,180740,1,8,0:0:0:0:
256,192,180890,1,0,0:0:0:0:
256,192,181190,1,8,0:0:0:0:
256,192,181340,1,0,0:0:0:0:
256,192,181490,1,8,0:0:0:0:
256,192,181640,1,8,0:0:0:0:
256,192,181790,1,0,0:0:0:0:
256,192,182090,1,0,0:0:0:0:
256,192,182390,1,0,0:0:0:0:
256,192,182690,1,0,0:0:0:0:
256,192,182990,1,0,0:0:0:0:
256,192,183290,1,12,0:0:0:0:
256,192,183590,1,0,0:0:0:0:
256,192,183740,1,8,0:0:0:0:
256,192,183890,1,0,0:0:0:0:
256,192,184190,1,8,0:0:0:0:
256,192,184490,1,0,0:0:0:0:
256,192,184940,1,0,0:0:0:0:
256,192,185015,1,0,0:0:0:0:
256,192,185090,1,8,0:0:0:0:
256,192,185240,1,8,0:0:0:0:
256,192,185390,1,0,0:0:0:0:
256,192,185540,1,8,0:0:0:0:
256,192,185690,1,0,0:0:0:0:
256,192,185990,1,0,0:0:0:0:
256,192,186140,1,8,0:0:0:0:
256,192,186290,1,0,0:0:0:0:
256,192,186590,1,8,0:0:0:0:
256,192,186890,1,0,0:0:0:0:
256,192,187040,1,0,0:0:0:0:
256,192,187190,1,8,0:0:0:0:
256,192,187340,1,0,0:0:0:0:
256,192,187415,1,0,0:0:0:0:
256,192,187490,1,8,0:0:0:0:
256,192,187565,1,8,0:0:0:0:
256,192,187640,1,8,0:0:0:0:
256,192,187790,1,0,0:0:0:0:
256,192,188090,1,8,0:0:0:0:
256,192,188390,1,0,0:0:0:0:
256,192,188540,1,8,0:0:0:0:
256,192,188690,1,0,0:0:0:0:
256,192,188990,1,8,0:0:0:0:
256,192,189290,1,0,0:0:0:0:
256,192,189590,1,0,0:0:0:0:
256,192,189740,1,0,0:0:0:0:
256,192,189890,1,8,0:0:0:0:
256,192,189965,1,0,0:0:0:0:
256,192,190040,1,8,0:0:0:0:
256,192,190190,1,0,0:0:0:0:
256,192,190340,1,8,0:0:0:0:
256,192,190490,1,0,0:0:0:0:
256,192,190790,1,0,0:0:0:0:
256,192,190940,1,8,0:0:0:0:
256,192,191090,1,0,0:0:0:0:
256,192,191390,1,8,0:0:0:0:
256,192,191690,2,0,L|224:192,14,28
256,192,192890,1,8,0:0:0:0:
256,192,193190,1,0,0:0:0:0:
256,192,193340,1,8,0:0:0:0:
256,192,193490,1,0,0:0:0:0:
256,192,193790,1,8,0:0:0:0:
256,192,194090,1,0,0:0:0:0:
256,192,194540,1,0,0:0:0:0:
256,192,194615,1,0,0:0:0:0:
256,192,194690,1,8,0:0:0:0:
256,192,194840,1,8,0:0:0:0:
256,192,194990,1,0,0:0:0:0:
256,192,195140,1,8,0:0:0:0:
256,192,195290,1,0,0:0:0:0:
256,192,195590,1,0,0:0:0:0:
256,192,195740,1,8,0:0:0:0:
256,192,195890,1,0,0:0:0:0:
256,192,196190,1,8,0:0:0:0:
256,192,196490,1,0,0:0:0:0:
256,192,196640,1,0,0:0:0:0:
256,192,196790,1,8,0:0:0:0:
256,192,196940,1,0,0:0:0:0:
256,192,197015,1,0,0:0:0:0:
256,192,197090,1,8,0:0:0:0:
256,192,197165,1,8,0:0:0:0:
256,192,197240,1,8,0:0:0:0:
256,192,197390,1,0,0:0:0:0:
256,192,197690,1,8,0:0:0:0:
256,192,197990,1,0,0:0:0:0:
256,192,198140,1,8,0:0:0:0:
256,192,198290,1,0,0:0:0:0:
256,192,198590,1,8,0:0:0:0:
256,192,198740,1,8,0:0:0:0:
256,192,199040,1,0,0:0:0:0:
256,192,199190,1,8,0:0:0:0:
256,192,199340,1,0,0:0:0:0:
256,192,199490,1,8,0:0:0:0:
256,192,199565,1,0,0:0:0:0:
256,192,199640,1,8,0:0:0:0:
256,192,199790,1,0,0:0:0:0:
256,192,199940,1,8,0:0:0:0:
256,192,200090,1,0,0:0:0:0:
256,192,200390,1,0,0:0:0:0:
256,192,200540,1,8,0:0:0:0:
256,192,200690,1,0,0:0:0:0:
256,192,200990,1,8,0:0:0:0:
256,192,201290,12,0,202340,0:0:0:0:
256,192,202490,5,0,0:0:0:0:
256,192,202940,1,0,0:0:0:0:
256,192,203390,1,8,0:0:0:0:
256,192,204140,1,0,0:0:0:0:
256,192,204290,1,8,0:0:0:0:
256,192,204440,1,8,0:0:0:0:
256,192,204590,1,0,0:0:0:0:
256,192,204740,1,8,0:0:0:0:
256,192,204890,1,0,0:0:0:0:
256,192,205340,1,0,0:0:0:0:
256,192,205790,1,8,0:0:0:0:
256,192,206390,1,0,0:0:0:0:
256,192,207290,1,0,0:0:0:0:
256,192,207740,1,0,0:0:0:0:
256,192,208190,1,8,0:0:0:0:
256,192,209690,1,0,0:0:0:0:
256,192,210140,1,0,0:0:0:0:
256,192,210590,1,8,0:0:0:0:
