osu file format v14

[General]
AudioFilename: audio.mp3
AudioLeadIn: 0
PreviewTime: 68297
Countdown: 0
SampleSet: Soft
StackLeniency: 0.7
Mode: 2
LetterboxInBreaks: 0
WidescreenStoryboard: 1

[Editor]
Bookmarks: 10697,20297,29897,39497,49097,58697,63497,65897,67097,68297,77897,87497,97097,106697,115097
DistanceSpacing: 1.2
BeatDivisor: 4
GridSize: 32
TimelineZoom: 1.799998

[Metadata]
Title:LANA - Kiroku no Kakera (sasakure.UK Framework Remix) -
TitleUnicode:LANA - キロクノカケラ (sasakure.UK Framework Remix) -
Artist:TOMOSUKE x Jazzin'park
ArtistUnicode:TOMOSUKE×Jazzin'park
Creator:-MomoX
Version:Rain
Source:jubeat saucer
Tags:Pop Video Game Japanese Female Vocal Lana Murakami - a Piece of Memories - Satoru Kurihara Singo Kubota ささくれP SasakureP 舟木智介 Zektbach ゼクトバッハ Rche ジャジンパーク
BeatmapID:2866422
BeatmapSetID:1387417

[Difficulty]
HPDrainRate:5
CircleSize:4.2
OverallDifficulty:9
ApproachRate:9
SliderMultiplier:1.86
SliderTickRate:1

[Events]
//Background and Video events
0,0,"79485299_p0.jpg",0,0
//Break Periods
//Storyboard Layer 0 (Background)
//Storyboard Layer 1 (Fail)
//Storyboard Layer 2 (Pass)
//Storyboard Layer 3 (Foreground)
//Storyboard Layer 4 (Overlay)
//Storyboard Sound Samples

[TimingPoints]
1097,300,4,2,1,60,1,0
10697,-100,4,2,1,60,0,0
11897,-100,4,2,1,60,0,0
17897,-100,4,2,1,45,0,0
20297,-100,4,2,2,70,0,0
20747,-100,4,2,2,70,0,0
22697,-100,4,2,2,70,0,0
23147,-100,4,2,2,70,0,0
25097,-100,4,2,2,70,0,0
25547,-100,4,2,2,70,0,0
26897,-100,4,2,1,50,0,0
27197,-100,4,2,2,70,0,0
27497,-100,4,2,2,70,0,0
27947,-100,4,2,2,70,0,0
36497,-100,4,2,1,50,0,0
36722,-100,4,2,2,70,0,0
38747,-100,4,2,1,70,0,0
39497,-100,4,2,2,70,0,0
48497,-100,4,2,1,50,0,0
48797,-100,4,2,2,70,0,0
58397,-100,4,2,1,70,0,0
58697,-100,4,2,2,70,0,0
65897,-100,4,2,1,50,0,0
66947,-100,4,2,1,70,0,0
68297,-100,4,2,1,70,0,1
68372,-100,4,2,1,70,0,0
77597,-100,4,2,1,70,0,0
77897,-100,4,2,2,70,0,1
86297,-100,4,2,1,70,0,0
87497,-100,4,2,2,70,0,1
105497,-100,4,2,1,70,0,0
106397,-100,4,2,1,70,0,1
106697,-100,4,2,1,45,0,0
110597,-100,4,2,1,45,0,0
111497,-100,4,2,1,45,0,0

[Colours]
Combo1 : 255,255,138
Combo2 : 255,141,28
Combo3 : 0,105,145
Combo4 : 145,72,0

[HitObjects]
414,120,10697,6,0,L|179:310,2,279,2|2|2,0:0|0:0|0:0,0:0:0:0:
153,54,11897,6,0,P|73:97|177:214,1,279,8|0,0:0|0:0,0:0:0:0:
297,167,12497,2,0,P|382:204|268:306,1,279,0|0,0:0|0:0,0:0:0:0:
158,110,13097,6,0,L|393:300,2,279,2|2|2,0:0|0:0|0:0,0:0:0:0:
418,81,14297,6,0,P|448:150|291:252,1,279,8|0,0:0|0:0,0:0:0:0:
174,91,14897,2,0,P|86:132|132:211,1,186,0|0,0:0|0:0,0:0:0:0:
195,210,15347,1,0,0:0:0:0:
402,75,15497,6,0,P|458:153|375:190,1,186,2|0,0:0|0:0,0:0:0:0:
261,124,15947,2,0,L|75:226,1,186,2|0,0:0|0:0,0:0:0:0:
237,229,16397,2,0,L|327:176,1,93,2|0,0:0|0:0,0:0:0:0:
177,71,16697,6,0,P|117:117|195:178,1,186,0|0,0:0|0:0,0:0:0:0:
319,49,17147,2,0,P|399:131|236:271,1,372,0|0,0:0|0:0,0:0:0:0:
39,155,17897,5,6,0:0:0:0:
39,155,18047,1,0,0:0:0:0:
396,111,18347,1,6,0:0:0:0:
172,118,18647,1,0,0:0:0:0:
421,65,18947,6,0,P|481:113|390:167,1,186,0|0,0:0|0:0,0:0:0:0:
328,30,19397,2,0,P|136:73|188:316,1,465,0|0,0:0|0:0,0:0:0:0:
371,319,20297,6,0,P|430:265|358:206,1,186,6|2,0:0|0:0,0:0:0:0:
229,198,20747,1,10,0:0:0:0:
397,67,21047,1,10,0:0:0:0:
410,111,21122,1,0,0:0:0:0:
404,156,21197,1,0,0:0:0:0:
379,195,21272,1,0,0:0:0:0:
341,220,21347,1,0,0:0:0:0:
134,217,21497,6,0,L|22:276,2,93,2|0|2,0:0|0:0|0:0,0:0:0:0:
273,181,21947,1,10,0:0:0:0:
66,123,22097,2,0,L|-16:123,2,46.5,2|0|0,0:0|0:0|0:0,0:0:0:0:
156,119,22397,1,2,0:0:0:0:
66,123,22547,1,2,0:0:0:0:
274,233,22697,6,0,L|379:232,2,93,2|0|2,0:0|0:0|0:0,0:0:0:0:
135,236,23147,1,10,0:0:0:0:
303,146,23447,1,10,0:0:0:0:
210,140,23597,2,0,L|211:275,1,93,0|0,0:0|0:0,0:0:0:0:
259,231,23822,1,0,0:0:0:0:
401,230,23897,6,0,L|401:102,1,93,2|2,0:0|0:0,0:0:0:0:
308,139,24197,2,0,L|185:138,1,93,2|0,0:0|0:0,0:0:0:0:
426,195,24497,2,0,P|448:298|368:292,1,186,2|2,0:0|0:0,0:0:0:0:
302,305,24947,1,0,0:0:0:0:
94,122,25097,6,0,P|35:191|117:227,1,186,2|2,0:0|0:0,0:0:0:0:
235,230,25547,1,10,0:0:0:0:
68,60,25847,1,10,0:0:0:0:
48,101,25922,1,0,0:0:0:0:
49,147,25997,1,0,0:0:0:0:
72,187,26072,1,0,0:0:0:0:
111,212,26147,1,0,0:0:0:0:
318,209,26297,6,0,L|436:209,2,93,2|0|2,0:0|0:0|0:0,0:0:0:0:
177,248,26747,1,0,0:0:0:0:
385,94,26897,1,10,0:1:0:0:
414,102,26947,1,0,0:0:0:0:
436,123,26997,1,0,0:0:0:0:
445,152,27047,1,0,0:0:0:0:
429,194,27122,1,0,0:0:0:0:
387,213,27197,1,2,0:0:0:0:
295,209,27347,1,2,0:0:0:0:
88,130,27497,6,0,L|88:229,1,93,2|0,0:0|0:0,0:0:0:0:
182,217,27797,1,2,0:0:0:0:
322,248,27947,1,10,0:0:0:0:
155,119,28247,1,10,0:0:0:0:
61,131,28397,2,0,L|61:249,1,93,0|0,0:0|0:0,0:0:0:0:
108,224,28622,1,0,0:0:0:0:
263,157,28697,6,0,L|95:272,2,186,0|0|0,0:0|0:0|0:0,0:0:0:0:
19,115,29597,2,0,L|108:170,1,93,0|0,0:0|0:0,0:0:0:0:
306,165,29897,6,0,P|363:206|283:277,1,186,4|2,0:0|0:0,0:0:0:0:
168,131,30347,2,0,L|168:246,1,93,10|0,0:0|0:0,0:0:0:0:
309,60,30647,1,10,0:0:0:0:
336,95,30722,1,0,0:0:0:0:
335,141,30797,1,0,0:0:0:0:
304,175,30872,1,0,0:0:0:0:
259,180,30947,1,0,0:0:0:0:
468,144,31097,6,0,L|468:255,1,93,2|0,0:0|0:0,0:0:0:0:
376,238,31397,1,2,0:0:0:0:
468,237,31547,1,2,0:0:0:0:
260,183,31697,2,0,L|198:183,2,46.5,10|0|0,0:0|0:0|0:0,0:0:0:0:
349,181,31997,1,2,0:0:0:0:
260,183,32147,1,2,0:0:0:0:
53,64,32297,6,0,P|68:174|141:169,1,186,2|2,0:0|0:0,0:0:0:0:
263,203,32747,2,0,L|264:330,1,93,10|0,0:0|0:0,0:0:0:0:
123,155,33047,1,10,0:0:0:0:
80,171,33122,1,0,0:0:0:0:
63,212,33197,1,0,0:0:0:0:
81,254,33272,1,0,0:0:0:0:
123,270,33347,1,0,0:0:0:0:
330,118,33497,6,0,L|330:220,1,93,2|0,0:0|0:0,0:0:0:0:
237,237,33797,1,2,0:0:0:0:
330,211,33947,1,0,0:0:0:0:
122,130,34097,2,0,P|73:220|145:237,1,186,2|0,0:0|0:0,0:0:0:0:
218,238,34547,1,0,0:0:0:0:
426,223,34697,6,0,P|452:148|345:123,1,186,2|2,0:0|0:0,0:0:0:0:
231,111,35147,2,0,L|231:246,1,93,10|0,0:0|0:0,0:0:0:0:
372,103,35447,1,10,0:0:0:0:
394,142,35522,1,0,0:0:0:0:
388,187,35597,1,0,0:0:0:0:
355,219,35672,1,0,0:0:0:0:
310,224,35747,1,0,0:0:0:0:
101,107,35897,6,0,L|101:236,1,93,2|0,0:0|0:0,0:0:0:0:
193,202,36197,1,2,0:0:0:0:
101,200,36347,1,2,0:0:0:0:
308,131,36497,2,0,L|325:146,4,23.25,10|0|0|0|0,0:1|0:0|0:0|0:0|0:0,0:0:0:0:
167,133,36797,2,0,L|167:244,1,93,2|0,0:0|0:0,0:0:0:0:
376,153,37097,6,0,P|434:195|362:264,1,186,2|2,0:0|0:0,0:0:0:0:
235,170,37547,2,0,L|235:285,1,93,10|0,0:0|0:0,0:0:0:0:
376,153,37847,1,10,0:0:0:0:
333,172,37922,1,0,0:0:0:0:
291,191,37997,1,0,0:0:0:0:
249,211,38072,1,0,0:0:0:0:
206,230,38147,1,0,0:0:0:0:
414,222,38297,6,0,L|496:171,2,93,2|0|2,0:0|0:0|0:0,0:0:0:0:
203,153,38747,1,10,0:1:0:0:
203,153,38822,1,0,0:1:0:0:
343,117,38897,1,10,0:1:0:0:
372,123,38947,1,0,0:0:0:0:
394,145,38997,1,0,0:0:0:0:
400,175,39047,1,0,0:1:0:0:
382,216,39122,1,0,0:1:0:0:
340,231,39197,1,10,0:1:0:0:
203,153,39347,1,10,0:1:0:0:
411,54,39497,6,0,L|411:159,1,93,2|0,0:0|0:0,0:0:0:0:
272,158,39797,2,0,L|272:280,1,93,2|10,0:0|0:0,0:0:0:0:
412,53,40097,1,0,0:0:0:0:
273,46,40247,1,10,0:0:0:0:
259,89,40322,1,0,0:0:0:0:
275,132,40397,1,0,0:0:0:0:
314,156,40472,1,0,0:0:0:0:
360,151,40547,1,0,0:0:0:0:
153,206,40697,6,0,L|58:273,2,93,2|0|2,0:0|0:0|0:0,0:0:0:0:
294,203,41147,1,2,0:0:0:0:
83,118,41297,2,0,L|19:118,1,46.5,10|0,0:0|0:0,0:0:0:0:
83,118,41447,2,0,L|250:215,1,186,2|0,0:0|0:0,0:0:0:0:
34,195,41897,6,0,P|36:272|147:300,1,186,2|2,0:0|0:0,0:0:0:0:
267,109,42347,2,0,L|267:211,1,93,10|0,0:0|0:0,0:0:0:0:
128,204,42647,1,10,0:0:0:0:
267,109,42797,1,0,0:0:0:0:
304,133,42872,1,0,0:0:0:0:
304,177,42947,1,0,0:0:0:0:
267,202,43022,1,0,0:0:0:0:
103,115,43097,6,0,L|104:248,1,93,2|0,0:0|0:0,0:0:0:0:
197,129,43397,1,2,0:0:0:0:
103,115,43547,1,2,0:0:0:0:
315,106,43697,2,0,P|370:138|306:220,1,186,10|0,0:0|0:0,0:0:0:0:
222,220,44147,1,0,0:0:0:0:
430,128,44297,6,0,L|430:244,1,93,2|0,0:0|0:0,0:0:0:0:
341,221,44597,1,2,0:0:0:0:
201,128,44747,2,0,L|83:192,2,93,10|0|10,0:0|0:0|0:0,0:0:0:0:
341,221,45197,2,0,L|341:92,1,93,0|0,0:0|0:0,0:0:0:0:
132,74,45497,6,0,L|20:112,2,93,2|0|2,0:0|0:0|0:0,0:0:0:0:
271,68,45947,1,2,0:0:0:0:
64,163,46097,2,0,L|17:163,1,46.5,10|0,0:0|0:0,0:0:0:0:
64,163,46247,2,0,L|262:255,1,186,2|0,0:0|0:0,0:0:0:0:
448,123,46697,6,0,P|441:229|348:232,1,186,2|0,0:0|0:0,0:0:0:0:
238,154,47147,2,0,L|237:279,1,93,2|0,0:0|0:0,0:0:0:0:
377,245,47447,2,0,L|378:120,1,93,2|0,0:0|0:0,0:0:0:0:
162,68,47747,6,0,P|104:108|187:166,1,186,2|2,0:0|0:0,0:0:0:0:
307,178,48197,1,10,0:0:0:0:
47,216,48497,2,0,L|28:242,7,23.25,10|0|0|0|0|0|0|0,0:1|0:0|0:0|0:0|0:0|0:0|0:0|0:0,0:0:0:0:
47,216,48797,2,0,L|154:215,1,93,2|2,0:0|0:0,0:0:0:0:
348,217,49097,6,0,P|406:143|345:110,1,186,4|0,0:0|0:0,0:0:0:0:
254,110,49547,2,0,L|254:230,1,93,2|0,0:0|0:0,0:0:0:0:
394,261,49847,2,0,L|273:222,2,93,2|0|2,0:0|0:0|0:0,0:0:0:0:
186,214,50297,6,0,L|65:175,2,93,0|2|0,0:0|0:0|0:0,0:0:0:0:
279,171,50747,2,0,L|279:298,1,93,2|0,0:0|0:0,0:0:0:0:
71,86,51047,2,0,L|192:125,2,93,2|10|2,0:0|0:0|0:0,0:0:0:0:
289,75,51497,6,0,L|106:172,1,186,0|0,0:0|0:0,0:0:0:0:
217,188,51947,2,0,L|218:316,1,93,2|0,0:0|0:0,0:0:0:0:
78,295,52247,2,0,L|199:256,2,93,2|0|2,0:0|0:0|0:0,0:0:0:0:
287,201,52697,6,0,L|399:166,2,93,0|2|0,0:0|0:0|0:0,0:0:0:0:
193,147,53147,2,0,L|105:178,1,93,2|0,0:0|0:0,0:0:0:0:
313,65,53447,2,0,L|224:92,2,93,2|10|2,0:0|0:0|0:0,0:0:0:0:
103,103,53897,6,0,P|50:137|116:213,1,186,0|0,0:0|0:0,0:0:0:0:
203,216,54347,2,0,L|203:329,1,93,2|0,0:0|0:0,0:0:0:0:
343,148,54647,2,0,L|254:175,2,93,2|0|2,0:0|0:0|0:0,0:0:0:0:
134,62,55097,6,0,L|134:177,1,93,0|2,0:0|0:0,0:0:0:0:
224,149,55397,1,0,0:0:0:0:
310,152,55547,2,0,L|196:206,1,93,2|0,0:0|0:0,0:0:0:0:
19,163,55847,2,0,L|107:190,2,93,2|10|2,0:0|0:0|0:0,0:0:0:0:
231,98,56297,6,0,P|294:144|231:202,1,186,2|2,0:0|0:0,0:0:0:0:
151,182,56747,2,0,L|151:301,1,93,0|8,0:0|0:1,0:0:0:0:
232,98,57047,2,0,L|232:231,1,93,0|0,0:0|0:0,0:0:0:0:
92,143,57347,6,0,P|81:208|159:236,1,139.5,2|0,0:0|0:0,0:0:0:0:
277,227,57647,1,2,0:0:0:0:
362,211,57797,1,2,0:0:0:0:
277,227,57947,1,2,0:0:0:0:
191,242,58097,1,2,0:0:0:0:
277,227,58247,1,2,0:0:0:0:
137,122,58397,5,10,0:1:0:0:
114,126,58434,1,0,0:0:0:0:
97,141,58472,1,0,0:0:0:0:
91,163,58509,1,0,0:0:0:0:
98,185,58547,1,0,0:0:0:0:
116,200,58584,1,0,0:0:0:0:
139,202,58622,1,0,0:0:0:0:
325,110,58697,6,0,P|380:143|298:211,1,186,10|2,0:0|0:0,0:0:0:0:
182,147,59147,2,0,L|276:148,2,93,2|10|0,0:0|0:0|0:0,0:0:0:0:
360,47,59747,6,0,L|359:176,1,93,2|10,0:0|0:0,0:0:0:0:
266,158,60047,2,0,L|266:288,1,93,0|2,0:0|0:0,0:0:0:0:
406,43,60347,1,2,0:0:0:0:
313,40,60497,2,0,P|185:98|232:206,1,279,10|2,0:0|0:0,0:0:0:0:
437,107,61097,6,0,P|461:170|350:215,1,186,10|2,0:0|0:0,0:0:0:0:
235,160,61547,2,0,L|344:160,1,93,2|10,0:0|0:0,0:0:0:0:
328,160,61847,1,0,0:0:0:0:
157,60,62147,6,0,L|157:194,1,93,2|10,0:0|0:0,0:0:0:0:
248,161,62447,2,0,L|248:267,1,93,2|2,0:0|0:0,0:0:0:0:
107,151,62747,2,0,P|53:229|126:261,1,186,2|0,0:0|0:0,0:0:0:0:
206,258,63197,1,2,0:0:0:0:
112,264,63347,1,2,0:0:0:0:
322,120,63497,5,10,0:0:0:0:
408,123,63647,2,0,P|461:157|382:236,1,186,0|2,0:0|0:0,0:0:0:0:
266,239,64097,2,0,L|274:115,1,93,10|0,0:0|0:0,0:0:0:0:
364,144,64397,2,0,L|479:178,1,93,2|2,0:0|0:0,0:0:0:0:
244,118,64697,6,0,P|185:149|268:209,1,186,10|2,0:0|0:0,0:0:0:0:
383,172,65147,1,2,0:0:0:0:
244,323,65297,2,0,P|185:292|268:232,1,186,10|2,0:0|0:0,0:0:0:0:
383,269,65747,1,2,0:0:0:0:
175,97,65897,6,0,L|157:81,8,23.25,0|0|0|0|0|0|0|0|0,0:0|0:0|0:0|0:0|0:0|0:0|0:0|0:0|0:0,0:0:0:0:
385,103,66347,2,0,P|472:169|363:270,1,279,0|0,0:0|0:0,0:0:0:0:
172,92,66947,6,0,P|124:117|194:209,1,186,0|0,0:0|0:0,0:0:0:0:
310,209,67397,1,0,0:0:0:0:
170,29,67547,2,0,P|66:81|171:298,1,418.5,0|0,0:0|0:0,0:0:0:0:
358,243,68297,6,0,L|359:113,1,93,6|0,0:0|0:0,0:0:0:0:
219,74,68597,2,0,P|160:142|239:171,1,186,0|8,0:0|0:0,0:0:0:0:
314,166,69047,1,0,0:0:0:0:
174,187,69197,2,0,L|174:294,1,93,0|0,0:0|0:0,0:0:0:0:
381,115,69497,6,0,P|435:195|358:201,1,186,2|0,0:0|0:0,0:0:0:0:
241,133,69947,1,0,0:0:0:0:
334,159,70097,2,0,L|334:288,1,93,8|0,0:0|0:0,0:0:0:0:
241,226,70397,2,0,L|241:97,1,93,0|0,0:0|0:0,0:0:0:0:
451,80,70697,6,0,P|455:182|373:187,1,186,2|0,0:0|0:0,0:0:0:0:
249,198,71147,2,0,L|146:265,1,93,0|8,0:0|0:0,0:0:0:0:
171,248,71447,1,0,0:0:0:0:
311,176,71597,2,0,L|311:291,1,93,0|0,0:0|0:0,0:0:0:0:
100,166,71897,6,0,L|208:165,2,93,2|0|0,0:0|0:0|0:0,0:0:0:0:
342,117,72497,2,0,P|402:177|314:228,1,186,8|0,0:0|0:0,0:0:0:0:
259,231,72947,1,0,0:0:0:0:
46,97,73097,6,0,P|30:169|122:212,1,186,2|0,0:0|0:0,0:0:0:0:
201,196,73547,1,0,0:0:0:0:
340,106,73697,2,0,L|340:220,1,93,8|0,0:0|0:0,0:0:0:0:
248,217,73997,2,0,L|248:340,1,93,0|0,0:0|0:0,0:0:0:0:
459,108,74297,6,0,L|459:226,1,93,2|0,0:0|0:0,0:0:0:0:
320,104,74597,1,0,0:0:0:0:
268,133,74672,1,0,0:0:0:0:
271,191,74747,1,0,0:0:0:0:
325,216,74822,1,0,0:0:0:0:
423,216,74897,1,8,0:0:0:0:
455,266,74972,1,0,0:0:0:0:
435,322,75047,1,0,0:0:0:0:
378,340,75122,1,0,0:0:0:0:
280,346,75197,1,0,0:0:0:0:
224,324,75272,1,0,0:0:0:0:
207,267,75347,1,0,0:0:0:0:
244,220,75422,1,0,0:0:0:0:
395,112,75497,6,0,L|488:165,2,93,2|0|0,0:0|0:0|0:0,0:0:0:0:
254,64,75947,2,0,L|254:188,1,93,0|8,0:0|0:0,0:0:0:0:
337,153,76247,1,0,0:0:0:0:
196,166,76397,2,0,L|91:223,1,93,0|0,0:0|0:0,0:0:0:0:
325,234,76697,5,2,0:0:0:0:
362,208,76772,1,0,0:0:0:0:
376,165,76847,1,0,0:0:0:0:
360,122,76922,1,0,0:0:0:0:
304,158,76997,1,0,0:0:0:0:
266,132,77072,1,0,0:0:0:0:
252,89,77147,1,0,0:0:0:0:
268,46,77222,1,0,0:0:0:0:
369,50,77297,5,0,0:0:0:0:
421,77,77372,1,0,0:0:0:0:
419,136,77447,1,0,0:0:0:0:
365,159,77522,1,0,0:0:0:0:
214,138,77597,1,0,0:0:0:0:
169,142,77672,1,0,0:0:0:0:
142,178,77747,1,0,0:0:0:0:
152,222,77822,1,0,0:0:0:0:
327,137,77897,6,0,P|386:177|313:242,1,186,12|10,0:0|0:0,0:0:0:0:
185,238,78347,1,0,0:0:0:0:
393,117,78497,2,0,L|291:149,1,93,8|0,0:0|0:0,0:0:0:0:
393,117,78797,2,0,L|513:74,1,93,10|0,0:0|0:0,0:0:0:0:
267,86,79097,6,0,P|207:142|276:192,1,186,8|10,0:0|0:0,0:0:0:0:
480,126,79547,2,0,L|409:126,1,46.5,10|10,0:0|0:0,0:0:0:0:
287,183,79697,1,10,0:0:0:0:
370,140,79847,2,0,L|471:91,2,93,8|10|8,0:0|0:0|0:0,0:0:0:0:
154,136,80297,6,0,L|154:253,1,93,8|0,0:0|0:0,0:0:0:0:
240,255,80597,2,0,L|345:318,1,93,10|0,0:0|0:0,0:0:0:0:
170,80,80897,2,0,L|170:204,1,93,8|0,0:0|0:0,0:0:0:0:
321,123,81197,2,0,P|348:162|300:190,1,93,10|10,0:0|0:0,0:0:0:0:
114,190,81497,6,0,P|57:229|121:299,1,186,8|10,0:0|0:0,0:0:0:0:
259,193,81947,2,0,L|259:121,1,46.5,10|10,0:0|0:0,0:0:0:0:
112,67,82097,1,10,0:0:0:0:
68,84,82172,1,0,0:0:0:0:
25,102,82247,1,0,0:0:0:0:
112,67,82397,2,0,L|215:25,1,93,10|0,0:0|0:0,0:0:0:0:
406,46,82697,6,0,P|423:102|322:162,1,186,8|10,0:0|0:0,0:0:0:0:
192,101,83147,1,8,0:0:0:0:
331,165,83297,2,0,L|437:211,1,93,10|0,0:0|0:0,0:0:0:0:
206,222,83597,1,10,0:0:0:0:
344,166,83747,1,10,0:0:0:0:
130,165,83897,6,0,P|89:201|136:245,1,93,8|0,0:0|0:0,0:0:0:0:
239,231,84197,2,0,L|342:177,1,93,10|10,0:0|0:0,0:0:0:0:
275,168,84422,1,10,0:0:0:0:
130,100,84497,1,10,0:0:0:0:
114,158,84572,1,0,0:0:0:0:
144,211,84647,1,0,0:0:0:0:
202,227,84722,1,0,0:0:0:0:
302,229,84797,1,10,0:0:0:0:
355,253,84872,1,0,0:0:0:0:
355,312,84947,1,0,0:0:0:0:
302,337,85022,1,0,0:0:0:0:
136,133,85097,6,0,P|72:180|145:225,1,186,8|10,0:0|0:0,0:0:0:0:
276,208,85547,1,10,0:0:0:0:
65,62,85697,2,0,P|48:142|155:174,1,186,8|10,0:0|0:0,0:0:0:0:
268,217,86147,1,10,0:0:0:0:
54,150,86297,5,8,0:1:0:0:
17,176,86372,1,0,0:0:0:0:
3,219,86447,1,0,0:0:0:0:
19,262,86522,1,0,0:0:0:0:
75,226,86597,1,8,0:1:0:0:
113,252,86672,1,0,0:0:0:0:
127,295,86747,1,0,0:0:0:0:
111,338,86822,1,0,0:0:0:0:
55,172,86897,5,8,0:1:0:0:
42,215,86972,1,0,0:0:0:0:
66,253,87047,1,0,0:0:0:0:
111,260,87122,1,0,0:0:0:0:
212,133,87197,1,8,0:1:0:0:
262,163,87272,1,0,0:0:0:0:
262,222,87347,1,0,0:1:0:0:
211,252,87422,1,0,0:0:0:0:
61,117,87497,6,0,P|58:213|137:227,1,186,12|10,0:0|0:0,0:0:0:0:
271,198,87947,1,0,0:0:0:0:
130,229,88097,2,0,L|130:358,1,93,8|0,0:0|0:0,0:0:0:0:
339,184,88397,2,0,L|423:225,1,93,10|0,0:0|0:0,0:0:0:0:
194,107,88697,6,0,P|131:149|206:198,1,186,8|10,0:0|0:0,0:0:0:0:
404,205,89147,2,0,L|324:206,1,46.5,10|10,0:0|0:0,0:0:0:0:
196,202,89297,2,0,L|76:144,1,93,10|8,0:0|0:0,0:0:0:0:
28,121,89597,2,0,L|149:179,1,93,10|8,0:0|0:0,0:0:0:0:
324,191,89897,6,0,L|429:135,1,93,8|0,0:0|0:0,0:0:0:0:
266,86,90197,1,10,0:0:0:0:
479,130,90347,2,0,L|479:248,1,93,0|8,0:0|0:0,0:0:0:0:
340,220,90647,1,0,0:0:0:0:
131,128,90797,2,0,L|229:196,1,93,10|0,0:0|0:0,0:0:0:0:
423,157,91097,6,0,P|477:192|414:273,1,186,10|10,0:0|0:0,0:0:0:0:
286,168,91547,2,0,L|215:168,1,46.5,10|10,0:0|0:0,0:0:0:0:
390,80,91697,1,10,0:0:0:0:
432,98,91772,1,0,0:0:0:0:
475,117,91847,1,0,0:0:0:0:
390,80,91997,2,0,L|304:117,1,93,10|0,0:0|0:0,0:0:0:0:
97,162,92297,6,0,P|37:227|119:262,1,186,8|10,0:0|0:0,0:0:0:0:
238,258,92747,1,0,0:0:0:0:
447,137,92897,2,0,L|341:189,1,93,8|0,0:0|0:0,0:0:0:0:
280,218,93197,2,0,L|363:177,1,93,10|0,0:0|0:0,0:0:0:0:
147,147,93497,6,0,L|230:106,1,93,8|0,0:0|0:0,0:0:0:0:
439,97,93797,1,10,0:0:0:0:
460,153,93872,1,10,0:0:0:0:
432,206,93947,1,10,0:0:0:0:
373,220,94022,1,10,0:0:0:0:
275,182,94097,1,10,0:0:0:0:
225,213,94172,1,0,0:0:0:0:
229,271,94247,1,0,0:0:0:0:
284,294,94322,1,0,0:0:0:0:
383,294,94397,1,10,0:0:0:0:
412,241,94472,1,0,0:0:0:0:
391,185,94547,1,0,0:0:0:0:
334,165,94622,1,0,0:0:0:0:
160,68,94697,6,0,L|259:137,1,93,8|0,0:0|0:0,0:0:0:0:
377,124,94997,1,10,0:0:0:0:
171,162,95147,2,0,L|170:260,1,93,8|8,0:0|0:0,0:0:0:0:
310,242,95447,1,0,0:0:0:0:
101,189,95597,2,0,L|200:258,1,93,10|10,0:0|0:0,0:0:0:0:
387,149,95897,6,0,L|387:251,1,93,8|0,0:0|0:0,0:0:0:0:
247,171,96197,2,0,L|146:235,1,93,10|10,0:0|0:0,0:0:0:0:
216,230,96422,1,10,0:0:0:0:
352,222,96497,5,10,0:0:0:0:
375,276,96572,1,0,0:0:0:0:
346,329,96647,1,0,0:0:0:0:
287,338,96722,1,0,0:0:0:0:
433,99,96797,1,10,0:0:0:0:
456,153,96872,1,10,0:0:0:0:
427,206,96947,1,10,0:0:0:0:
368,215,97022,1,10,0:0:0:0:
185,137,97097,6,0,P|126:177|199:242,1,186,12|10,0:0|0:0,0:0:0:0:
327,238,97547,1,0,0:0:0:0:
119,117,97697,2,0,L|221:149,1,93,8|0,0:0|0:0,0:0:0:0:
119,117,97997,2,0,L|-1:74,1,93,10|0,0:0|0:0,0:0:0:0:
245,86,98297,6,0,P|305:142|236:192,1,186,8|10,0:0|0:0,0:0:0:0:
32,126,98747,2,0,L|109:126,1,46.5,10|10,0:0|0:0,0:0:0:0:
220,122,98897,1,10,0:0:0:0:
127,200,99047,2,0,L|26:151,2,93,8|10|8,0:0|0:0|0:0,0:0:0:0:
358,136,99497,6,0,L|358:253,1,93,8|0,0:0|0:0,0:0:0:0:
272,255,99797,2,0,L|167:318,1,93,10|0,0:0|0:0,0:0:0:0:
342,79,100097,2,0,L|342:203,1,93,8|0,0:0|0:0,0:0:0:0:
191,123,100397,2,0,P|164:162|212:190,1,93,10|10,0:0|0:0,0:0:0:0:
398,190,100697,6,0,P|455:229|391:299,1,186,8|10,0:0|0:0,0:0:0:0:
253,193,101147,2,0,L|253:121,1,46.5,10|10,0:0|0:0,0:0:0:0:
400,67,101297,1,10,0:0:0:0:
443,84,101372,1,0,0:0:0:0:
486,102,101447,1,0,0:0:0:0:
400,67,101597,2,0,L|297:25,1,93,10|0,0:0|0:0,0:0:0:0:
106,46,101897,6,0,P|89:102|190:162,1,186,8|10,0:0|0:0,0:0:0:0:
320,101,102347,1,8,0:0:0:0:
113,172,102497,2,0,L|113:307,1,93,8|0,0:0|0:0,0:0:0:0:
251,228,102797,1,10,0:0:0:0:
113,172,102947,1,10,0:0:0:0:
336,171,103097,6,0,L|449:225,1,93,8|0,0:0|0:0,0:0:0:0:
273,231,103397,2,0,L|170:177,1,93,10|10,0:0|0:0,0:0:0:0:
237,168,103622,1,10,0:0:0:0:
382,100,103697,1,10,0:0:0:0:
398,158,103772,1,0,0:0:0:0:
368,211,103847,1,0,0:0:0:0:
310,227,103922,1,0,0:0:0:0:
210,229,103997,1,10,0:0:0:0:
157,253,104072,1,0,0:0:0:0:
157,312,104147,1,0,0:0:0:0:
210,337,104222,1,0,0:0:0:0:
376,133,104297,6,0,P|440:180|367:225,1,186,8|10,0:0|0:0,0:0:0:0:
236,208,104747,1,10,0:0:0:0:
447,62,104897,2,0,P|464:142|357:174,1,186,8|10,0:0|0:0,0:0:0:0:
244,217,105347,1,10,0:0:0:0:
458,234,105497,5,8,0:1:0:0:
495,208,105572,1,0,0:0:0:0:
509,165,105647,1,0,0:0:0:0:
493,122,105722,1,0,0:0:0:0:
437,158,105797,1,8,0:1:0:0:
399,132,105872,1,0,0:0:0:0:
385,89,105947,1,0,0:0:0:0:
401,46,106022,1,0,0:0:0:0:
457,163,106097,5,8,0:1:0:0:
477,219,106172,1,0,0:0:0:0:
449,273,106247,1,0,0:0:0:0:
391,289,106322,1,0,0:0:0:0:
290,135,106397,1,8,0:1:0:0:
230,143,106472,1,0,0:0:0:0:
200,194,106547,1,0,0:0:0:0:
221,250,106622,1,0,0:0:0:0:
408,244,106697,5,2,0:0:0:0:
184,145,107147,1,2,0:0:0:0:
408,244,107597,1,2,0:0:0:0:
177,109,108347,5,2,0:0:0:0:
326,114,108497,2,0,L|412:161,2,93,2|2|2,0:0|0:0|0:0,0:0:0:0:
234,229,108947,1,2,0:0:0:0:
384,286,109097,5,2,0:0:0:0:
161,182,109547,1,2,0:0:0:0:
384,98,109997,1,2,0:0:0:0:
102,0,110597,6,0,P|18:166|263:386,1,558,2|2,0:0|0:0,0:0:0:0:
31,182,111947,5,2,0:0:0:0:
253,109,112397,1,2,0:0:0:0:
35,108,113897,5,2,0:0:0:0:
257,193,114347,1,2,0:0:0:0:
35,108,114797,1,2,0:0:0:0:
