osu file format v14

[General]
AudioFilename: Seasons.mp3
AudioLeadIn: 0
PreviewTime: 35758
Countdown: 0
SampleSet: Soft
StackLeniency: 0.7
Mode: 0
LetterboxInBreaks: 0
WidescreenStoryboard: 1

[Editor]
Bookmarks: 12901,24330,30044,58615,70222,78437,81205,88095,91130,93987,96845,99702,101130
DistanceSpacing: 1.2
BeatDivisor: 4
GridSize: 4
TimelineZoom: 1.9

[Metadata]
Title:Seasons
TitleUnicode:Seasons
Artist:TOMOSUKE feat. Crystal Paloa
ArtistUnicode:TOMOSUKE feat. Crystal Paloa
Creator:Jycool
Version:Advanced
Source:DanceDanceRevolution
Tags:X3 VS 2ndMIX english electronic video game Dance Dance Revolution 2010 DDR fanzhen0019 Heatherfield [Hatsune Miku] Setu
BeatmapID:3545974
BeatmapSetID:1732626

[Difficulty]
HPDrainRate:3
CircleSize:3.5
OverallDifficulty:4
ApproachRate:6.5
SliderMultiplier:1
SliderTickRate:1

[Events]
//Background and Video events
0,0,"BG.png",0,0
//Break Periods
2,6322,9893
2,70312,73204
//Storyboard Layer 0 (Background)
//Storyboard Layer 1 (Fail)
//Storyboard Layer 2 (Pass)
//Storyboard Layer 3 (Foreground)
//Storyboard Layer 4 (Overlay)
//Storyboard Sound Samples

[TimingPoints]
251,357.142857142857,4,2,0,60,1,0
965,-100,4,2,0,45,0,0
1411,-100,4,2,0,30,0,0
1947,-100,4,2,0,60,0,0
2483,-100,4,2,0,40,0,0
2661,-100,4,2,0,60,0,0
3822,-100,4,2,0,45,0,0
4358,-100,4,2,0,60,0,0
4715,-100,4,2,0,40,0,0
4893,-100,4,2,0,60,0,0
10786,-100,4,2,0,40,0,0
11143,-100,4,2,0,90,0,0
11590,-100,4,1,2,60,0,0
23643,-100,4,2,2,80,0,0
23822,-100,4,1,2,60,0,0
24090,-100,4,2,2,80,0,0
24268,-100,4,1,2,60,0,0
24536,-100,4,2,2,80,0,0
24715,-100,4,1,2,60,0,0
25250,-100,4,2,2,80,0,0
25429,-100,4,1,2,60,0,0
26143,-100,4,2,2,80,0,0
26233,-100,4,1,2,60,0,0
27036,-100,4,2,2,80,0,0
27125,-100,4,1,2,60,0,0
27393,-100,4,2,2,80,0,0
27572,-100,4,1,2,60,0,0
28108,-100,4,2,2,80,0,0
28197,-100,4,1,2,60,0,0
28554,-100,4,2,2,80,0,0
28733,-100,4,1,2,60,0,0
34536,-100,4,1,0,60,0,0
56858,-100,4,1,2,70,0,0
57483,-100,4,2,2,60,0,0
69000,-100,4,2,0,60,0,0
69358,-100,4,2,0,35,0,0
73375,-100,4,2,0,60,0,0
74179,-100,4,1,2,70,0,0
74358,-100,4,2,2,5,0,0
74536,-100,4,1,2,70,0,0
82036,-100,4,1,0,70,0,0
82215,-100,4,1,2,70,0,0
84358,-100,4,1,0,70,0,0
85072,-100,4,1,2,70,0,0
87750,-100,4,1,0,70,0,0
87840,-100,4,1,2,70,0,0
90608,-100,4,1,0,70,0,0
90697,-100,4,1,2,70,0,0
92036,-100,4,1,0,70,0,0
92125,-100,4,1,2,70,0,0
93465,-100,4,1,0,70,0,0
93554,-100,4,1,2,70,0,0
94893,-100,4,1,0,70,0,0
94983,-100,4,1,2,70,0,0
96322,-100,4,1,0,70,0,0
96411,-100,4,1,2,70,0,0
97750,-100,4,1,0,70,0,0
97840,-100,4,1,2,70,0,0
99179,-100,4,1,0,70,0,0
99268,-100,4,1,2,70,0,0
101858,-100,4,2,0,5,0,0

[Colours]
Combo1 : 70,145,255
Combo2 : 171,39,39
Combo3 : 114,208,45
Combo4 : 255,176,57

[HitObjects]
48,88,251,5,0,1:0:0:0:
48,88,608,1,0,1:0:0:0:
164,59,965,2,2,L|156:131,1,50,0|2,0:1|0:1,0:1:0:0:
59,176,1500,2,0,L|72:284,1,100,2|2,0:1|0:1,0:1:0:0:
191,141,2393,2,0,P|216:182|206:236,1,100,2|0,0:0|0:0,0:0:0:0:
316,284,3108,5,0,1:0:0:0:
376,272,3286,2,0,L|364:336,2,50,0|2|0,1:0|0:0|1:0,0:0:0:0:
436,260,3822,2,2,L|448:200,1,50,0|2,0:1|0:1,0:1:0:0:
464,92,4358,2,0,L|512:128,2,50,0|0|2,0:0|0:0|0:0,0:0:0:0:
416,56,4893,2,0,P|387:38|351:35,1,50,2|0,0:0|0:0,0:0:0:0:
324,72,5250,2,0,P|302:81|272:81,1,50,0|2,0:0|0:0,0:0:0:0:
224,52,5608,1,2,0:1:0:0:
164,52,5786,1,2,0:1:0:0:
115,86,5965,5,4,0:0:0:0:
92,112,10965,6,0,L|102:178,1,50,0|4,1:0|0:0,0:0:0:0:
308,317,11679,6,0,P|359:318|411:346,1,100,4|8,0:0|0:0,0:0:0:0:
451,303,12215,1,4,0:0:0:0:
442,243,12393,2,0,L|381:220,1,50
284,178,12929,2,0,P|269:128|285:64,1,100,8|0,0:0|0:0,0:0:0:0:
328,52,13465,2,0,L|411:73,2,75,8|0|4,0:0|0:0|0:2,0:0:0:0:
276,81,14179,2,0,L|211:90,1,50,8|0,0:0|0:0,0:0:0:0:
166,96,14536,5,0,0:0:0:0:
72,169,14893,1,8,0:0:0:0:
72,169,15072,1,4,0:0:0:0:
176,228,15429,2,0,L|160:288,1,50
140,332,15786,2,0,P|192:320|252:348,1,100,8|8,0:0|0:0,0:0:0:0:
296,344,16322,2,0,L|360:332,1,50,0|0,2:0|0:0,0:0:0:0:
389,293,16679,1,0,0:0:0:0:
449,293,16858,2,0,L|470:353,2,50,0|8|0,2:0|0:0|0:0,0:0:0:0:
466,235,17393,5,4,0:0:0:0:
440,120,17750,1,8,0:0:0:0:
440,120,17929,1,0,0:0:0:0:
336,60,18286,2,0,P|288:52|232:72,1,100,8|8,0:0|0:0,0:0:0:0:
284,180,19000,2,0,P|292:208|288:248,1,50,0|8,0:0|0:0,0:0:0:0:
260,280,19358,2,0,L|296:340,2,50,0|0|0,2:0|0:0|0:0,0:0:0:0:
204,260,19893,1,8,0:0:0:0:
144,276,20072,1,0,0:0:0:0:
116,328,20250,5,4,0:0:0:0:
48,228,20608,1,8,0:0:0:0:
48,228,20786,1,4,0:0:0:0:
120,132,21143,2,0,P|120:68|96:24,2,100,0|8|2,0:0|0:0|0:2,0:0:0:0:
164,172,22036,2,0,P|204:156|240:164,1,75,8|8,0:0|0:0,0:0:0:0:
296,228,22572,1,0,0:0:0:0:
296,228,22750,2,0,L|316:348,1,100,8|4,0:0|0:0,0:0:0:0:
192,344,23465,5,4,0:0:0:0:
140,316,23643,2,0,L|76:328,2,50,2|0|0,2:0|0:0|0:0,0:0:0:0:
184,204,24358,2,0,L|252:212,1,50,0|2,0:0|2:0,0:0:0:0:
292,228,24715,1,2,2:0:0:0:
320,280,24893,2,0,P|312:312|332:364,2,75
376,256,25608,2,0,L|436:268,1,50,8|0,0:0|0:0,0:0:0:0:
460,216,25965,5,4,0:0:0:0:
444,96,26322,1,8,0:0:0:0:
388,72,26500,1,4,0:0:0:0:
308,160,26858,2,0,L|256:168,1,50,0|2,0:0|2:0,0:0:0:0:
204,192,27215,1,8,0:0:0:0:
180,248,27393,2,0,P|168:276|172:300,1,50,2|0,0:0|0:0,0:0:0:0:
180,352,27750,2,0,L|88:364,2,75,8|0|0,0:0|0:0|0:0,0:0:0:0:
236,332,28465,6,0,L|292:344,1,50,8|2,0:0|0:0,0:0:0:0:
340,320,28822,2,0,L|324:200,1,100,4|8,0:0|0:0,0:0:0:0:
320,160,29358,1,4,0:0:0:0:
424,96,29715,6,0,P|440:136|432:204,1,100,0|8,0:0|0:0,0:0:0:0:
320,160,30429,1,4,0:0:0:0:
260,148,30608,2,0,L|164:172,2,75,8|8|0,0:0|0:0|2:0,0:0:0:0:
260,88,31322,2,0,L|208:72,1,50,8|0,0:0|0:0,0:0:0:0:
156,52,31679,1,4,0:0:0:0:
100,160,32036,1,8,0:0:0:0:
41,175,32215,1,0,0:0:0:0:
92,284,32572,6,0,P|124:324|172:336,1,100,0|8,0:0|0:0,0:0:0:0:
228,328,33108,1,0,0:0:0:0:
272,284,33286,2,0,L|324:304,2,50,0|8|0,0:0|0:0|0:0,0:0:0:0:
248,228,33822,2,0,L|236:176,1,50
248,120,34179,1,8,0:0:0:0:
280,68,34358,1,0,0:0:0:0:
336,48,34536,6,0,P|368:108|344:200,1,150,4|2,0:2|0:2,0:0:0:0:
248,120,35429,1,0,0:0:0:0:
220,172,35608,2,0,L|232:244,1,50,8|0,0:0|0:0,0:0:0:0:
240,280,35965,6,0,P|188:280|136:316,1,100,2|8,0:2|0:0,0:0:0:0:
104,344,36500,1,0,0:0:0:0:
52,312,36679,2,0,L|36:256,1,50,0|4,0:0|0:0,0:0:0:0:
72,216,37036,2,0,L|80:164,1,50,8|0,0:0|0:0,0:0:0:0:
72,108,37393,6,0,P|116:132|176:116,1,100,2|8,0:2|0:0,0:0:0:0:
196,76,37929,1,2,0:2:0:0:
316,56,38286,1,0,0:0:0:0:
372,40,38465,2,0,L|364:92,1,50,8|0,0:0|0:0,0:0:0:0:
412,128,38822,2,0,L|484:116,2,50,2|0|8,0:2|0:0|0:0,0:0:0:0:
356,148,39358,5,2,0:2:0:0:
316,192,39536,1,0,0:0:0:0:
304,252,39715,1,2,0:2:0:0:
312,312,39893,2,0,L|248:332,1,50,8|0,0:0|0:0,0:0:0:0:
208,348,40250,2,0,P|176:272|192:192,1,150,4|2,0:2|0:2,0:0:0:0:
96,128,41143,1,0,0:0:0:0:
36,136,41322,2,0,L|48:196,1,50,8|0,0:0|0:0,0:0:0:0:
36,244,41679,6,0,P|88:240|140:272,1,100,2|8,0:2|0:0,0:0:0:0:
176,296,42215,1,2,0:2:0:0:
204,348,42393,2,0,L|256:340,1,50,2|0,0:2|0:0,0:0:0:0:
312,328,42750,1,8,0:0:0:0:
384,236,43108,6,0,L|276:228,1,100,4|8,0:2|0:0,0:0:0:0:
304,172,43643,2,0,L|200:136,1,100,2|0,0:2|0:0,0:0:0:0:
152,120,44179,1,8,0:0:0:0:
228,28,44536,6,0,L|268:80,1,50,2|0,0:2|0:0,0:0:0:0:
316,52,44893,2,0,L|336:116,1,50,8|2,0:0|0:2,0:0:0:0:
344,160,45250,1,0,0:0:0:0:
332,220,45429,1,0,0:0:0:0:
296,268,45608,1,8,0:0:0:0:
236,284,45786,1,0,0:0:0:0:
176,272,45965,6,0,P|104:264|48:320,1,150,4|2,0:0|0:2,0:0:0:0:
28,196,46858,1,0,0:0:0:0:
80,164,47036,1,8,0:0:0:0:
140,160,47215,1,2,0:2:0:0:
196,180,47393,6,0,P|248:136|332:156,1,150,2|2,0:2|0:2,0:0:0:0:
376,180,48108,2,0,L|368:252,1,50
368,288,48465,1,8,0:0:0:0:
324,328,48643,1,0,0:0:0:0:
264,320,48822,6,0,L|232:208,1,100,2|8,0:2|0:0,0:0:0:0:
180,208,49358,2,0,L|204:92,1,100,2|0,0:2|0:0,0:0:0:0:
216,52,49893,1,8,0:0:0:0:
272,32,50072,1,0,0:0:0:0:
332,40,50250,2,0,P|360:48|380:72,1,50,2|0,0:2|0:0,0:0:0:0:
412,112,50608,2,0,P|424:140|424:168,1,50,8|0,0:0|0:0,0:0:0:0:
404,216,50965,2,0,L|492:200,2,75
364,260,51679,6,0,L|248:248,1,100,4|8,0:2|0:0,0:0:0:0:
216,212,52215,2,0,L|112:248,1,100,2|0,0:2|0:0,0:0:0:0:
72,220,52750,2,0,L|56:280,1,50,8|0,0:0|2:0,0:0:0:0:
40,324,53108,5,2,0:2:0:0:
156,348,53465,1,8,0:0:0:0:
244,269,53822,1,0,0:0:0:0:
264,212,54000,1,0,0:0:0:0:
240,156,54179,2,0,L|248:92,1,50,8|0,0:0|0:0,0:0:0:0:
276,52,54536,6,0,P|232:72|164:52,1,100,2|8,0:2|0:0,0:0:0:0:
136,104,55072,2,0,P|92:100|32:136,1,100,2|0,0:2|0:0,0:0:0:0:
16,176,55608,1,8,0:0:0:0:
104,260,55965,6,0,L|120:332,1,50,2|8,0:2|0:0,0:0:0:0:
164,344,56322,1,0,0:0:0:0:
212,304,56500,1,0,0:0:0:0:
272,300,56679,1,0,0:0:0:0:
332,312,56858,6,2,L|356:160,1,150,2|4,0:0|1:2,0:0:0:0:
376,44,57750,1,8,0:0:0:0:
432,64,57929,2,0,L|448:132,2,50,0|2|0,0:0|0:0|1:0,0:0:0:0:
355,163,58643,2,0,P|323:175|287:171,1,50,8|0,0:0|1:0,0:0:0:0:
248,184,59000,2,0,P|216:168|200:144,1,50,0|8,1:0|0:0,0:0:0:0:
188,100,59358,1,2,0:0:0:0:
296,40,59715,1,0,1:0:0:0:
296,40,59893,1,8,0:0:0:0:
356,144,60250,5,4,1:2:0:0:
356,204,60429,1,0,1:0:0:0:
328,256,60608,1,8,0:0:0:0:
280,292,60786,2,0,L|302:356,2,50,2|2|0,0:0|0:0|1:0,0:0:0:0:
216,192,61500,2,0,P|184:177|156:180,1,50,2|0,0:0|1:0,0:0:0:0:
120,216,61858,2,0,P|84:220|58:235,1,50,0|8,1:0|0:0,0:0:0:0:
28,268,62215,1,2,0:0:0:0:
124,340,62572,1,4,1:2:0:0:
124,340,62750,2,0,L|236:356,1,100,8|4,0:0|1:2,0:0:0:0:
312,272,63465,5,8,0:0:0:0:
304,212,63643,2,0,L|368:216,2,50,2|2|0,0:0|0:0|1:0,0:0:0:0:
268,164,64179,1,2,0:0:0:0:
216,136,64358,2,0,P|180:160|116:148,1,100,2|0,0:0|1:0,0:0:0:0:
84,112,64893,1,8,0:0:0:0:
176,36,65250,1,2,0:0:0:0:
236,24,65429,1,0,1:0:0:0:
288,56,65608,1,8,0:0:0:0:
336,164,65965,6,0,L|320:264,1,100,0|8,1:0|0:2,0:0:0:0:
424,204,66679,1,2,0:0:0:0:
480,184,66858,2,0,L|460:288,1,100,0|0,1:0|1:0,0:0:0:0:
420,324,67393,2,0,L|368:336,1,50,0|0,1:0|0:0,0:0:0:0:
316,308,67750,1,8,0:0:0:0:
256,316,67929,1,2,0:0:0:0:
208,352,68108,6,0,P|168:284|188:208,1,150,0|0,1:0|1:0,0:0:0:0:
181,217,68822,1,4,2:0:0:0:
428,60,74179,5,2,0:0:0:0:
408,180,74536,6,0,L|444:232,2,50,0|2|2,0:0|0:0|0:0,0:0:0:0:
352,204,75072,2,0,L|282:205,2,50,0|2|2,1:0|0:0|0:0,0:0:0:0:
360,144,75608,2,0,L|393:82,2,50,0|2|2,1:0|0:0|0:0,0:0:0:0:
308,116,76143,5,0,0:0:0:0:
308,116,76322,2,0,L|244:120,1,50,2|2,0:0|0:0,0:0:0:0:
212,80,76679,1,2,0:0:0:0:
212,80,76858,2,0,L|152:60,1,50,0|2,0:0|0:0,0:0:0:0:
72,140,77393,6,2,L|132:132,1,50
200,224,77929,2,2,L|144:212,1,50
104,248,78286,1,0,0:0:0:0:
104,248,78465,2,2,L|112:304,1,50
208,368,79000,2,2,L|220:319,1,50
272,284,79358,1,0,0:0:0:0:
332,280,79536,2,2,L|400:304,3,50,2|2|8|0,0:0|0:0|0:0|0:0,0:0:0:0:
408,244,80250,5,6,0:0:0:0:
404,184,80429,1,0,0:0:0:0:
424,128,80608,1,10,0:0:0:0:
468,84,80786,2,0,P|408:76|368:32,1,100
379,51,81500,1,2,0:2:0:0:
272,108,81858,1,0,0:0:0:0:
232,152,82036,2,0,L|248:208,2,50,8|0|0,0:0|0:0|0:0,0:0:0:0:
192,104,82572,5,2,0:0:0:0:
140,76,82750,1,2,0:2:0:0:
80,88,82929,1,2,0:0:0:0:
36,128,83108,2,0,L|28:192,1,50,4|0,0:0|0:0,0:0:0:0:
80,208,83465,2,0,L|92:272,1,50,8|0,0:0|0:0,0:0:0:0:
89,257,84000,1,2,0:0:0:0:
192,320,84358,2,2,P|232:348|292:336,1,100
328,308,84893,1,0,0:0:0:0:
368,264,85072,2,0,L|424:272,1,50,0|10,0:0|0:0,0:0:0:0:
476,260,85429,5,2,0:0:0:0:
468,200,85608,1,0,0:0:0:0:
420,168,85786,1,2,0:0:0:0:
360,160,85965,2,0,L|308:120,1,50,6|0,0:0|0:0,0:0:0:0:
308,72,86322,2,0,L|248:84,1,50,8|2,0:0|0:2,0:0:0:0:
200,92,86679,5,2,2:0:0:0:
148,60,86858,2,0,P|124:52|92:60,1,50,2|2,0:0|0:2,0:0:0:0:
48,84,87215,1,2,0:0:0:0:
92,196,87572,1,2,0:0:0:0:
140,232,87750,1,8,0:0:0:0:
200,220,87929,1,2,0:0:0:0:
144,328,88286,5,0,0:0:0:0:
200,352,88465,1,2,0:0:0:0:
256,328,88643,1,2,0:2:0:0:
288,280,88822,2,0,L|304:208,1,50,6|0,0:0|0:0,0:0:0:0:
336,184,89179,2,2,L|320:120,1,50,8|0,0:0|0:0,0:0:0:0:
308,76,89536,5,2,2:0:0:0:
364,52,89715,1,2,0:0:0:0:
420,68,89893,1,2,0:2:0:0:
456,116,90072,2,2,L|432:172,1,50,2|0,0:0|0:0,0:0:0:0:
392,200,90429,2,0,L|320:208,2,50,0|8|0,0:0|0:0|0:0,0:0:0:0:
420,256,90965,1,0,0:0:0:0:
428,316,91143,6,0,L|488:332,2,50,2|0|2,0:0|0:0|0:0,0:0:0:0:
372,340,91679,1,4,0:0:0:0:
316,320,91858,1,0,0:0:0:0:
292,264,92036,1,10,0:0:0:0:
308,204,92215,1,0,0:0:0:0:
284,148,92393,6,0,L|229:159,1,50,0|8,0:0|0:0,0:0:0:0:
212,104,92750,2,0,L|160:140,1,50,0|8,0:0|0:0,0:0:0:0:
124,96,93108,2,0,L|104:152,1,50,0|8,0:0|0:0,0:0:0:0:
48,128,93465,2,0,L|44:200,1,50,8|8,0:0|0:0,0:0:0:0:
40,236,93822,5,0,0:0:0:0:
100,232,94000,1,2,0:0:0:0:
156,256,94179,1,8,0:0:0:0:
184,308,94358,1,0,0:0:0:0:
196,368,94536,2,0,L|260:364,1,50,4|0,0:0|0:0,0:0:0:0:
288,324,94893,1,8,0:0:0:0:
348,320,95072,2,0,P|328:260|344:208,1,100,4|8,0:0|0:0,0:0:0:0:
376,112,95786,2,0,P|396:172|380:224,1,100,8|0,0:0|0:0,0:0:0:0:
335,225,96322,2,0,L|272:236,1,50,8|0,0:0|0:0,0:0:0:0:
240,124,96858,5,2,0:0:0:0:
196,84,97036,1,0,0:0:0:0:
136,76,97215,1,2,0:0:0:0:
80,96,97393,2,0,L|84:152,1,50,4|0,0:0|0:0,0:0:0:0:
40,188,97750,2,0,L|68:248,1,50,8|2,0:0|0:2,0:0:0:0:
112,268,98108,6,0,L|100:300,2,25
164,300,98465,2,0,L|160:344,2,25,8|0|2,0:0|0:0|0:2,0:0:0:0:
224,292,98822,2,0,L|240:332,2,25
260,244,99179,1,8,0:0:0:0:
316,220,99358,1,0,0:0:0:0:
372,236,99536,1,0,0:0:0:0:
420,200,99715,6,0,L|432:133,1,50,2|8,0:0|0:0,0:0:0:0:
436,92,100072,1,2,0:0:0:0:
380,76,100250,2,2,P|344:60|316:64,1,50,4|0,0:0|0:0,0:0:0:0:
276,72,100608,1,8,0:0:0:0:
216,60,100786,2,0,L|184:176,1,100
156,280,101500,5,4,0:0:0:0:
