osu file format v14

[General]
AudioFilename: audio.mp3
AudioLeadIn: 0
PreviewTime: 20071
Countdown: 0
SampleSet: Soft
StackLeniency: 0.7
Mode: 0
LetterboxInBreaks: 1
WidescreenStoryboard: 1

[Editor]
Bookmarks: 42064
DistanceSpacing: 1
BeatDivisor: 4
GridSize: 16
TimelineZoom: 1.6

[Metadata]
Title:Macuilxochitl
TitleUnicode:Macuilxochitl
Artist:TOMOSUKE
ArtistUnicode:TOMOSUKE
Creator:Raijodo
Version:Basic
Source:jubeat ripples
Tags:fanzhen0019 macuilxochitl Sprosive spro rustbell hollow wings ZinedineZidane zizou piano jazz instrumental jubeat ripples APPEND soundtrack beatmania IIDX 24 SINOBUZ jubeat plus jukebeat pop'n music 19 TUNE STREET ポップンリズミン jubeatパック3 contemporary ピアノコンテンポラリー video game
BeatmapID:3318981
BeatmapSetID:1621894

[Difficulty]
HPDrainRate:5
CircleSize:3
OverallDifficulty:5
ApproachRate:6
SliderMultiplier:1.3
SliderTickRate:1

[Events]
//Background and Video events
0,0,"sb.jpeg",0,0
//Break Periods
//Storyboard Layer 0 (Background)
//Storyboard Layer 1 (Fail)
//Storyboard Layer 2 (Pass)
//Storyboard Layer 3 (Foreground)
//Storyboard Layer 4 (Overlay)
//Storyboard Sound Samples

[TimingPoints]
2031,405.405405405405,4,2,1,70,1,0
2841,-100,4,2,1,30,0,0
2943,-100,4,2,1,40,0,0
3044,-100,4,2,1,50,0,0
3145,-100,4,2,1,60,0,0
3247,-100,4,2,1,70,0,0
3348,-100,4,2,1,60,0,0
3449,-100,4,2,1,50,0,0
3551,-100,4,2,1,40,0,0
3652,-100,4,2,1,30,0,0
3753,-100,4,2,1,40,0,0
3855,-100,4,2,1,50,0,0
3956,-100,4,2,1,60,0,0
4058,-100,4,2,1,70,0,0
4159,-100,4,2,1,80,0,0
4260,-100,4,2,1,70,0,0
4362,-100,4,2,1,60,0,0
4463,-100,4,2,1,50,0,0
4564,-100,4,2,1,40,0,0
4767,-100,4,2,1,70,0,0
5172,-100,4,2,2,70,0,0
5578,-100,4,2,1,70,0,0
6085,-100,4,2,1,30,0,0
6186,-100,4,2,1,40,0,0
6287,-100,4,2,1,50,0,0
6389,-100,4,2,1,60,0,0
6490,-100,4,2,1,70,0,0
6591,-100,4,2,1,60,0,0
6693,-100,4,2,1,50,0,0
6794,-100,4,2,1,40,0,0
6895,-100,4,2,1,30,0,0
6997,-100,4,2,1,40,0,0
7098,-100,4,2,1,50,0,0
7199,-100,4,2,1,60,0,0
7301,-100,4,2,1,70,0,0
7402,-100,4,2,1,80,0,0
7503,-100,4,2,1,70,0,0
7605,-100,4,2,1,60,0,0
7706,-100,4,2,1,50,0,0
7808,-100,4,2,1,40,0,0
8010,-100,4,2,1,70,0,0
8416,-100,4,2,2,70,0,0
8720,-100,4,2,1,50,0,0
8821,-100,4,2,1,70,0,0
10139,-100,4,2,1,50,0,0
10443,-100,4,2,1,50,0,0
11760,-100,4,2,1,50,0,0
12368,-100,4,2,1,50,0,0
12976,-100,4,2,1,70,0,0
13331,-100,4,2,1,5,0,0
13382,-100,4,2,1,70,0,0
13737,-100,4,2,1,5,0,0
13787,-100,4,2,1,70,0,0
14142,-100,4,2,1,5,0,0
14193,-100,4,2,1,70,0,0
17639,-100,4,2,4,70,0,0
18855,-100,4,2,1,40,0,0
19260,-100,4,2,3,5,0,0
19362,-100,4,2,3,70,0,0
19463,-100,4,2,1,70,0,0
20071,-100,4,2,3,70,0,0
20172,-100,4,2,1,40,0,0
20679,-100,4,2,3,60,0,0
20780,-100,4,2,3,70,0,0
21794,-100,4,2,3,60,0,0
36895,-100,4,2,4,80,0,0
36946,-100,4,2,3,5,0,0
36997,-100,4,2,3,80,0,0
37047,-100,4,2,3,5,0,0
37199,-100,4,2,3,80,0,0
38618,-100,4,2,4,80,0,0
38720,-100,4,2,3,80,0,0
39835,-100,4,2,3,40,0,0
40139,-100,4,2,3,70,0,0
41152,-100,4,2,3,70,0,0
43382,-100,4,2,3,70,0,0
44395,-100,4,2,3,70,0,0
45814,-100,4,2,3,70,0,0
46220,-100,4,2,3,70,0,0
46625,-100,4,2,4,70,0,0
46726,-100,4,2,3,70,0,0
52301,-100,4,2,5,70,0,0
52909,-100,4,2,3,70,0,0
53162,-100,4,2,3,5,0,0
53213,-100,4,2,3,70,0,0
53264,-100,4,2,3,5,0,0
53416,-100,4,2,3,70,0,0
53821,-100,4,2,4,60,0,0
54328,-100,4,2,3,60,0,0
61220,-100,4,2,3,60,0,0
63652,-100,4,2,3,80,0,0
63855,-100,4,2,4,80,0,0
63956,-100,4,2,3,80,0,0
65274,-100,4,2,4,80,0,0
65476,-100,4,2,3,80,0,0
67098,-100,4,2,4,80,0,0
67199,-100,4,2,3,80,0,0
68517,-100,4,2,4,80,0,0
68720,-100,4,2,3,80,0,0
70139,-100,4,2,3,80,0,0
70443,-100,4,2,4,80,0,0
70747,-100,4,2,3,80,0,0
71051,-100,4,2,3,80,0,0
71760,-100,4,2,4,80,0,0
72064,-100,4,2,3,80,0,0
72368,-100,4,2,4,80,0,0
72672,-100,4,2,4,80,0,0
72976,-100,4,2,3,35,0,0
73128,-100,4,2,3,5,0,0
73179,-100,4,2,3,50,0,0
73230,-100,4,2,3,5,0,0
73280,-100,4,2,3,50,0,0
73331,-100,4,2,3,5,0,0
73382,-100,4,2,3,50,0,0
73433,-100,4,2,3,5,0,0
73483,-100,4,2,3,50,0,0
73534,-100,4,2,3,5,0,0
73585,-100,4,2,3,50,0,0
73787,405.405405405405,4,2,1,70,1,0
73787,-100,4,2,4,70,0,0
73990,-100,4,2,3,70,0,0
74193,-100,4,2,3,70,0,0
74395,-100,4,2,3,70,0,0
75814,-100,4,2,3,70,0,0
76017,-100,4,2,3,70,0,0
77436,-100,4,2,3,70,0,0
77537,-100,4,2,3,70,0,0
79058,-100,4,2,3,70,0,0
79159,-100,4,2,3,70,0,0
80679,-100,4,2,3,70,0,0
80882,-100,4,2,3,70,0,0
82301,-100,4,2,3,70,0,0
82402,-100,4,2,3,70,0,0
83922,-100,4,2,3,70,0,0
84024,-100,4,2,3,70,0,0
85544,-100,4,2,3,70,0,0
85645,-100,4,2,3,70,0,0
86152,-100,4,2,3,70,0,0
86760,-100,4,2,4,70,0,0
86862,-100,4,2,3,70,0,0
90510,-100,4,2,3,70,0,0
99733,-100,4,2,3,70,0,0
100240,-100,4,2,3,30,0,0
100341,-100,4,2,3,35,0,0
100443,-100,4,2,3,40,0,0
100544,-100,4,2,3,45,0,0
100645,-100,4,2,3,50,0,0
100747,-100,4,2,3,55,0,0
100848,-100,4,2,3,60,0,0
100949,-100,4,2,3,65,0,0
101051,-100,4,2,3,70,0,0
101152,-100,4,2,3,75,0,0
101253,-100,4,2,3,80,0,0
101355,-100,4,2,4,80,0,0
101659,-100,4,2,3,5,0,0

[Colours]
Combo1 : 255,255,149
Combo2 : 188,255,121
Combo3 : 98,176,255
Combo4 : 253,151,151

[HitObjects]
22,189,2031,6,0,L|170:193,1,130,6|8,3:2|0:0,0:0:0:0:
183,249,2639,2,0,P|222:244|244:159,1,130,2|2,3:0|3:0,0:0:0:0:
216,117,3247,1,10,0:0:0:0:
216,117,3449,1,2,0:0:0:0:
330,52,3855,6,0,P|387:54|472:47,1,130,2|2,3:0|3:0,0:0:0:0:
498,101,4463,2,0,L|499:173,1,65,2|0,3:0|0:0,0:0:0:0:
437,193,4868,2,0,L|438:265,1,65,8|2,0:0|3:0,0:0:0:0:
389,302,5274,1,2,0:3:0:0:
338,218,5578,6,0,B|301:190|301:190|240:215,1,97.5,2|2,0:0|3:0,0:0:0:0:
238,338,6287,2,0,P|165:335|104:337,1,130,2|2,3:0|0:0,0:0:0:0:
56,324,6895,2,0,L|60:251,1,65,2|2,3:0|3:0,0:0:0:0:
26,202,7301,2,0,L|30:129,1,65,10|2,0:0|3:0,0:0:0:0:
6,76,7706,2,0,P|61:64|102:108,1,97.5,2|2,3:0|0:0,0:0:0:0:
161,154,8314,1,2,0:0:0:0:
216,158,8517,6,0,P|273:155|425:165,1,195,2|0,0:3|3:0,0:0:0:0:
467,153,9328,2,0,L|471:236,2,65,2|0|8,3:0|0:0|0:0,0:0:0:0:
465,94,9936,1,0,3:0:0:0:
417,48,10139,6,0,P|327:51|215:49,1,195,2|2,3:0|0:0,0:0:0:0:
158,36,10949,2,0,B|127:64|127:64|153:136,1,97.5,2|2,3:0|0:0,0:0:0:0:
308,112,11760,6,0,P|313:178|298:268,1,130,2|10,3:0|0:0,0:0:0:0:
294,370,12571,1,0,3:0:0:0:
189,293,12976,2,2,B|121:281|47:287,2,130,10|2|10,0:0|3:0|0:0,0:0:0:0:
88,164,14294,2,0,L|4:161,2,65,2|2|2,0:0|0:0|0:0,0:0:0:0:
97,61,15003,6,0,B|170:35|147:94|228:66,1,130,2|0,0:0|0:0,0:0:0:0:
257,97,15612,2,0,L|262:178,1,65,2|0,3:0|0:0,0:0:0:0:
305,186,16017,2,0,B|329:227|329:227|305:291,1,97.5,2|2,0:0|0:0,0:0:0:0:
274,327,16524,2,0,L|339:327,1,65,2|2,0:0|0:0,0:0:0:0:
385,373,16929,2,0,L|450:373,1,65,2|2,0:0|0:0,0:0:0:0:
501,354,17335,1,2,0:0:0:0:
504,256,17638,1,2,0:0:0:0:
256,192,17740,12,2,19463,0:0:0:0:
1,183,20679,6,0,B|86:167|38:232|128:218,1,130,4|0,3:2|3:0,0:0:0:0:
213,306,21490,1,0,3:0:0:0:
303,269,21794,2,0,L|383:286,1,65,2|2,0:0|0:0,0:0:0:0:
434,352,22301,2,0,P|465:298|433:221,1,130,2|2,3:0|3:0,0:0:0:0:
326,188,23112,6,0,B|306:184|307:158|307:158|397:111,1,130,2|2,3:0|3:0,0:0:0:0:
439,91,23720,1,0,0:0:0:0:
447,26,23922,2,0,L|324:26,1,97.5,2|2,3:0|0:0,0:0:0:0:
262,70,24530,2,0,P|225:72|167:68,1,65,2|2,0:0|3:0,0:0:0:0:
140,35,24936,1,2,0:0:0:0:
83,67,25139,1,2,3:0:0:0:
150,177,25544,6,0,L|264:175,1,97.5,2|2,3:0|0:0,0:0:0:0:
307,200,26051,2,0,B|321:229|321:229|303:284,1,65,2|2,0:0|0:0,0:0:0:0:
344,316,26456,2,0,B|320:343|320:343|278:342,1,65,2|2,0:0|0:0,0:0:0:0:
229,363,26862,1,2,0:0:0:0:
166,344,27064,1,2,0:0:0:0:
93,235,27470,5,2,0:0:0:0:
71,172,27672,1,2,0:0:0:0:
115,124,27875,2,0,L|207:122,1,65,2|2,0:0|0:0,0:0:0:0:
225,170,28280,1,2,0:0:0:0:
282,138,28483,1,2,0:0:0:0:
359,78,28787,6,0,P|382:131|365:181,1,97.5,2|2,3:0|0:0,0:0:0:0:
410,221,29294,1,2,0:0:0:0:
358,260,29497,2,0,L|356:335,1,65,2|2,0:0|0:0,0:0:0:0:
297,353,29902,1,2,0:0:0:0:
231,351,30105,1,2,0:0:0:0:
133,358,30409,6,0,P|135:301|135:211,1,130,2|0,3:0|3:0,0:0:0:0:
177,178,31017,1,2,0:0:0:0:
142,122,31220,2,0,P|84:117|1:123,1,130,2|0,3:0|3:0,0:0:0:0:
86,30,32030,2,0,P|158:31|233:25,1,130,2|2,3:0|3:0,0:0:0:0:
271,47,32639,1,2,0:0:0:0:
321,75,32841,6,0,B|363:98|363:98|362:200,1,130,2|2,3:0|3:0,0:0:0:0:
415,203,33449,2,0,B|439:243|439:243|388:331,1,130,2|2,0:0|0:0,0:0:0:0:
338,320,34058,6,0,B|271:309|172:322|172:322,1,162.5,2|2,3:0|0:0,0:0:0:0:
80,338,34868,1,0,3:0:0:0:
41,294,35071,1,2,0:0:0:0:
57,238,35274,2,0,P|94:205|180:230,1,130,2|2,3:2|3:2,0:0:0:0:
218,248,35882,1,2,0:0:0:0:
270,222,36085,1,2,3:2:0:0:
349,308,36490,5,2,3:0:0:0:
450,237,36895,2,0,L|456:133,1,97.5,4|0,3:2|3:0,0:0:0:0:
487,83,37402,1,0,3:0:0:0:
440,36,37605,2,0,P|387:33|344:80,1,97.5,4|4,3:2|3:2,0:0:0:0:
319,114,38112,1,2,0:0:0:0:
160,69,38618,5,4,3:2:0:0:
116,117,38821,2,0,L|119:184,1,65,0|0,3:0|3:0,0:0:0:0:
162,230,39226,2,0,L|152:344,1,97.5,4|4,3:2|3:2,0:0:0:0:
309,354,40139,6,0,L|444:365,2,130,6|10|2,3:2|0:0|3:0,0:0:0:0:
244,360,41152,2,0,P|235:338|256:288,1,65,2|8,0:0|0:0,0:0:0:0:
296,258,41558,2,0,P|305:236|284:186,1,65,2|0,0:0|3:0,0:0:0:0:
263,70,42166,6,0,L|144:66,1,97.5,10|0,0:0|0:0,0:0:0:0:
121,114,42672,2,0,P|118:156|132:174,1,65,2|0,0:0|0:0,0:0:0:0:
122,237,43078,2,0,P|160:250|193:232,1,65,2|0,0:0|0:0,0:0:0:0:
307,139,43787,6,0,L|437:138,1,130,10|2,0:0|3:0,0:0:0:0:
478,188,44395,2,0,P|484:219|468:246,1,65,2|8,0:0|0:0,0:0:0:0:
462,312,44801,2,0,P|432:325|401:317,1,65,2|0,0:0|3:0,0:0:0:0:
339,299,45206,5,0,0:0:0:0:
275,314,45409,2,0,P|276:274|270:212,1,97.5,10|0,0:0|0:0,0:0:0:0:
299,158,45916,2,0,P|279:122|243:72,1,97.5,2|10,0:0|0:0,0:0:0:0:
119,101,46625,5,4,3:2:0:0:
80,153,46828,1,0,0:0:0:0:
43,206,47030,2,0,L|36:342,1,130,10|2,0:0|3:0,0:0:0:0:
94,366,47639,1,0,0:0:0:0:
155,343,47841,2,0,L|162:207,1,130,8|2,0:0|3:0,0:0:0:0:
223,195,48449,1,2,0:0:0:0:
282,220,48652,2,0,L|276:350,1,130,8|0,0:0|3:0,0:0:0:0:
398,306,49463,5,8,0:0:0:0:
460,192,49868,2,0,B|377:159|399:218|305:182,1,130,2|10,3:0|0:0,0:0:0:0:
292,140,50476,1,2,0:0:0:0:
249,90,50679,1,2,3:0:0:0:
211,142,50882,1,2,0:0:0:0:
176,189,51085,2,0,B|93:156|115:215|21:179,1,130,10|2,0:0|3:0,0:0:0:0:
69,316,51895,1,8,0:0:0:0:
192,357,52301,5,6,3:2:0:0:
263,305,52605,2,0,L|252:132,1,162.5,6|6,0:0|3:0,0:0:0:0:
326,89,53416,2,0,L|336:171,1,65,6|6,0:0|0:0,0:0:0:0:
390,139,53821,6,0,P|403:51|347:1,1,162.5,6|8,3:2|0:0,0:0:0:0:
237,38,54733,2,0,P|160:42|94:39,1,130,2|8,3:0|0:0,0:0:0:0:
18,129,55544,2,0,P|10:207|66:257,1,130,2|8,3:0|0:0,0:0:0:0:
171,249,56355,2,0,P|248:245|314:248,1,130,2|8,3:0|0:0,0:0:0:0:
368,136,57166,5,6,3:2:0:0:
478,204,57571,1,8,0:0:0:0:
410,314,57976,1,2,3:0:0:0:
300,246,58382,1,8,0:0:0:0:
180,319,58787,6,0,L|174:183,1,130,0|10,3:0|0:0,0:0:0:0:
68,129,59598,2,0,P|124:72|197:77,1,130,2|8,3:0|0:0,0:0:0:0:
256,161,60409,5,2,3:0:0:0:
366,229,60814,1,8,0:0:0:0:
434,119,61220,1,2,3:0:0:0:
324,51,61625,1,8,0:0:0:0:
199,96,62030,6,0,P|169:137|184:219,1,130,0|10,3:0|0:0,0:0:0:0:
169,341,62841,2,0,P|252:341|318:344,1,130,2|10,3:0|0:0,0:0:0:0:
433,350,63652,5,6,3:2:0:0:
433,350,63855,1,6,3:2:0:0:
193,36,65274,5,6,3:2:0:0:
193,36,65476,1,6,3:2:0:0:
100,255,66895,5,4,3:2:0:0:
100,255,67098,1,4,3:2:0:0:
412,129,68517,5,6,3:2:0:0:
412,129,68720,1,4,3:2:0:0:
258,38,70139,6,0,P|243:80|253:136,1,97.5,6|6,3:2|3:2,0:0:0:0:
322,197,70747,2,0,P|330:244|314:290,1,97.5,6|6,3:2|3:2,0:0:0:0:
243,356,71355,1,2,0:0:0:0:
113,344,71760,6,0,P|98:302|108:246,1,97.5,6|6,3:2|3:2,0:0:0:0:
177,185,72368,2,0,P|185:137|169:91,1,97.5,6|6,3:2|3:2,0:0:0:0:
238,45,73787,6,0,B|315:21|285:80|370:57,1,130,6|8,3:1|0:0,0:0:0:0:
446,153,74597,1,2,3:0:0:0:
458,216,74800,1,2,0:0:0:0:
406,253,75002,2,0,P|404:293|411:327,1,65,10|2,0:0|0:0,0:0:0:0:
385,378,75407,1,2,3:2:0:0:
287,292,75814,5,8,0:0:0:0:
233,328,76016,1,2,0:0:0:0:
170,321,76219,2,0,B|116:277|64:331|104:331|51:386|-16:358,1,195,2|2,3:0|0:0,0:0:0:0:
8,299,77029,6,0,P|14:242|5:161,1,130,2|10,3:0|0:0,0:0:0:0:
51,121,77638,1,2,0:0:0:0:
115,129,77840,2,0,P|171:144|217:83,2,130,2|10|2,3:0|0:0|3:0,0:0:0:0:
365,216,79462,1,2,3:0:0:0:
365,216,79665,1,0,0:0:0:0:
301,201,79867,2,0,L|222:214,1,65,10|2,0:0|0:0,0:0:0:0:
180,178,80273,6,0,B|130:131|72:182|111:189|55:246|-7:204,1,195,2|2,3:0|0:0,0:0:0:0:
5,147,81084,2,0,P|2:90|-2:60,1,65,2|2,3:0|0:0,0:0:0:0:
58,50,81489,2,0,L|122:47,1,65,10|2,0:0|0:0,0:0:0:0:
184,66,81894,1,2,3:0:0:0:
312,43,82300,5,8,0:0:0:0:
381,42,82502,1,2,0:0:0:0:
445,46,82705,2,0,B|487:96|487:96|453:182,1,130,2|10,3:0|0:0,0:0:0:0:
378,255,83516,2,0,B|336:205|336:205|359:144,1,130,2|10,3:0|0:0,0:0:0:0:
299,116,84124,1,2,0:0:0:0:
238,139,84327,2,0,L|95:132,2,130,2|10|2,3:0|0:0|3:0,0:0:0:0:
455,276,85948,5,2,3:0:0:0:
391,276,86151,1,0,3:0:0:0:
329,276,86354,1,8,3:2:0:0:
265,276,86557,1,0,3:0:0:0:
200,272,86759,6,0,L|62:230,1,130,6|0,3:2|3:0,0:0:0:0:
79,169,87367,1,0,0:0:0:0:
84,104,87570,2,0,P|112:77|160:84,1,65,0|2,3:0|0:0,0:0:0:0:
180,122,87975,6,0,L|322:113,1,130,2|2,3:0|3:0,0:0:0:0:
427,58,88786,2,0,P|458:90|429:174,1,130,0|2,3:0|3:0,0:0:0:0:
385,189,89394,1,0,0:0:0:0:
327,200,89597,2,0,P|291:232|284:269,1,65,2|2,3:0|0:0,0:0:0:0:
306,301,90002,6,0,L|160:307,1,130,0|0,3:0|3:0,0:0:0:0:
124,334,90611,1,0,0:0:0:0:
99,280,90813,2,0,L|101:135,1,130,0|2,3:0|3:0,0:0:0:0:
214,87,91624,6,0,L|212:232,1,130,2|0,3:0|3:0,0:0:0:0:
269,248,92232,1,2,0:0:0:0:
293,187,92435,2,0,P|322:173|363:188,1,65,2|0,3:0|0:0,0:0:0:0:
359,115,92840,2,0,P|391:117|419:150,1,65,2|0,3:0|0:0,0:0:0:0:
449,193,93246,6,0,L|447:349,1,130,2|0,3:0|3:0,0:0:0:0:
389,352,93854,1,0,0:0:0:0:
342,306,94057,2,0,P|282:298|199:309,1,130,0|2,3:0|3:0,0:0:0:0:
94,361,94867,6,0,P|64:307|113:245,1,130,2|0,3:0|3:0,0:0:0:0:
61,196,95475,1,2,0:0:0:0:
24,141,95678,2,0,L|180:149,1,130,2|2,3:0|3:0,0:0:0:0:
279,114,96489,6,0,L|295:195,1,65,2|2,3:0|0:0,0:0:0:0:
253,222,96894,2,0,L|238:302,1,65,0|0,3:0|0:0,0:0:0:0:
203,330,97300,2,0,P|264:330|340:331,1,130,0|2,3:0|3:0,0:0:0:0:
462,346,98111,6,0,P|492:292|443:230,1,130,2|0,3:0|3:0,0:0:0:0:
421,185,98719,1,2,0:0:0:0:
442,127,98922,2,0,L|286:135,1,130,0|2,3:0|3:0,0:0:0:0:
242,244,99732,5,6,3:1:0:0:
242,244,99935,1,6,3:1:0:0:
256,192,100239,12,6,101354,3:2:0:0:
