osu file format v14

[General]
AudioFilename: audio.mp3
AudioLeadIn: 0
PreviewTime: 20071
Countdown: 0
SampleSet: Soft
StackLeniency: 0.7
Mode: 0
LetterboxInBreaks: 1
WidescreenStoryboard: 1

[Editor]
Bookmarks: 42064
DistanceSpacing: 0.7
BeatDivisor: 4
GridSize: 8
TimelineZoom: 1.9

[Metadata]
Title:Macuilxochitl
TitleUnicode:Macuilxochitl
Artist:TOMOSUKE
ArtistUnicode:TOMOSUKE
Creator:Raijodo
Version:Advanced
Source:jubeat ripples
Tags:fanzhen0019 macuilxochitl Sprosive spro rustbell hollow wings ZinedineZidane zizou piano jazz instrumental jubeat ripples APPEND soundtrack beatmania IIDX 24 SINOBUZ jubeat plus jukebeat pop'n music 19 TUNE STREET ポップンリズミン jubeatパック3 contemporary ピアノコンテンポラリー video game
BeatmapID:3318980
BeatmapSetID:1621894

[Difficulty]
HPDrainRate:6
CircleSize:5
OverallDifficulty:8
ApproachRate:8
SliderMultiplier:1.9
SliderTickRate:2

[Events]
//Background and Video events
0,0,"sb.jpeg",0,0
//Break Periods
//Storyboard Layer 0 (Background)
//Storyboard Layer 1 (Fail)
//Storyboard Layer 2 (Pass)
//Storyboard Layer 3 (Foreground)
//Storyboard Layer 4 (Overlay)
//Storyboard Sound Samples

[TimingPoints]
2031,405.405405405405,4,2,1,70,1,0
2841,-100,4,2,1,30,0,0
2943,-100,4,2,1,40,0,0
3044,-100,4,2,1,50,0,0
3145,-100,4,2,1,60,0,0
3247,-100,4,2,1,70,0,0
3348,-100,4,2,1,60,0,0
3449,-100,4,2,1,50,0,0
3551,-100,4,2,1,40,0,0
3652,-100,4,2,1,30,0,0
3753,-100,4,2,1,40,0,0
3855,-100,4,2,1,50,0,0
3956,-100,4,2,1,60,0,0
4058,-100,4,2,1,70,0,0
4159,-100,4,2,1,80,0,0
4260,-100,4,2,1,70,0,0
4362,-100,4,2,1,60,0,0
4463,-100,4,2,1,50,0,0
4564,-100,4,2,1,40,0,0
4767,-100,4,2,1,70,0,0
5172,-100,4,2,2,70,0,0
5578,-100,4,2,1,70,0,0
6085,-100,4,2,1,30,0,0
6186,-100,4,2,1,40,0,0
6287,-100,4,2,1,50,0,0
6389,-100,4,2,1,60,0,0
6490,-100,4,2,1,70,0,0
6591,-100,4,2,1,60,0,0
6693,-100,4,2,1,50,0,0
6794,-100,4,2,1,40,0,0
6895,-100,4,2,1,30,0,0
6997,-100,4,2,1,40,0,0
7098,-100,4,2,1,50,0,0
7199,-100,4,2,1,60,0,0
7301,-100,4,2,1,70,0,0
7402,-100,4,2,1,80,0,0
7503,-100,4,2,1,70,0,0
7605,-100,4,2,1,60,0,0
7706,-100,4,2,1,50,0,0
7808,-100,4,2,1,40,0,0
8010,-100,4,2,1,70,0,0
8416,-100,4,2,2,70,0,0
8720,-100,4,2,1,50,0,0
8821,-100,4,2,1,70,0,0
10139,-100,4,2,1,50,0,0
10443,-100,4,2,1,50,0,0
11760,-100,4,2,1,50,0,0
12368,-100,4,2,1,50,0,0
12976,-100,4,2,1,70,0,0
13331,-100,4,2,1,5,0,0
13382,-100,4,2,1,70,0,0
13737,-100,4,2,1,5,0,0
13787,-100,4,2,1,70,0,0
14142,-100,4,2,1,5,0,0
14193,-100,4,2,1,70,0,0
17639,-200,4,2,4,70,0,0
18855,-100,4,2,1,40,0,0
19260,-100,4,2,1,5,0,0
19362,-100,4,2,1,70,0,0
19463,-100,4,2,1,70,0,0
20071,-100,4,2,1,70,0,0
20172,-100,4,2,1,40,0,0
20679,-100,4,2,3,60,0,0
20780,-100,4,2,3,70,0,0
21794,-100,4,2,3,60,0,0
36895,-100,4,2,4,80,0,0
36946,-100,4,2,3,5,0,0
36997,-100,4,2,3,80,0,0
37047,-100,4,2,3,5,0,0
37199,-100,4,2,3,80,0,0
38618,-100,4,2,4,80,0,0
38720,-100,4,2,3,80,0,0
39835,-100,4,2,3,60,0,0
40139,-100,4,2,3,70,0,0
41152,-100,4,2,3,70,0,0
43382,-100,4,2,3,70,0,0
44395,-100,4,2,3,70,0,0
45814,-100,4,2,3,70,0,0
46220,-100,4,2,3,70,0,0
46625,-100,4,2,4,70,0,0
46726,-100,4,2,3,70,0,0
52301,-100,4,2,5,70,0,0
52909,-100,4,2,3,70,0,0
53162,-100,4,2,3,5,0,0
53213,-100,4,2,3,70,0,0
53264,-100,4,2,3,5,0,0
53416,-100,4,2,3,70,0,0
53821,-100,4,2,4,60,0,0
54328,-100,4,2,3,60,0,0
61220,-100,4,2,3,60,0,0
63652,-100,4,2,3,80,0,1
63855,-100,4,2,4,80,0,1
63956,-100,4,2,3,80,0,1
65274,-100,4,2,4,80,0,1
65476,-100,4,2,3,80,0,1
67098,-100,4,2,4,80,0,1
67199,-100,4,2,3,80,0,1
68517,-100,4,2,4,80,0,1
68720,-100,4,2,3,80,0,1
70139,-100,4,2,3,80,0,1
70443,-100,4,2,4,80,0,1
70747,-100,4,2,3,80,0,1
71051,-100,4,2,3,80,0,1
71760,-100,4,2,4,80,0,1
72064,-100,4,2,3,80,0,1
72368,-100,4,2,4,80,0,1
72672,-100,4,2,4,80,0,1
72976,-100,4,2,3,35,0,0
73128,-100,4,2,3,5,0,0
73179,-100,4,2,3,50,0,0
73230,-100,4,2,3,5,0,0
73280,-100,4,2,3,50,0,0
73331,-100,4,2,3,5,0,0
73382,-100,4,2,3,50,0,0
73433,-100,4,2,3,5,0,0
73483,-100,4,2,3,50,0,0
73534,-100,4,2,3,5,0,0
73585,-100,4,2,3,50,0,0
73787,405.405405405405,4,2,1,70,1,0
73787,-100,4,2,4,70,0,0
73990,-100,4,2,3,70,0,0
74193,-100,4,2,3,70,0,0
74395,-100,4,2,3,70,0,0
75814,-100,4,2,3,70,0,0
76017,-100,4,2,3,70,0,0
77436,-100,4,2,3,70,0,0
77537,-100,4,2,3,70,0,0
79058,-100,4,2,3,70,0,0
79159,-100,4,2,3,70,0,0
80679,-100,4,2,3,70,0,0
80882,-100,4,2,3,70,0,0
82301,-100,4,2,3,70,0,0
82402,-100,4,2,3,70,0,0
83922,-100,4,2,3,70,0,0
84024,-100,4,2,3,70,0,0
85544,-100,4,2,3,70,0,0
85645,-100,4,2,3,70,0,0
86152,-100,4,2,3,70,0,0
86760,-100,4,2,4,70,0,0
86862,-100,4,2,3,70,0,0
90510,-100,4,2,3,70,0,0
99733,-100,4,2,3,70,0,0
100240,-100,4,2,3,30,0,0
100341,-100,4,2,3,35,0,0
100443,-100,4,2,3,40,0,0
100544,-100,4,2,3,45,0,0
100645,-100,4,2,3,50,0,0
100747,-100,4,2,3,55,0,0
100848,-100,4,2,3,60,0,0
100949,-100,4,2,3,65,0,0
101051,-100,4,2,3,70,0,0
101152,-100,4,2,3,75,0,0
101253,-100,4,2,3,80,0,0
101355,-100,4,2,4,80,0,0
101659,-100,4,2,3,5,0,0

[Colours]
Combo1 : 255,255,149
Combo2 : 188,255,121
Combo3 : 98,176,255
Combo4 : 253,151,151

[HitObjects]
107,350,2031,5,6,3:2:0:0:
107,350,2132,1,2,0:0:0:0:
100,264,2335,1,2,0:0:0:0:
93,178,2537,1,0,0:0:0:0:
93,178,2639,1,2,3:0:0:0:
178,224,2841,5,2,3:0:0:0:
178,224,2943,1,2,0:0:0:0:
178,224,3044,2,0,L|243:221,4,47.5,2|2|10|2|2,3:0|0:0|0:0|0:0|0:0,0:0:0:0:
283,315,3652,1,2,3:0:0:0:
283,315,3753,1,2,0:0:0:0:
283,315,3855,2,0,L|218:318,4,47.5,2|2|10|2|2,3:0|0:0|0:0|0:0|3:0,0:0:0:0:
363,349,4463,1,2,3:0:0:0:
370,266,4666,1,0,0:0:0:0:
370,266,4767,1,2,0:0:0:0:
294,236,4970,1,2,0:0:0:0:
294,236,5071,1,2,3:0:0:0:
256,143,5274,5,2,0:3:0:0:
175,169,5476,1,0,0:0:0:0:
175,169,5578,2,0,L|115:187,1,47.5,2|8,0:0|0:0,0:0:0:0:
337,169,5882,2,0,L|397:187,1,47.5,2|0,3:0|0:0,0:0:0:0:
462,226,6085,5,2,3:0:0:0:
462,226,6186,1,2,0:0:0:0:
462,226,6287,2,0,L|461:163,5,47.5,2|2|10|2|2|2,3:0|0:0|0:0|0:0|0:0|0:0,0:0:0:0:
406,103,6997,1,2,0:0:0:0:
406,103,7098,1,2,3:0:0:0:
406,103,7199,2,0,L|405:40,5,47.5,2|10|2|2|2|2,0:0|0:0|0:0|3:0|0:0|3:0,0:0:0:0:
465,182,7909,1,0,0:0:0:0:
465,182,8010,1,2,0:0:0:0:
353,152,8213,1,2,0:0:0:0:
353,152,8314,1,2,3:0:0:0:
275,14,8517,6,0,L|265:88,1,47.5,2|0,0:3|0:0,0:0:0:0:
208,150,8821,1,0,0:0:0:0:
208,150,8922,1,8,0:0:0:0:
208,150,9024,2,0,L|219:213,1,47.5,2|0,0:0|3:0,0:0:0:0:
290,213,9226,1,2,0:0:0:0:
290,213,9328,1,2,3:0:0:0:
290,213,9429,2,0,L|279:276,1,47.5,2|0,0:0|0:0,0:0:0:0:
224,302,9632,2,0,P|255:330|285:332,2,47.5,2|8|2,0:0|0:0|0:0,0:0:0:0:
152,304,9936,1,0,3:0:0:0:
147,292,10037,1,2,0:0:0:0:
143,281,10139,6,0,L|153:220,1,47.5,2|0,3:0|0:0,0:0:0:0:
351,321,10443,1,0,0:0:0:0:
351,321,10544,1,10,0:0:0:0:
390,234,10747,1,2,0:0:0:0:
255,64,10949,5,2,3:0:0:0:
256,107,11051,1,2,0:0:0:0:
256,149,11152,1,2,0:0:0:0:
256,191,11253,1,0,0:0:0:0:
166,68,11456,6,0,L|193:16,2,47.5,0|2|2,0:0|3:0|0:0,0:0:0:0:
131,129,11760,1,2,3:0:0:0:
131,129,11862,1,2,0:0:0:0:
381,129,12064,1,2,3:0:0:0:
381,129,12166,1,10,0:0:0:0:
256,191,12368,1,0,0:0:0:0:
256,200,12470,1,2,0:0:0:0:
256,209,12571,2,0,L|251:276,2,47.5,0|2|2,3:0|0:0|0:0,0:0:0:0:
332,278,12976,6,2,P|296:331|204:334,1,142.5,10|0,0:0|0:0,0:0:0:0:
237,362,13382,6,2,P|173:357|124:279,1,142.5,2|0,3:0|0:0,0:0:0:0:
116,321,13787,6,2,P|88:263|131:182,1,142.5,10|0,0:0|0:0,0:0:0:0:
256,74,14294,5,2,0:0:0:0:
330,88,14497,1,2,0:0:0:0:
404,103,14699,2,0,P|440:111|476:115,1,47.5,2|0,0:0|0:0,0:0:0:0:
256,186,15003,5,2,0:0:0:0:
87,142,15206,1,2,0:0:0:0:
195,111,15409,1,0,0:0:0:0:
183,180,15612,1,0,3:0:0:0:
183,180,15713,2,0,L|169:237,2,47.5,2|0|2,0:0|0:0|0:0,0:0:0:0:
100,231,16017,1,0,0:0:0:0:
100,231,16118,1,2,0:0:0:0:
100,231,16220,2,0,L|116:287,2,47.5,0|2|2,0:0|0:0|0:0,0:0:0:0:
43,306,16524,2,0,L|85:346,3,47.5,2|0|2|2,0:0|0:0|0:0|0:0,0:0:0:0:
150,339,16929,6,0,L|212:338,1,47.5,2|0,0:0|0:0,0:0:0:0:
230,270,17132,2,0,L|148:272,1,47.5,2|2,0:0|0:0,0:0:0:0:
113,276,17335,1,0,0:0:0:0:
295,365,17537,5,2,0:0:0:0:
295,365,17639,2,0,P|399:363|517:368,1,213.75,6|0,0:0|0:0,0:0:0:0:
508,367,18652,1,2,0:0:0:0:
256,26,19463,5,2,0:0:0:0:
256,26,19564,1,2,0:0:0:0:
19,185,20172,5,2,0:0:0:0:
94,194,20375,1,2,0:0:0:0:
174,203,20578,1,2,0:0:0:0:
174,203,20679,1,4,3:2:0:0:
219,295,20882,1,0,0:0:0:0:
219,285,20983,1,0,0:0:0:0:
219,275,21085,1,0,3:0:0:0:
293,295,21287,1,0,0:0:0:0:
293,285,21389,1,2,0:0:0:0:
293,275,21490,1,0,3:0:0:0:
338,203,21693,1,0,0:0:0:0:
338,203,21794,1,2,0:0:0:0:
416,194,21997,1,2,0:0:0:0:
493,189,22199,1,2,0:0:0:0:
493,189,22301,2,0,P|489:250|487:316,1,95,2|0,3:0|0:0,0:0:0:0:
313,339,22706,6,0,L|231:334,1,47.5,2|0,3:0|0:0,0:0:0:0:
205,376,22909,2,0,P|195:358|197:318,2,47.5,0|2|2,0:0|0:0|3:0,0:0:0:0:
125,302,23213,2,0,P|135:284|171:266,2,47.5,2|0|2,0:0|0:0|0:0,0:0:0:0:
172,203,23517,1,2,3:0:0:0:
205,204,23618,1,2,0:0:0:0:
238,205,23720,1,0,0:0:0:0:
271,206,23821,1,2,0:0:0:0:
304,207,23922,2,0,P|313:153|242:117,1,142.5,2|2,3:0|0:0,0:0:0:0:
161,67,24429,5,0,0:0:0:0:
161,67,24530,1,2,0:0:0:0:
161,67,24632,1,0,0:0:0:0:
161,67,24733,2,0,L|149:134,1,47.5,2|0,3:0|0:0,0:0:0:0:
74,238,25037,1,2,0:0:0:0:
74,238,25139,2,0,L|86:171,1,47.5,2|2,3:0|0:0,0:0:0:0:
252,69,25443,1,2,0:0:0:0:
252,69,25544,2,0,L|240:136,1,47.5,2|0,3:0|0:0,0:0:0:0:
232,188,25747,5,2,0:0:0:0:
232,188,25848,1,2,0:0:0:0:
82,191,26051,1,2,0:0:0:0:
308,323,26253,5,2,0:0:0:0:
458,320,26456,1,2,0:0:0:0:
201,284,26659,5,2,0:0:0:0:
202,377,26862,1,2,0:0:0:0:
339,227,27064,5,2,0:0:0:0:
338,134,27267,1,2,0:0:0:0:
135,323,27470,5,2,0:0:0:0:
308,323,27672,1,2,0:0:0:0:
308,248,27875,5,2,0:0:0:0:
135,248,28078,1,2,0:0:0:0:
135,173,28280,5,2,0:0:0:0:
308,173,28483,1,2,0:0:0:0:
387,179,28686,1,0,0:0:0:0:
387,179,28787,1,2,3:0:0:0:
387,179,28889,1,2,0:0:0:0:
309,50,29091,5,2,0:0:0:0:
308,173,29294,1,2,0:0:0:0:
232,173,29497,5,2,0:0:0:0:
233,50,29699,1,2,0:0:0:0:
157,50,29902,5,2,0:0:0:0:
156,173,30105,1,2,0:0:0:0:
424,352,30409,5,2,3:0:0:0:
444,325,30510,1,2,0:0:0:0:
452,292,30612,1,2,0:0:0:0:
445,259,30713,1,2,0:0:0:0:
426,231,30814,1,0,3:0:0:0:
344,352,31017,5,2,0:0:0:0:
324,325,31118,1,0,0:0:0:0:
316,292,31220,1,2,3:0:0:0:
323,259,31321,1,2,0:0:0:0:
342,231,31422,1,2,0:0:0:0:
361,203,31524,1,2,0:0:0:0:
368,170,31625,1,0,3:0:0:0:
399,69,31828,5,2,0:0:0:0:
399,69,31929,1,2,0:0:0:0:
399,69,32030,2,0,L|300:83,1,95,2|2,3:0|0:0,0:0:0:0:
182,25,32436,1,2,3:0:0:0:
270,27,32639,5,2,0:0:0:0:
270,27,32740,1,2,0:0:0:0:
270,27,32841,1,2,3:0:0:0:
176,144,33044,1,2,0:0:0:0:
176,144,33145,1,0,0:0:0:0:
308,86,33348,1,2,0:0:0:0:
308,86,33449,1,2,0:0:0:0:
138,85,33652,1,2,3:0:0:0:
104,84,33753,1,0,0:0:0:0:
70,84,33855,1,2,0:0:0:0:
36,83,33956,1,2,0:0:0:0:
2,81,34058,6,0,L|6:215,1,95,2|0,3:0|0:0,0:0:0:0:
73,257,34463,1,0,3:0:0:0:
73,257,34564,2,0,L|68:182,1,47.5,2|0,0:0|0:0,0:0:0:0:
134,170,34767,1,2,0:0:0:0:
154,180,34868,1,0,3:0:0:0:
174,190,34970,1,2,0:0:0:0:
178,266,35172,2,0,L|115:307,1,47.5,2|0,0:0|3:0,0:0:0:0:
254,359,35476,5,2,0:0:0:0:
254,359,35578,1,2,0:0:0:0:
347,344,35780,1,2,0:0:0:0:
441,330,35983,1,2,0:0:0:0:
441,330,36085,1,0,3:0:0:0:
496,195,36287,6,0,L|426:198,2,47.5,0|2|2,0:0|0:0|3:0,0:0:0:0:
384,200,36693,1,2,0:0:0:0:
316,302,36895,5,4,3:2:0:0:
316,302,36997,1,0,0:0:0:0:
135,235,37199,1,0,3:0:0:0:
199,56,37402,1,0,3:0:0:0:
381,124,37605,1,4,3:2:0:0:
391,113,37909,1,4,3:2:0:0:
496,195,38112,6,0,L|426:198,2,47.5,2|2|0,0:0|0:0|0:0,0:0:0:0:
313,299,38618,5,4,3:2:0:0:
135,235,38821,1,0,3:0:0:0:
199,56,39024,1,0,3:0:0:0:
381,124,39226,1,4,3:2:0:0:
391,113,39530,1,4,3:2:0:0:
68,200,39835,6,0,L|21:198,2,47.5,2|2|2,0:0|0:0|0:0,0:0:0:0:
135,235,40139,2,0,P|182:231|243:235,1,95,6|2,3:2|0:0,0:0:0:0:
256,253,40443,1,2,0:0:0:0:
256,253,40544,1,10,0:0:0:0:
331,196,40747,1,2,0:0:0:0:
176,116,40949,5,2,3:0:0:0:
176,116,41051,1,0,0:0:0:0:
176,116,41152,2,0,P|120:124|71:133,1,95,2|8,0:0|0:0,0:0:0:0:
54,60,41558,2,0,P|110:52|159:43,1,95,2|0,0:0|3:0,0:0:0:0:
282,16,41963,1,2,0:0:0:0:
282,16,42064,1,2,0:0:0:0:
282,16,42166,1,10,0:0:0:0:
282,16,42267,1,2,0:0:0:0:
282,16,42368,2,0,L|279:99,1,47.5,2|0,0:0|0:0,0:0:0:0:
336,116,42571,5,2,3:0:0:0:
336,116,42672,2,0,P|392:124|441:133,1,95,2|0,0:0|0:0,0:0:0:0:
458,60,43078,2,0,P|402:52|353:43,1,95,2|0,0:0|0:0,0:0:0:0:
355,40,43382,1,2,3:0:0:0:
272,162,43585,1,2,0:0:0:0:
272,162,43687,1,2,0:0:0:0:
272,162,43788,1,10,0:0:0:0:
272,162,43889,1,2,0:0:0:0:
272,162,43991,2,0,L|261:251,1,47.5,2|0,0:0|0:0,0:0:0:0:
336,268,44193,5,2,3:0:0:0:
336,268,44294,1,0,0:0:0:0:
336,268,44395,2,0,P|392:260|440:251,1,95,2|8,0:0|0:0,0:0:0:0:
458,324,44801,2,0,P|402:332|354:342,1,95,2|0,0:0|3:0,0:0:0:0:
255,354,45206,1,2,0:0:0:0:
255,354,45308,1,2,0:0:0:0:
255,354,45409,1,10,0:0:0:0:
255,354,45510,1,2,0:0:0:0:
255,354,45612,2,0,L|244:265,1,47.5,2|0,0:0|0:0,0:0:0:0:
193,264,45814,5,2,3:0:0:0:
193,264,45916,2,0,P|147:272|100:278,1,95,0|0,0:0|0:0,0:0:0:0:
99,279,46220,2,0,P|96:222|157:216,1,95,10|0,0:0|0:0,0:0:0:0:
36,101,46625,5,4,3:2:0:0:
58,109,46726,1,2,0:0:0:0:
81,105,46828,1,2,0:0:0:0:
111,89,46929,1,0,0:0:0:0:
146,87,47030,2,0,P|180:86|267:97,1,95,10|2,0:0|0:0,0:0:0:0:
297,54,47335,6,0,P|310:84|301:116,1,47.5,2|2,0:0|3:0,0:0:0:0:
371,137,47537,2,0,P|351:163|319:171,1,47.5,2|0,0:0|0:0,0:0:0:0:
266,155,47740,2,0,P|267:189|256:276,1,95,2|2,0:0|0:0,0:0:0:0:
185,219,48145,1,2,0:0:0:0:
185,219,48247,1,2,3:0:0:0:
348,238,48449,1,2,0:0:0:0:
348,238,48551,1,2,0:0:0:0:
254,342,48753,1,2,0:0:0:0:
261,249,48956,5,2,0:0:0:0:
260,239,49058,1,0,3:0:0:0:
259,229,49159,1,2,0:0:0:0:
258,219,49260,1,0,0:0:0:0:
257,209,49362,1,2,0:0:0:0:
256,199,49463,2,0,L|275:147,1,47.5,8|2,0:0|0:0,0:0:0:0:
233,101,49666,1,2,0:0:0:0:
263,88,49767,1,2,0:0:0:0:
295,91,49868,1,2,3:0:0:0:
322,109,49970,1,2,0:0:0:0:
336,139,50071,1,0,0:0:0:0:
356,164,50172,1,2,0:0:0:0:
386,177,50274,2,0,P|415:184|448:168,1,47.5,10|2,0:0|0:0,0:0:0:0:
495,138,50476,1,2,0:0:0:0:
496,157,50578,1,0,0:0:0:0:
497,176,50679,1,2,3:0:0:0:
498,195,50780,1,2,0:0:0:0:
499,214,50882,1,2,0:0:0:0:
500,233,50983,1,0,0:0:0:0:
505,262,51085,6,0,L|437:276,1,47.5,10|2,0:0|0:0,0:0:0:0:
502,341,51287,1,2,0:0:0:0:
502,341,51389,1,2,0:0:0:0:
502,341,51490,2,0,L|434:355,1,47.5,2|0,3:0|0:0,0:0:0:0:
270,375,51794,1,2,0:0:0:0:
270,375,51895,2,0,L|256:307,1,47.5,8|0,0:0|0:0,0:0:0:0:
298,239,52098,5,2,0:0:0:0:
298,239,52199,1,2,0:0:0:0:
298,239,52301,2,0,L|280:99,1,95,6|0,3:2|0:0,0:0:0:0:
215,151,52605,2,0,L|227:245,1,95,6|0,0:0|0:0,0:0:0:0:
135,38,53112,1,6,3:0:0:0:
135,38,53213,1,6,0:3:0:0:
309,38,53416,1,4,0:3:0:0:
412,188,53618,5,6,0:0:0:0:
412,188,53720,1,2,0:0:0:0:
412,188,53821,2,0,B|363:246|241:227|241:227|274:227|303:194,1,237.5,6|8,0:0|0:0,0:0:0:0:
63,199,54530,5,2,0:0:0:0:
63,199,54632,1,2,0:0:0:0:
63,199,54733,2,0,B|112:141|234:160|234:160|201:160|172:193,1,237.5,2|0,3:0|0:0,0:0:0:0:
262,321,55443,5,2,0:0:0:0:
262,321,55544,2,0,B|286:274|235:225|235:225|318:281|290:344,1,237.5,2|0,3:0|0:0,0:0:0:0:
250,63,56253,5,2,0:0:0:0:
250,63,56355,2,0,B|226:110|277:159|277:159|194:103|222:40,1,237.5,2|0,3:0|0:0,0:0:0:0:
398,154,57166,5,6,3:2:0:0:
398,172,57267,1,0,0:0:0:0:
398,190,57368,1,2,0:0:0:0:
398,208,57470,1,2,0:0:0:0:
398,226,57571,1,8,0:0:0:0:
328,207,57774,1,2,0:0:0:0:
328,188,57875,1,2,0:0:0:0:
328,169,57976,1,2,3:0:0:0:
259,180,58179,1,0,0:0:0:0:
259,199,58280,1,2,0:0:0:0:
191,199,58483,1,0,0:0:0:0:
191,180,58585,1,2,0:0:0:0:
122,150,58787,1,2,3:0:0:0:
122,169,58889,1,2,0:0:0:0:
123,188,58990,1,2,0:0:0:0:
123,207,59091,1,2,0:0:0:0:
123,226,59193,1,10,0:0:0:0:
168,300,59395,5,0,0:0:0:0:
207,358,59598,2,0,P|256:356|337:362,1,95,2|0,3:0|0:0,0:0:0:0:
331,369,59902,1,2,0:0:0:0:
331,369,60003,1,8,0:0:0:0:
395,326,60206,1,2,0:0:0:0:
398,230,60409,5,6,3:2:0:0:
398,212,60510,1,0,0:0:0:0:
398,194,60612,1,2,0:0:0:0:
398,176,60713,1,2,0:0:0:0:
398,158,60814,1,8,0:0:0:0:
328,177,61017,1,2,0:0:0:0:
328,196,61118,1,2,0:0:0:0:
328,215,61220,1,2,3:0:0:0:
259,204,61422,1,0,0:0:0:0:
259,185,61524,1,2,0:0:0:0:
191,185,61726,1,0,0:0:0:0:
191,204,61828,1,2,0:0:0:0:
122,234,62030,1,2,3:0:0:0:
122,215,62132,1,2,0:0:0:0:
123,196,62233,1,2,0:0:0:0:
123,177,62335,1,2,0:0:0:0:
123,158,62436,1,10,0:0:0:0:
162,80,62639,5,0,0:0:0:0:
207,26,62841,2,0,P|256:28|337:22,1,95,2|0,3:0|0:0,0:0:0:0:
331,15,63145,1,2,0:0:0:0:
331,15,63247,2,0,P|368:47|345:98,1,95,10|2,0:0|0:0,0:0:0:0:
256,315,63652,5,6,3:2:0:0:
256,315,63855,1,6,3:2:0:0:
80,192,64058,5,10,0:0:0:0:
120,179,64159,1,0,0:0:0:0:
150,204,64260,1,2,0:0:0:0:
184,193,64362,1,0,0:0:0:0:
214,216,64463,1,2,0:0:0:0:
256,192,64564,1,8,0:0:0:0:
298,216,64666,1,2,0:0:0:0:
328,193,64767,1,10,0:0:0:0:
362,204,64868,1,2,0:0:0:0:
392,179,64970,1,2,0:0:0:0:
432,192,65071,1,10,0:0:0:0:
256,69,65274,5,6,3:2:0:0:
256,69,65476,1,6,3:2:0:0:
432,192,65679,5,10,0:0:0:0:
392,179,65780,1,0,0:0:0:0:
362,204,65882,1,2,0:0:0:0:
328,193,65983,1,0,0:0:0:0:
298,216,66085,1,2,0:0:0:0:
256,192,66186,1,8,0:0:0:0:
214,216,66287,1,2,0:0:0:0:
184,193,66389,1,10,0:0:0:0:
150,204,66490,1,2,0:0:0:0:
120,179,66591,1,2,0:0:0:0:
80,192,66693,1,10,0:0:0:0:
256,69,66895,5,4,3:2:0:0:
256,69,67098,1,4,3:2:0:0:
80,192,67301,5,10,0:0:0:0:
96,239,67402,1,0,0:0:0:0:
137,259,67503,1,2,0:0:0:0:
185,258,67605,1,0,0:0:0:0:
226,236,67706,1,2,0:0:0:0:
253,199,67808,1,8,0:0:0:0:
277,158,67909,1,2,0:0:0:0:
317,138,68010,1,10,0:0:0:0:
363,134,68112,1,2,0:0:0:0:
404,154,68213,1,2,0:0:0:0:
432,192,68314,1,10,0:0:0:0:
256,69,68517,5,6,3:2:0:0:
256,69,68720,1,4,3:2:0:0:
432,192,68922,5,10,0:0:0:0:
416,239,69024,1,0,0:0:0:0:
375,259,69125,1,2,0:0:0:0:
327,258,69226,1,0,0:0:0:0:
286,236,69328,1,2,0:0:0:0:
259,199,69429,1,8,0:0:0:0:
235,158,69530,1,2,0:0:0:0:
195,138,69632,1,10,0:0:0:0:
149,134,69733,1,2,0:0:0:0:
108,154,69835,1,2,0:0:0:0:
80,192,69936,1,10,0:0:0:0:
345,164,70139,5,6,3:2:0:0:
345,164,70240,1,2,0:0:0:0:
172,215,70443,5,6,3:2:0:0:
172,215,70544,1,2,0:0:0:0:
435,195,70747,5,6,3:2:0:0:
435,195,70848,1,2,0:0:0:0:
82,184,71051,5,6,3:2:0:0:
82,184,71152,1,2,0:0:0:0:
256,192,71355,5,2,0:0:0:0:
256,192,71456,1,2,0:0:0:0:
256,192,71558,1,2,0:0:0:0:
82,184,71760,5,6,3:2:0:0:
82,184,71862,1,2,0:0:0:0:
435,195,72064,5,6,3:2:0:0:
435,195,72166,1,2,0:0:0:0:
172,215,72368,5,6,3:2:0:0:
172,215,72470,1,2,0:0:0:0:
345,164,72672,5,6,3:2:0:0:
345,164,72774,1,2,0:0:0:0:
256,361,73585,5,2,0:0:0:0:
257,351,73686,1,2,0:0:0:0:
258,341,73787,2,0,L|249:210,1,95,6|0,3:1|0:0,0:0:0:0:
314,140,74193,1,8,0:0:0:0:
351,254,74395,1,2,0:0:0:0:
342,248,74497,1,2,0:0:0:0:
334,242,74598,1,2,3:0:0:0:
411,206,74801,1,2,0:0:0:0:
484,255,75003,1,10,0:0:0:0:
411,186,75206,1,2,0:0:0:0:
251,246,75409,6,0,P|208:239|132:235,1,95,2|0,3:0|0:0,0:0:0:0:
141,251,75713,1,0,0:0:0:0:
141,251,75814,1,8,0:0:0:0:
72,206,76017,1,2,0:0:0:0:
70,196,76118,1,2,0:0:0:0:
68,186,76220,1,2,3:0:0:0:
4,130,76422,1,0,0:0:0:0:
103,56,76625,5,10,0:0:0:0:
140,56,76726,1,2,0:0:0:0:
177,57,76828,1,2,0:0:0:0:
214,59,76929,1,2,0:0:0:0:
253,42,77030,2,0,P|276:87|235:142,1,95,2|0,3:0|0:0,0:0:0:0:
282,284,77436,1,10,0:0:0:0:
278,302,77537,1,2,0:0:0:0:
275,320,77639,1,2,0:0:0:0:
272,338,77740,1,2,0:0:0:0:
268,352,77841,6,0,L|254:199,1,142.5,2|0,3:0|0:0,0:0:0:0:
189,219,78247,2,0,L|202:361,1,142.5,10|0,0:0|0:0,0:0:0:0:
135,369,78652,2,0,L|123:228,1,142.5,2|0,3:0|0:0,0:0:0:0:
26,187,79058,5,8,0:0:0:0:
26,187,79463,5,2,3:0:0:0:
203,135,79666,1,2,0:0:0:0:
343,285,79868,5,10,0:0:0:0:
223,240,80071,1,2,0:0:0:0:
334,305,80274,2,0,P|388:294|450:291,1,95,2|0,3:0|0:0,0:0:0:0:
456,302,80578,1,2,0:0:0:0:
456,302,80678,1,8,0:0:0:0:
499,186,80882,5,2,0:0:0:0:
499,186,80983,1,2,0:0:0:0:
499,186,81085,1,2,3:0:0:0:
377,164,81287,1,2,0:0:0:0:
256,192,81490,1,10,0:0:0:0:
136,161,81693,1,2,0:0:0:0:
13,186,81895,1,2,3:0:0:0:
170,19,82199,5,2,0:0:0:0:
170,19,82301,1,8,0:0:0:0:
211,83,82503,1,2,0:0:0:0:
224,81,82605,1,2,0:0:0:0:
239,79,82706,1,2,3:0:0:0:
305,39,82909,1,0,0:0:0:0:
373,96,83112,1,10,0:0:0:0:
389,124,83213,1,2,0:0:0:0:
395,156,83314,1,2,0:0:0:0:
393,189,83416,1,2,0:0:0:0:
380,219,83517,1,2,3:0:0:0:
299,155,83720,1,0,0:0:0:0:
434,286,83922,5,10,0:0:0:0:
396,307,84024,1,2,0:0:0:0:
352,304,84125,1,2,0:0:0:0:
312,289,84226,1,2,0:0:0:0:
294,249,84328,1,2,3:0:0:0:
211,176,84530,1,0,0:0:0:0:
81,241,84733,6,0,L|79:384,1,142.5,10|0,0:0|0:0,0:0:0:0:
64,377,85139,2,0,L|67:235,1,142.5,2|0,3:0|0:0,0:0:0:0:
0,188,85544,5,10,0:0:0:0:
0,188,85949,5,2,3:0:0:0:
213,149,86152,5,0,3:0:0:0:
512,196,86355,5,8,3:2:0:0:
314,257,86558,5,0,3:0:0:0:
262,356,86760,5,6,3:2:0:0:
261,349,86862,1,2,0:0:0:0:
260,343,86963,1,2,0:0:0:0:
259,336,87064,1,2,0:0:0:0:
190,292,87267,1,2,0:0:0:0:
318,260,87470,1,2,0:0:0:0:
318,260,87571,1,0,3:0:0:0:
250,181,87774,1,2,0:0:0:0:
252,196,87875,1,0,0:0:0:0:
254,211,87976,1,2,3:0:0:0:
289,106,88179,5,0,0:0:0:0:
225,66,88382,1,2,3:0:0:0:
188,54,88483,1,2,0:0:0:0:
148,72,88585,1,0,0:0:0:0:
110,58,88686,1,2,0:0:0:0:
290,35,88889,1,0,0:0:0:0:
290,35,88990,1,2,0:0:0:0:
39,30,89193,1,2,3:0:0:0:
46,117,89395,1,0,0:0:0:0:
55,149,89497,1,2,0:0:0:0:
81,168,89598,1,2,3:0:0:0:
113,175,89699,1,2,0:0:0:0:
145,165,89801,1,2,0:0:0:0:
299,109,90003,5,2,3:0:0:0:
341,101,90105,1,2,0:0:0:0:
381,115,90206,1,2,0:0:0:0:
397,154,90307,1,2,0:0:0:0:
420,274,90509,1,2,0:0:0:0:
315,338,90712,1,2,0:0:0:0:
315,338,90814,1,0,3:0:0:0:
211,271,91016,1,2,0:0:0:0:
210,256,91118,1,0,0:0:0:0:
209,241,91219,1,2,3:0:0:0:
147,359,91421,5,2,0:0:0:0:
89,318,91624,1,2,3:0:0:0:
106,284,91725,1,2,0:0:0:0:
87,250,91827,1,0,0:0:0:0:
106,217,91928,1,2,0:0:0:0:
29,356,92131,1,0,0:0:0:0:
29,356,92232,1,2,0:0:0:0:
166,187,92435,1,2,3:0:0:0:
127,134,92638,1,0,0:0:0:0:
107,148,92739,1,2,0:0:0:0:
95,171,92840,1,2,3:0:0:0:
96,195,92942,1,2,0:0:0:0:
106,217,93043,1,0,0:0:0:0:
196,100,93246,5,2,3:0:0:0:
172,71,93348,1,2,0:0:0:0:
135,59,93449,1,2,0:0:0:0:
98,69,93551,1,2,0:0:0:0:
225,169,93753,1,2,0:0:0:0:
283,91,93956,1,2,0:0:0:0:
283,91,94058,1,0,3:0:0:0:
327,179,94260,1,2,0:0:0:0:
336,195,94362,1,0,0:0:0:0:
346,211,94463,1,2,3:0:0:0:
364,356,94666,5,2,0:0:0:0:
355,340,94767,1,0,0:0:0:0:
345,323,94868,2,0,L|321:274,1,47.5,2|2,3:0|0:0,0:0:0:0:
281,347,95071,2,0,L|257:298,1,47.5,0|2,0:0|0:0,0:0:0:0:
390,148,95375,1,0,0:0:0:0:
390,148,95476,2,0,L|414:197,1,47.5,2|0,0:0|0:0,0:0:0:0:
453,124,95679,2,0,L|477:173,1,47.5,2|0,3:0|0:0,0:0:0:0:
501,227,95881,1,0,0:0:0:0:
499,241,95983,1,2,0:0:0:0:
496,255,96084,1,2,3:0:0:0:
494,269,96185,1,2,0:0:0:0:
492,283,96286,1,2,0:0:0:0:
304,332,96489,5,2,3:0:0:0:
277,351,96590,1,2,0:0:0:0:
243,351,96692,1,2,0:0:0:0:
215,332,96794,1,2,0:0:0:0:
340,265,96997,1,2,0:0:0:0:
177,268,97199,1,2,0:0:0:0:
177,268,97301,1,0,3:0:0:0:
256,177,97503,1,2,0:0:0:0:
256,196,97604,1,0,0:0:0:0:
256,216,97706,1,2,3:0:0:0:
196,131,97909,1,2,0:0:0:0:
62,244,98112,5,2,3:0:0:0:
98,265,98213,1,2,0:0:0:0:
138,251,98314,1,0,0:0:0:0:
177,268,98416,1,2,0:0:0:0:
19,187,98618,1,0,0:0:0:0:
19,187,98720,1,2,0:0:0:0:
222,338,98922,1,0,3:0:0:0:
277,274,99125,5,0,0:0:0:0:
268,232,99226,1,2,0:0:0:0:
257,190,99328,1,2,3:0:0:0:
244,148,99429,1,2,0:0:0:0:
232,107,99530,1,2,0:0:0:0:
19,187,99733,5,6,3:1:0:0:
493,197,99935,5,6,3:1:0:0:
276,359,100240,5,2,0:0:0:0:
257,356,100341,1,2,0:0:0:0:
238,352,100443,1,2,0:0:0:0:
205,343,100544,5,2,0:0:0:0:
237,338,100645,1,2,0:0:0:0:
269,332,100747,1,2,0:0:0:0:
301,326,100848,1,2,0:0:0:0:
347,316,100949,5,2,0:0:0:0:
301,301,101051,1,2,0:0:0:0:
255,289,101152,1,2,0:0:0:0:
208,279,101253,1,2,0:0:0:0:
256,206,101355,5,6,3:2:0:0:
