osu file format v14

[General]
AudioFilename: audio.mp3
AudioLeadIn: 0
PreviewTime: 53895
Countdown: 0
SampleSet: Normal
StackLeniency: 0.7
Mode: 1
LetterboxInBreaks: 0
WidescreenStoryboard: 1

[Editor]
DistanceSpacing: 0.6
BeatDivisor: 4
GridSize: 32
TimelineZoom: 1.5

[Metadata]
Title:Macuilxochitl
TitleUnicode:Macuilxochitl
Artist:TOMOSUKE
ArtistUnicode:TOMOSUKE
Creator:Antti
Version:Muzukashii
Source:jubeat ripples
Tags:meiqth piano jazz instrumental jubeat ripples APPEND original soundtrack ost beatmania IIDX 24 SINOBUZ jubeat plus jukebeat pop'n music 19 TUNE STREET ポップンリズミン jubeatパック3 contemporary ピアノコンテンポラリー video game music vgm 舟木智介 tomosuke funaki
BeatmapID:4025000
BeatmapSetID:1945493

[Difficulty]
HPDrainRate:7
CircleSize:2
OverallDifficulty:5
ApproachRate:10
SliderMultiplier:1.4
SliderTickRate:1

[Events]
//Background and Video events
0,0,"macuilxochitl.png",0,-90
//Break Periods
//Storyboard Layer 0 (Background)
//Storyboard Layer 1 (Fail)
//Storyboard Layer 2 (Pass)
//Storyboard Layer 3 (Foreground)
//Storyboard Layer 4 (Overlay)
//Storyboard Sound Samples

[TimingPoints]
415,405.405405405405,4,1,0,70,1,8
2036,405.405405405405,4,1,0,70,1,0
19873,405.405405405405,4,1,0,75,1,8
20683,405.405405405405,4,1,0,80,1,0
36797,-100,4,1,0,85,0,0
39737,-100,4,1,0,80,0,0
53115,405.405405405405,4,1,0,85,1,8
53824,-100,4,1,0,92,0,9
53926,405.405405405405,4,1,0,92,1,1
72980,-100,4,1,0,92,0,1
73385,405.405405405405,4,1,0,92,1,9
73790,405.405405405405,4,1,0,90,1,0
86562,-100,4,1,0,85,0,0
99735,-100,4,1,0,90,0,1
100143,-100,4,1,0,90,0,1
101357,-100,4,1,0,90,0,0

[HitObjects]
256,192,2036,5,8,0:0:0:0:
256,192,2137,1,8,0:0:0:0:
256,192,2340,1,8,0:0:0:0:
256,192,2644,1,0,0:0:0:0:
256,192,3049,1,8,0:0:0:0:
256,192,3150,1,8,0:0:0:0:
256,192,3252,1,8,0:0:0:0:
256,192,3454,1,0,0:0:0:0:
256,192,3556,1,8,0:0:0:0:
256,192,3860,1,8,0:0:0:0:
256,192,3961,1,8,0:0:0:0:
256,192,4063,1,8,0:0:0:0:
256,192,4265,1,0,0:0:0:0:
256,192,4468,1,8,0:0:0:0:
256,192,4671,1,0,0:0:0:0:
256,192,4772,1,8,0:0:0:0:
256,192,4975,1,0,0:0:0:0:
256,192,5076,1,8,0:0:0:0:
256,192,5583,1,8,0:0:0:0:
256,192,5887,1,0,0:0:0:0:
256,192,6292,1,8,0:0:0:0:
256,192,6394,1,8,0:0:0:0:
256,192,6495,1,8,0:0:0:0:
256,192,6698,1,0,0:0:0:0:
256,192,6799,1,8,0:0:0:0:
256,192,7103,1,8,0:0:0:0:
256,192,7204,1,8,0:0:0:0:
256,192,7306,1,8,0:0:0:0:
256,192,7508,1,0,0:0:0:0:
256,192,7711,1,8,0:0:0:0:
256,192,7914,1,8,0:0:0:0:
256,192,8015,1,8,0:0:0:0:
256,192,8218,1,0,0:0:0:0:
256,192,8319,1,8,0:0:0:0:
256,192,8522,1,8,0:0:0:0:
256,192,8826,1,0,0:0:0:0:
256,192,9029,1,8,0:0:0:0:
256,192,9231,1,0,0:0:0:0:
256,192,9333,1,8,0:0:0:0:
256,192,10144,1,8,0:0:0:0:
256,192,10448,1,8,0:0:0:0:
256,192,10549,1,0,0:0:0:0:
256,192,10752,1,8,0:0:0:0:
256,192,10954,1,8,0:0:0:0:
256,192,11157,1,0,0:0:0:0:
256,192,11258,1,8,0:0:0:0:
256,192,11461,1,0,0:0:0:0:
256,192,11563,1,0,0:0:0:0:
256,192,11765,1,8,0:0:0:0:
256,192,11867,1,8,0:0:0:0:
256,192,12171,1,8,0:0:0:0:
256,192,12576,1,0,0:0:0:0:
256,192,12779,1,8,0:0:0:0:
256,192,12981,1,0,0:0:0:0:
256,192,13387,1,8,0:0:0:0:
256,192,13792,1,0,0:0:0:0:
256,192,14299,1,8,0:0:0:0:
256,192,14502,1,0,0:0:0:0:
256,192,14704,1,0,0:0:0:0:
256,192,15008,1,8,0:0:0:0:
256,192,15211,1,8,0:0:0:0:
256,192,15718,1,8,0:0:0:0:
256,192,15819,1,0,0:0:0:0:
256,192,16022,1,8,0:0:0:0:
256,192,16123,1,8,0:0:0:0:
256,192,16225,1,8,0:0:0:0:
256,192,16427,1,0,0:0:0:0:
256,192,16529,1,8,0:0:0:0:
256,192,16731,1,0,0:0:0:0:
256,192,16934,1,8,0:0:0:0:
256,192,17340,1,0,0:0:0:0:
256,192,17644,1,12,0:0:0:0:
256,192,18556,1,0,0:0:0:0:
256,192,18657,1,8,0:0:0:0:
256,192,18860,1,8,0:0:0:0:
256,192,19063,1,0,0:0:0:0:
256,192,19468,1,8,0:0:0:0:
256,192,19569,1,8,0:0:0:0:
256,192,20177,1,0,0:0:0:0:
256,192,20379,1,8,0:0:0:0:
256,192,20683,1,12,0:0:0:0:
256,192,21088,1,0,0:0:0:0:
256,192,21797,1,8,0:0:0:0:
256,192,22000,1,8,0:0:0:0:
256,192,22203,1,0,0:0:0:0:
256,192,22304,1,8,0:0:0:0:
256,192,22912,1,8,0:0:0:0:
256,192,23014,1,8,0:0:0:0:
256,192,23115,1,8,0:0:0:0:
256,192,23318,1,8,0:0:0:0:
256,192,23520,1,0,0:0:0:0:
256,192,23926,1,8,0:0:0:0:
256,192,24230,1,8,0:0:0:0:
256,192,24534,1,8,0:0:0:0:
256,192,24635,1,8,0:0:0:0:
256,192,24737,1,8,0:0:0:0:
256,192,24939,1,8,0:0:0:0:
256,192,25142,1,0,0:0:0:0:
256,192,25345,1,8,0:0:0:0:
256,192,25547,1,8,0:0:0:0:
256,192,25750,1,8,0:0:0:0:
256,192,25851,1,0,0:0:0:0:
256,192,26054,1,8,0:0:0:0:
256,192,26257,1,0,0:0:0:0:
256,192,26460,1,8,0:0:0:0:
256,192,26662,1,0,0:0:0:0:
256,192,27169,1,0,0:0:0:0:
256,192,27270,1,8,0:0:0:0:
256,192,27473,1,0,0:0:0:0:
256,192,27676,1,8,0:0:0:0:
256,192,27878,1,0,0:0:0:0:
256,192,28081,1,8,0:0:0:0:
256,192,28284,1,8,0:0:0:0:
256,192,28791,1,0,0:0:0:0:
256,192,28993,1,8,0:0:0:0:
256,192,29095,1,0,0:0:0:0:
256,192,29297,1,8,0:0:0:0:
256,192,29500,1,8,0:0:0:0:
256,192,29703,1,8,0:0:0:0:
256,192,29804,1,0,0:0:0:0:
256,192,30007,1,0,0:0:0:0:
256,192,30412,1,8,0:0:0:0:
256,192,30615,1,8,0:0:0:0:
256,192,30716,1,0,0:0:0:0:
256,192,31020,1,8,0:0:0:0:
256,192,31122,1,8,0:0:0:0:
256,192,31223,1,8,0:0:0:0:
256,192,31426,1,8,0:0:0:0:
256,192,31628,1,0,0:0:0:0:
256,192,31831,1,8,0:0:0:0:
256,192,31932,1,8,0:0:0:0:
256,192,32034,1,8,0:0:0:0:
256,192,32237,1,8,0:0:0:0:
256,192,32439,1,0,0:0:0:0:
256,192,32845,1,0,0:0:0:0:
256,192,33047,1,8,0:0:0:0:
256,192,33149,1,8,0:0:0:0:
256,192,33351,1,0,0:0:0:0:
256,192,33453,1,8,0:0:0:0:
256,192,33655,1,0,0:0:0:0:
256,192,33757,1,0,0:0:0:0:
256,192,33858,1,0,0:0:0:0:
256,192,34061,1,8,0:0:0:0:
256,192,34568,1,0,0:0:0:0:
256,192,34770,1,8,0:0:0:0:
256,192,34872,1,8,0:0:0:0:
256,192,34973,1,8,0:0:0:0:
256,192,35176,1,0,0:0:0:0:
256,192,35378,1,8,0:0:0:0:
256,192,35581,1,8,0:0:0:0:
256,192,35784,1,0,0:0:0:0:
256,192,35987,1,8,0:0:0:0:
256,192,36088,1,0,0:0:0:0:
256,192,36291,1,8,0:0:0:0:
256,192,36392,1,8,0:0:0:0:
256,192,36493,1,8,0:0:0:0:
256,192,36899,1,12,0:0:0:0:
256,192,37203,1,4,0:0:0:0:
256,192,37405,1,4,0:0:0:0:
256,192,37608,1,12,0:0:0:0:
256,192,37912,1,12,0:0:0:0:
256,192,38622,1,12,0:0:0:0:
256,192,38824,1,4,0:0:0:0:
256,192,39027,1,4,0:0:0:0:
256,192,39230,1,12,0:0:0:0:
256,192,39534,1,12,0:0:0:0:
256,192,40142,1,4,0:0:0:0:
256,192,40345,1,8,0:0:0:0:
256,192,40446,1,8,0:0:0:0:
256,192,40547,1,8,0:0:0:0:
256,192,40750,1,8,0:0:0:0:
256,192,40953,1,0,0:0:0:0:
256,192,41155,1,8,0:0:0:0:
256,192,41561,1,8,0:0:0:0:
256,192,41764,1,0,0:0:0:0:
256,192,41966,1,8,0:0:0:0:
256,192,42068,1,8,0:0:0:0:
256,192,42169,1,8,0:0:0:0:
256,192,42372,1,8,0:0:0:0:
256,192,42574,1,0,0:0:0:0:
256,192,43385,1,8,0:0:0:0:
256,192,43588,1,8,0:0:0:0:
256,192,43689,1,8,0:0:0:0:
256,192,43791,1,8,0:0:0:0:
256,192,43993,1,0,0:0:0:0:
256,192,44196,1,0,0:0:0:0:
256,192,44399,1,8,0:0:0:0:
256,192,44804,1,8,0:0:0:0:
256,192,45007,1,0,0:0:0:0:
256,192,45210,1,8,0:0:0:0:
256,192,45311,1,8,0:0:0:0:
256,192,45412,1,8,0:0:0:0:
256,192,45615,1,8,0:0:0:0:
256,192,45818,1,0,0:0:0:0:
256,192,46628,1,4,0:0:0:0:
256,192,46831,1,8,0:0:0:0:
256,192,46932,1,8,0:0:0:0:
256,192,47034,1,8,0:0:0:0:
256,192,47237,1,0,0:0:0:0:
256,192,47439,1,8,0:0:0:0:
256,192,47642,1,0,0:0:0:0:
256,192,47743,1,8,0:0:0:0:
256,192,47946,1,8,0:0:0:0:
256,192,48250,1,0,0:0:0:0:
256,192,48453,1,8,0:0:0:0:
256,192,48554,1,0,0:0:0:0:
256,192,48757,1,8,0:0:0:0:
256,192,49061,1,8,0:0:0:0:
256,192,49264,1,8,0:0:0:0:
256,192,49466,1,0,0:0:0:0:
256,192,49872,1,0,0:0:0:0:
256,192,50074,1,8,0:0:0:0:
256,192,50176,1,8,0:0:0:0:
256,192,50277,1,8,0:0:0:0:
256,192,50480,1,0,0:0:0:0:
256,192,50682,1,8,0:0:0:0:
256,192,50784,1,8,0:0:0:0:
256,192,50885,1,8,0:0:0:0:
256,192,51088,1,8,0:0:0:0:
256,192,51493,1,8,0:0:0:0:
256,192,51696,1,0,0:0:0:0:
256,192,51797,1,8,0:0:0:0:
256,192,52000,1,0,0:0:0:0:
256,192,52304,1,12,0:0:0:0:
256,192,52608,1,12,0:0:0:0:
256,192,53115,1,12,0:0:0:0:
256,192,53419,1,12,0:0:0:0:
256,192,53621,1,12,0:0:0:0:
256,192,53824,1,4,0:0:0:0:
256,192,54128,1,8,0:0:0:0:
256,192,54230,1,8,0:0:0:0:
256,192,54331,1,8,0:0:0:0:
256,192,54736,1,8,0:0:0:0:
256,192,55040,1,8,0:0:0:0:
256,192,55243,1,0,0:0:0:0:
256,192,55344,1,8,0:0:0:0:
256,192,55547,1,8,0:0:0:0:
256,192,55750,1,8,0:0:0:0:
256,192,55851,1,8,0:0:0:0:
256,192,55953,1,8,0:0:0:0:
256,192,56155,1,8,0:0:0:0:
256,192,56358,1,0,0:0:0:0:
256,192,56662,1,8,0:0:0:0:
256,192,56763,1,8,0:0:0:0:
256,192,57169,1,4,0:0:0:0:
256,192,57371,1,8,0:0:0:0:
256,192,57473,1,0,0:0:0:0:
256,192,57676,1,8,0:0:0:0:
256,192,57777,1,0,0:0:0:0:
256,192,57980,1,8,0:0:0:0:
256,192,58284,1,8,0:0:0:0:
256,192,58486,1,0,0:0:0:0:
256,192,58588,1,8,0:0:0:0:
256,192,58790,1,0,0:0:0:0:
256,192,58993,1,8,0:0:0:0:
256,192,59094,1,0,0:0:0:0:
256,192,59297,1,0,0:0:0:0:
256,192,59601,1,8,0:0:0:0:
256,192,59905,1,0,0:0:0:0:
256,192,60412,1,0,0:0:0:0:
256,192,60615,1,8,0:0:0:0:
256,192,60716,1,0,0:0:0:0:
256,192,60919,1,8,0:0:0:0:
256,192,61020,1,0,0:0:0:0:
256,192,61223,1,8,0:0:0:0:
256,192,61527,1,8,0:0:0:0:
256,192,61730,1,0,0:0:0:0:
256,192,61831,1,8,0:0:0:0:
256,192,62034,1,0,0:0:0:0:
256,192,62236,1,8,0:0:0:0:
256,192,62338,1,0,0:0:0:0:
256,192,62540,1,0,0:0:0:0:
256,192,63250,1,0,0:0:0:0:
256,192,63351,1,0,0:0:0:0:
256,192,63453,1,0,0:0:0:0:
256,192,63655,1,12,0:0:0:0:
256,192,63858,1,12,0:0:0:0:
256,192,64061,1,0,0:0:0:0:
256,192,64162,1,0,0:0:0:0:
256,192,64263,1,0,0:0:0:0:
256,192,64466,1,8,0:0:0:0:
256,192,64567,1,8,0:0:0:0:
256,192,64669,1,8,0:0:0:0:
256,192,64871,1,0,0:0:0:0:
256,192,65277,1,12,0:0:0:0:
256,192,65480,1,12,0:0:0:0:
256,192,65682,1,0,0:0:0:0:
256,192,65784,1,0,0:0:0:0:
256,192,65885,1,0,0:0:0:0:
256,192,66088,1,0,0:0:0:0:
256,192,66898,1,12,0:0:0:0:
256,192,67101,1,12,0:0:0:0:
256,192,67304,1,0,0:0:0:0:
256,192,67405,1,0,0:0:0:0:
256,192,67507,1,0,0:0:0:0:
256,192,67709,1,8,0:0:0:0:
256,192,67811,1,8,0:0:0:0:
256,192,67912,1,8,0:0:0:0:
256,192,68115,1,8,0:0:0:0:
256,192,68520,1,12,0:0:0:0:
256,192,68723,1,12,0:0:0:0:
256,192,68925,1,8,0:0:0:0:
256,192,69027,1,8,0:0:0:0:
256,192,69128,1,8,0:0:0:0:
256,192,69331,1,0,0:0:0:0:
256,192,70142,1,12,0:0:0:0:
256,192,70446,1,12,0:0:0:0:
256,192,70750,1,4,0:0:0:0:
256,192,71054,1,12,0:0:0:0:
256,192,71358,1,0,0:0:0:0:
256,192,71763,1,4,0:0:0:0:
256,192,72067,1,12,0:0:0:0:
256,192,72371,1,4,0:0:0:0:
256,192,72675,1,12,0:0:0:0:
256,192,73587,1,0,0:0:0:0:
256,192,73790,1,12,0:0:0:0:
256,192,74094,1,0,0:0:0:0:
256,192,74398,1,0,0:0:0:0:
256,192,74499,1,0,0:0:0:0:
256,192,74600,1,0,0:0:0:0:
256,192,74803,1,8,0:0:0:0:
256,192,75006,1,8,0:0:0:0:
256,192,75411,1,8,0:0:0:0:
256,192,75715,1,0,0:0:0:0:
256,192,76019,1,8,0:0:0:0:
256,192,76121,1,8,0:0:0:0:
256,192,76222,1,8,0:0:0:0:
256,192,76627,1,8,0:0:0:0:
256,192,76729,1,8,0:0:0:0:
256,192,76830,1,8,0:0:0:0:
256,192,77033,1,0,0:0:0:0:
256,192,77438,1,0,0:0:0:0:
256,192,77540,1,0,0:0:0:0:
256,192,77641,1,0,0:0:0:0:
256,192,77844,1,8,0:0:0:0:
256,192,78249,1,0,0:0:0:0:
256,192,78654,1,0,0:0:0:0:
256,192,79465,1,8,0:0:0:0:
256,192,79871,1,8,0:0:0:0:
256,192,80073,1,0,0:0:0:0:
256,192,80276,1,8,0:0:0:0:
256,192,80580,1,0,0:0:0:0:
256,192,80884,1,8,0:0:0:0:
256,192,80985,1,8,0:0:0:0:
256,192,81087,1,8,0:0:0:0:
256,192,81290,1,0,0:0:0:0:
256,192,81492,1,8,0:0:0:0:
256,192,81898,1,8,0:0:0:0:
256,192,82202,1,8,0:0:0:0:
256,192,82506,1,0,0:0:0:0:
256,192,82607,1,0,0:0:0:0:
256,192,82708,1,0,0:0:0:0:
256,192,83114,1,8,0:0:0:0:
256,192,83215,1,8,0:0:0:0:
256,192,83317,1,8,0:0:0:0:
256,192,83519,1,8,0:0:0:0:
256,192,83925,1,0,0:0:0:0:
256,192,84026,1,0,0:0:0:0:
256,192,84127,1,0,0:0:0:0:
256,192,84330,1,8,0:0:0:0:
256,192,84735,1,8,0:0:0:0:
256,192,85141,1,0,0:0:0:0:
256,192,85952,1,8,0:0:0:0:
256,192,86762,1,12,0:0:0:0:
256,192,86965,1,8,0:0:0:0:
256,192,87067,1,8,0:0:0:0:
256,192,87269,1,0,0:0:0:0:
256,192,87472,1,8,0:0:0:0:
256,192,87675,1,0,0:0:0:0:
256,192,87776,1,8,0:0:0:0:
256,192,88384,1,0,0:0:0:0:
256,192,88587,1,8,0:0:0:0:
256,192,88688,1,8,0:0:0:0:
256,192,88992,1,0,0:0:0:0:
256,192,89195,1,8,0:0:0:0:
256,192,89398,1,0,0:0:0:0:
256,192,89499,1,8,0:0:0:0:
256,192,89803,1,8,0:0:0:0:
256,192,90006,1,0,0:0:0:0:
256,192,90208,1,8,0:0:0:0:
256,192,90310,1,8,0:0:0:0:
256,192,90512,1,0,0:0:0:0:
256,192,90715,1,8,0:0:0:0:
256,192,90918,1,0,0:0:0:0:
256,192,91019,1,8,0:0:0:0:
256,192,91627,1,0,0:0:0:0:
256,192,91830,1,8,0:0:0:0:
256,192,91931,1,8,0:0:0:0:
256,192,92235,1,0,0:0:0:0:
256,192,92438,1,8,0:0:0:0:
256,192,92641,1,0,0:0:0:0:
256,192,92742,1,8,0:0:0:0:
256,192,93046,1,8,0:0:0:0:
256,192,93249,1,0,0:0:0:0:
256,192,93452,1,8,0:0:0:0:
256,192,93553,1,8,0:0:0:0:
256,192,93756,1,0,0:0:0:0:
256,192,93958,1,8,0:0:0:0:
256,192,94161,1,0,0:0:0:0:
256,192,94262,1,8,0:0:0:0:
256,192,94871,1,0,0:0:0:0:
256,192,95073,1,0,0:0:0:0:
256,192,95175,1,8,0:0:0:0:
256,192,95479,1,0,0:0:0:0:
256,192,95681,1,8,0:0:0:0:
256,192,95884,1,0,0:0:0:0:
256,192,95985,1,8,0:0:0:0:
256,192,96289,1,8,0:0:0:0:
256,192,96492,1,0,0:0:0:0:
256,192,96695,1,8,0:0:0:0:
256,192,96796,1,8,0:0:0:0:
256,192,96999,1,0,0:0:0:0:
256,192,97202,1,8,0:0:0:0:
256,192,97404,1,0,0:0:0:0:
256,192,97506,1,8,0:0:0:0:
256,192,98114,1,0,0:0:0:0:
256,192,98317,1,8,0:0:0:0:
256,192,98418,1,8,0:0:0:0:
256,192,98722,1,0,0:0:0:0:
256,192,98925,1,8,0:0:0:0:
256,192,99127,1,0,0:0:0:0:
256,192,99229,1,8,0:0:0:0:
256,192,99533,1,0,0:0:0:0:
256,192,99735,1,12,0:0:0:0:
256,192,99938,1,12,0:0:0:0:
256,192,100242,1,0,0:0:0:0:
256,192,100344,1,8,0:0:0:0:
256,192,100546,1,0,0:0:0:0:
256,192,100749,1,8,0:0:0:0:
256,192,100850,1,8,0:0:0:0:
256,192,100952,1,8,0:0:0:0:
256,192,101154,1,8,0:0:0:0:
256,192,101357,1,4,0:0:0:0:
