osu file format v14

[General]
AudioFilename: audio.mp3
AudioLeadIn: 0
PreviewTime: 13095
Countdown: 0
SampleSet: Soft
StackLeniency: 0.7
Mode: 0
LetterboxInBreaks: 0
WidescreenStoryboard: 1

[Editor]
DistanceSpacing: 1
BeatDivisor: 4
GridSize: 4
TimelineZoom: 1.900001

[Metadata]
Title:Ergosphere
TitleUnicode:Ergosphere
Artist:TOMOSUKE
ArtistUnicode:TOMOSUKE
Creator:toybot
Version:Normal
Source:pop'n music 16 PARTY♪
Tags:collapse jazz zektbach bemani popn video game instrumental vikala pocket- amateurre lecandy
BeatmapID:2743425
BeatmapSetID:1233027

[Difficulty]
HPDrainRate:3
CircleSize:3.5
OverallDifficulty:4
ApproachRate:5
SliderMultiplier:1.2
SliderTickRate:1

[Events]
//Background and Video events
0,0,"swirl.jpg",0,0
//Break Periods
2,50001,56013
2,96589,101542
//Storyboard Layer 0 (Background)
//Storyboard Layer 1 (Fail)
//Storyboard Layer 2 (Pass)
//Storyboard Layer 3 (Foreground)
//Storyboard Layer 4 (Overlay)
//Storyboard Sound Samples

[TimingPoints]
390,352.941176470588,4,2,2,60,1,0
1095,-100,4,2,1,60,0,0
13095,-100,4,2,1,70,0,0
24037,-100,4,2,1,50,0,0
24389,-100,4,2,1,70,0,0
25801,-100,4,2,1,60,0,0
26507,-100,4,2,1,40,0,0
26684,-100,4,2,1,60,0,0
27213,-100,4,2,2,60,0,0
31272,-100,4,2,1,70,0,0
31624,-100,4,2,1,60,0,0
32860,-100,4,2,2,60,0,0
42566,-100,4,2,1,70,0,0
42918,-100,4,2,1,60,0,0
43977,-100,4,2,1,50,0,0
44154,-100,4,2,2,60,0,0
48919,-100,4,2,1,60,0,0
58272,-100,4,2,1,50,0,0
63036,-100,4,2,1,60,0,0
64271,-100,4,2,1,50,0,0
65213,-100,4,2,1,60,0,0
65448,-100,4,2,1,50,0,0
65684,-100,4,2,1,60,0,0
68154,-100,4,2,1,65,0,0
69330,-100,4,2,1,60,0,0
75213,-100,4,2,1,70,0,0
80860,-100,4,2,3,70,0,0
82977,-100,4,2,3,50,0,0
83331,-100,4,2,3,60,0,0
83684,-100,4,2,3,70,0,0
84036,-100,4,2,3,60,0,0
84742,-100,4,2,3,70,0,0
85448,-100,4,2,3,60,0,0
85801,-100,4,2,3,55,0,0
85977,-100,4,2,3,60,0,0
86153,-100,4,2,3,65,0,0
86507,-100,4,2,3,70,0,0
86859,-100,4,2,3,60,0,0
87213,-100,4,2,1,70,0,0
88271,-100,4,2,3,50,0,0
88625,-100,4,2,1,60,0,0
88801,-100,4,2,1,70,0,0
89331,-100,4,2,3,70,0,0
89683,-100,4,2,1,65,0,0
90037,-100,4,2,3,70,0,0
90566,-100,4,2,3,75,0,0
90742,-100,4,2,1,70,0,0
91271,-100,4,2,1,60,0,0
92507,-100,4,2,1,70,0,0
92771,-100,4,2,1,80,0,0
93036,-100,4,2,1,60,0,0
93919,-100,4,2,1,70,0,0
94448,-100,4,2,1,60,0,0
95331,-100,4,2,1,70,0,0
95595,-100,4,2,1,80,0,0
95860,-100,4,2,1,60,0,0
104860,-100,4,2,1,5,0,0

[Colours]
Combo1 : 204,0,0
Combo2 : 244,80,0
Combo3 : 255,255,138
Combo4 : 0,128,192
Combo5 : 0,166,83

[HitObjects]
19,205,390,5,2,0:0:0:0:
89,108,742,1,2,0:0:0:0:
196,161,1095,2,0,B|204:182|204:182|199:204|199:204|210:220|210:220|204:238|204:238|215:255|215:255|208:273|208:273|219:284|219:284|213:299|213:299|224:311|224:311|218:335,1,180,8|0,0:0|1:0,0:0:0:0:
277,339,1801,6,0,P|316:316|360:319,2,90,4|2|4,1:0|0:0|0:0,0:0:0:0:
426,237,2860,2,0,P|457:242|502:293,2,90,0|2|4,1:0|0:0|0:0,0:0:0:0:
273,141,3919,2,0,P|293:119|320:108,2,60,0|8|0,1:0|0:0|1:0,0:0:0:0:
231,184,4448,1,0,0:0:0:0:
172,170,4625,6,0,P|154:132|162:80,2,90,4|2|4,1:0|0:0|0:0,0:0:0:0:
88,329,5684,2,0,P|49:351|2:348,2,90,0|2|4,1:0|0:0|0:0,0:0:0:0:
250,252,6742,2,0,P|277:264|296:287,1,60,0|0,1:0|1:0,0:0:0:0:
313,344,7095,1,0,1:1:0:0:
371,328,7272,1,0,0:0:0:0:
428,310,7448,6,0,P|476:320|514:360,2,90,6|2|4,1:1|0:0|0:0,0:0:0:0:
373,139,8507,2,0,P|328:143|292:169,2,90,0|2|4,1:0|0:0|0:0,0:0:0:0:
416,97,9213,2,0,L|402:39,1,60,2|0,0:0|1:0,0:0:0:0:
348,10,9566,2,0,L|289:21,1,60,2|0,0:0|1:0,0:0:0:0:
246,63,9919,1,2,1:2:0:0:
129,28,10272,6,0,P|98:58|88:102,2,90,4|2|2,0:0|0:1|1:1,0:0:0:0:
247,164,11331,2,0,P|280:183|351:175,2,90,4|2|2,1:1|1:0|3:1,0:0:0:0:
147,228,12213,1,0,1:0:0:0:
147,228,12389,2,0,P|149:262|153:287,1,60,4|8,1:0|0:3,0:0:0:0:
120,338,12742,2,0,P|90:339|60:343,1,60,8|0,0:0|0:0,0:0:0:0:
18,301,13095,6,0,P|16:251|8:181,1,120,6|8,1:0|0:0,0:0:0:0:
40,130,13625,1,4,0:0:0:0:
159,126,13978,2,0,L|155:192,2,60,0|8|2,1:0|0:0|1:0,0:0:0:0:
215,106,14507,2,0,L|219:32,1,60,0|0,0:0|3:0,0:0:0:0:
267,11,14860,1,8,0:0:0:0:
267,11,15037,1,4,0:0:0:0:
358,88,15389,2,0,P|387:84|413:69,1,60,2|2,0:0|0:0,0:0:0:0:
494,158,15919,6,0,P|497:221|503:277,1,120,6|8,1:0|0:0,0:0:0:0:
456,315,16448,2,0,P|419:317|360:261,1,120,4|8,0:0|3:0,0:0:0:0:
308,162,17154,1,4,1:0:0:0:
308,162,17331,2,0,B|242:156|261:202|187:194,1,120,0|8,0:0|0:0,0:0:0:0:
142,167,17860,2,0,P|139:234|131:302,1,120,2|8,1:2|0:0,0:0:0:0:
104,339,18389,1,8,0:0:0:0:
216,380,18742,6,0,P|274:375|308:329,1,120,6|8,1:0|0:0,0:0:0:0:
312,268,19272,1,4,0:0:0:0:
387,174,19625,2,0,L|465:188,2,60,0|8|2,1:0|0:0|1:0,0:0:0:0:
356,122,20154,2,0,L|279:109,1,60,2|0,0:0|3:0,0:0:0:0:
251,72,20507,1,8,0:0:0:0:
251,72,20684,1,4,0:0:0:0:
188,173,21037,2,0,P|160:185|130:185,1,60,2|2,0:0|0:0,0:0:0:0:
37,109,21566,6,0,P|27:70|76:3,1,120,6|8,1:0|0:0,0:0:0:0:
122,31,22095,2,0,L|241:46,1,120,4|0,0:0|1:0,0:0:0:0:
331,125,22801,1,2,1:0:0:0:
331,125,22978,2,0,L|340:46,2,60,2|0|8,0:0|1:0|0:0,0:0:0:0:
296,174,23507,2,0,B|291:218|291:218|303:249|303:249|298:291,1,120,4|8,0:0|0:0,0:0:0:0:
334,340,24037,1,8,0:0:0:0:
450,313,24389,5,4,1:0:0:0:
450,313,25801,1,0,0:0:0:0:
332,286,26154,1,0,0:0:0:0:
408,193,26507,1,2,0:0:0:0:
445,145,26684,6,0,B|450:99|450:99|427:59,2,90,2|2|6,1:0|1:0|1:0,0:0:0:0:
332,178,27566,1,8,0:0:0:0:
331,178,27742,2,0,B|273:180|273:180|222:145,1,120,2|2,0:0|0:0,0:0:0:0:
173,107,28272,1,8,0:0:0:0:
117,128,28448,2,0,L|110:248,1,120,2|2,0:0|0:0,0:0:0:0:
73,296,28978,1,8,0:0:0:0:
73,296,29154,2,0,B|159:283|159:283|206:304,1,120,2|2,1:2|0:0,0:0:0:0:
239,329,29684,1,8,0:0:0:0:
353,300,30037,6,0,L|373:374,2,60,0|2|8,1:0|0:0|0:0,0:0:0:0:
310,257,30566,1,2,0:0:0:0:
405,184,30919,2,0,L|419:114,1,60,2|8,0:0|0:0,0:0:0:0:
387,72,31272,2,0,P|337:40|279:48,1,120,2|2,0:1|0:0,0:0:0:0:
251,104,31801,1,8,0:0:0:0:
251,104,31978,2,0,P|205:141|138:129,1,120,2|0,0:1|1:0,0:0:0:0:
98,101,32507,1,8,0:0:0:0:
28,198,32860,6,0,P|100:208|127:254,1,120,0|8,1:0|0:0,0:0:0:0:
131,303,33389,1,2,0:0:0:0:
248,282,33742,2,0,L|254:205,1,60,2|8,0:0|0:0,0:0:0:0:
293,178,34095,2,0,P|284:121|278:58,1,120,2|2,0:0|0:0,0:0:0:0:
324,19,34625,1,8,0:0:0:0:
324,19,34801,2,0,P|374:22|420:89,1,120,2|2,1:2|0:0,0:0:0:0:
412,132,35331,1,8,0:0:0:0:
377,246,35684,6,0,L|451:281,1,60,0|2,1:0|0:0,0:0:0:0:
485,298,36037,1,8,0:0:0:0:
485,298,36213,1,2,0:0:0:0:
381,359,36566,1,2,0:0:0:0:
289,281,36919,1,2,0:0:0:0:
289,281,37095,2,0,L|165:312,1,120,0|8,1:0|0:0,0:0:0:0:
114,293,37625,2,2,B|88:243|122:207|132:226|167:178|135:117,1,180,2|8,0:1|0:0,0:1:0:0:
58,37,38507,6,0,P|46:107|45:156,1,120,4|8,1:0|0:0,0:0:0:0:
1,197,39037,1,2,0:0:0:0:
53,304,39389,2,0,L|123:288,1,60,2|8,0:0|0:0,0:0:0:0:
150,244,39742,2,0,P|179:245|203:263,1,60,2|0,0:0|1:0,0:0:0:0:
238,312,40095,2,0,L|230:374,2,60,2|8|2,0:0|0:0|1:2,0:0:0:0:
329,233,40801,1,2,0:0:0:0:
329,233,40978,2,0,P|323:175|307:95,1,120,8|0,0:0|1:0,0:0:0:0:
341,61,41507,6,0,P|366:46|396:45,1,60,2|8,0:0|0:0,0:0:0:0:
450,71,41860,1,2,0:0:0:0:
488,184,42213,2,0,P|479:221|480:243,1,60,2|8,0:0|0:0,0:0:0:0:
430,276,42566,2,0,B|412:271|393:258|393:258|359:283|318:278,1,120,2|2,0:1|0:0,0:0:0:0:
275,318,43095,1,8,0:0:0:0:
221,290,43272,1,2,0:1:0:0:
114,234,43625,2,0,L|32:250,2,60,0|8|0,1:0|0:0|0:0,0:0:0:0:
157,191,44154,6,0,P|156:133|116:90,1,120,0|8,1:0|0:0,0:0:0:0:
60,67,44684,1,2,0:0:0:0:
164,7,45037,2,0,L|239:21,1,60,2|8,0:0|0:0,0:0:0:0:
262,63,45389,2,0,P|324:51|380:42,1,120,2|2,0:0|0:0,0:0:0:0:
431,74,45919,1,8,0:0:0:0:
431,74,46095,2,0,P|446:129|390:184,1,120,2|2,1:2|0:0,0:0:0:0:
351,187,46625,1,8,0:0:0:0:
250,252,46978,6,0,P|224:239|192:235,2,60,0|2|8,1:0|0:0|0:0,0:0:0:0:
293,293,47507,1,2,1:0:0:0:
403,339,47860,2,0,L|409:269,1,60,2|8,0:0|0:0,0:0:0:0:
457,244,48213,2,0,L|439:111,1,120,2|2,0:0|0:0,0:0:0:0:
440,64,48742,1,8,0:0:0:0:
381,51,48919,2,2,B|363:49|344:41|344:41|330:60|315:72|315:72|300:67|285:60|285:60|274:65|258:69|258:69|237:66|217:61|217:61|193:69|174:80|174:80|162:77|151:77|151:77|104:83,1,300,2|4,0:1|0:0,0:1:0:0:
68,68,57213,6,0,B|117:46|149:88|143:95|139:95|139:95|134:88|165:62|222:53|269:95|250:151,1,240,4|0,0:0|0:0,0:0:0:0:
220,238,58272,2,0,P|125:277|100:167,2,240,0|0|0,3:0|0:0|0:0,0:0:0:0:
321,303,60037,1,0,0:0:0:0:
440,290,60389,2,0,P|462:232|451:170,1,120,2|8,1:2|0:0,0:0:0:0:
407,64,61095,6,0,B|318:43|350:98|260:75,1,150,0|0,1:0|1:0,0:0:0:0:
323,213,61978,2,0,B|234:233|266:178|176:201,1,150,0|0,1:0|1:0,0:0:0:0:
32,168,62860,6,0,P|25:135|3:94,2,60
13,225,63389,2,0,B|-21:316|33:401|177:389|183:306|137:274,1,300,0|2,0:0|1:1,0:0:0:0:
223,254,64507,2,0,L|308:269,1,80,2|0,1:2|1:0,0:0:0:0:
358,210,64978,2,0,P|352:171|327:140,2,80,2|0|2,1:2|0:0|0:0,0:0:0:0:
412,269,65684,5,4,0:0:0:0:
458,158,66037,1,0,1:0:0:0:
391,58,66389,1,2,0:0:0:0:
271,52,66742,1,4,1:0:0:0:
190,141,67095,1,8,0:0:0:0:
201,260,67448,1,8,0:0:0:0:
305,318,67801,1,2,0:0:0:0:
412,269,68154,6,0,L|490:252,2,80,6|0|8,0:0|0:0|0:0,0:0:0:0:
359,208,68860,2,0,L|280:224,2,80,0|8|8,1:0|0:0|0:0,0:0:0:0:
417,153,69566,6,0,P|413:85|315:84,1,160,6|8,1:0|0:0,0:0:0:0:
263,105,70272,1,2,0:0:0:0:
206,48,70507,2,0,P|169:33|129:33,1,80,0|8,1:0|0:0,0:0:0:0:
61,77,70978,2,0,P|72:165|81:266,1,160,0|8,1:0|0:0,0:0:0:0:
139,287,71684,2,0,P|133:322|129:375,2,80,0|2|10,1:0|1:2|0:0,0:0:0:0:
219,298,72389,6,0,P|282:311|346:228,1,160,2|8,1:0|0:0,0:0:0:0:
305,178,73095,1,0,1:0:0:0:
363,122,73331,2,0,P|360:86|354:42,1,80,0|8,1:0|0:0,0:0:0:0:
430,18,73801,2,0,P|491:67|480:164,1,160,0|8,1:0|0:0,0:0:0:0:
437,201,74507,2,0,P|433:242|431:280,2,80,0|2|12,1:0|1:0|0:0,0:0:0:0:
363,168,75213,6,0,B|298:137|236:191|283:220|220:274|152:235,1,240,6|0,1:0|1:0,0:0:0:0:
97,188,76154,2,0,P|89:149|103:112,1,80,0|8,1:0|0:0,0:0:0:0:
179,86,76625,2,0,P|245:100|350:115,1,160,2|8,1:2|0:0,0:0:0:0:
411,84,77331,2,0,P|411:40|373:0,2,80,0|2|10,1:0|1:2|0:0,0:0:0:0:
478,127,78037,6,0,B|502:236|402:220|390:301|409:330|443:346,1,240,2|0,1:0|1:0,0:0:0:0:
363,382,78978,2,0,P|306:363|252:362,1,80,0|8,1:0|0:0,0:0:0:0:
225,308,79448,2,0,P|167:315|96:333,2,120,4|4|4,1:0|1:2|1:0,0:0:0:0:
268,240,80389,1,8,0:0:0:0:
222,174,80625,1,0,1:0:0:0:
142,183,80860,5,4,1:0:0:0:
54,98,81213,2,0,P|58:41|108:11,1,120,8|0,0:0|0:0,0:0:0:0:
162,36,81742,1,2,1:2:0:0:
162,36,81919,2,0,P|193:31|221:26,1,60,8|2,0:0|0:0,0:0:0:0:
271,58,82272,2,0,B|334:50|312:103|378:102,2,120,0|8|0,1:0|0:0|1:0,0:0:0:0:
237,173,83331,2,0,L|249:238,1,60,8|2,0:0|0:0,0:0:0:0:
202,271,83684,6,0,B|140:252|157:327|78:296,1,120,0|8,1:0|0:0,0:0:0:0:
10,214,84389,2,0,L|18:135,1,60,0|2,1:0|1:2,0:0:0:0:
70,128,84742,2,0,L|76:57,1,60,8|2,0:0|0:0,0:0:0:0:
123,32,85095,1,2,1:0:0:0:
208,116,85448,1,2,0:1:0:0:
319,72,85801,2,0,L|311:4,2,60,0|2|8,1:0|1:2|0:0,0:0:0:0:
372,100,86331,1,8,0:0:0:0:
372,100,86507,6,0,P|383:156|340:195,1,120,4|8,1:2|0:0,0:0:0:0:
223,223,87213,2,0,P|195:210|166:207,2,60,2|2|8,1:0|0:0|0:0,0:0:0:0:
258,271,87742,1,2,0:0:0:0:
258,271,87919,2,0,P|293:303|373:285,1,120,2|8,1:0|0:0,0:0:0:0:
459,225,88625,2,0,P|472:257|474:282,2,60,2|2|8,1:0|0:0|0:0,0:0:0:0:
416,182,89154,1,2,0:0:0:0:
446,130,89331,2,0,P|438:74|430:10,1,120,4|8,1:0|0:0,0:0:0:0:
315,45,90037,2,0,P|320:90|326:143,2,90,4|0|8,0:0|0:0|0:0,0:0:0:0:
260,20,90742,6,0,P|215:20|156:135,1,180,4|0,1:0|1:0,0:0:0:0:
70,213,91625,1,8,0:0:0:0:
70,213,91801,2,0,L|0:201,2,60,8|0|0,0:0|0:0|1:0,0:0:0:0:
137,312,92507,2,0,L|49:333,2,90,2|4|8,1:0|1:2|0:0,0:0:0:0:
193,332,93213,2,0,L|219:215,1,120,8|0,0:0|1:0,0:0:0:0:
301,127,93919,6,0,L|275:24,2,90,4|4|8,1:0|1:2|0:0,0:0:0:0:
348,164,94625,2,0,L|457:213,1,120,8|0,0:0|1:0,0:0:0:0:
376,303,95331,2,0,L|454:361,2,90,2|4|0,1:0|1:2|0:0,0:0:0:0:
317,318,96037,2,0,L|303:252,1,60,8|0,0:0|0:0,0:0:0:0:
254,226,96389,5,0,1:0:0:0:
256,113,102742,6,0,B|256:84|256:84|253:79|253:79|259:79|259:79|256:74|256:74|256:24,2,80,2|2|2,1:0|1:1|1:0,0:0:0:0:
256,194,103448,1,4,1:2:0:0:
256,192,103566,12,0,104860,0:0:0:0:
