osu file format v14

[General]
AudioFilename: audio.mp3
AudioLeadIn: 0
PreviewTime: 13095
Countdown: 0
SampleSet: Soft
StackLeniency: 0.7
Mode: 0
LetterboxInBreaks: 0
WidescreenStoryboard: 0

[Editor]
DistanceSpacing: 1.6
BeatDivisor: 4
GridSize: 4
TimelineZoom: 2.7

[Metadata]
Title:Ergosphere
TitleUnicode:Ergosphere
Artist:TOMOSUKE
ArtistUnicode:TOMOSUKE
Creator:toybot
Version:Extreme
Source:pop'n music 16 PARTY♪
Tags:collapse jazz zektbach bemani popn video game instrumental vikala pocket- amateurre lecandy
BeatmapID:2563333
BeatmapSetID:1233027

[Difficulty]
HPDrainRate:6
CircleSize:4.5
OverallDifficulty:8.5
ApproachRate:9.3
SliderMultiplier:2
SliderTickRate:1

[Events]
//Background and Video events
0,0,"swirl.jpg",0,0
//Break Periods
//Storyboard Layer 0 (Background)
//Storyboard Layer 1 (Fail)
//Storyboard Layer 2 (Pass)
//Storyboard Layer 3 (Foreground)
//Storyboard Layer 4 (Overlay)
//Storyboard Sound Samples

[TimingPoints]
390,352.941176470588,4,2,2,60,1,0
390,-200,4,2,2,60,0,0
742,-133.333333333333,4,2,2,60,0,0
919,-133.333333333333,4,2,1,60,0,0
1801,-100,4,2,1,60,0,0
4625,-80,4,2,1,60,0,0
5507,-100,4,2,1,60,0,0
12831,-200,4,2,1,60,0,0
13095,-100,4,2,1,70,0,0
17154,-133.333333333333,4,2,1,70,0,0
18213,-100,4,2,1,70,0,0
24037,-100,4,2,1,50,0,0
24389,-200,4,2,1,70,0,0
24566,-200,4,2,1,40,0,0
26595,-200,4,2,1,60,0,0
27213,-100,4,2,2,60,0,0
31272,-66.6666666666667,4,2,1,70,0,0
31625,-100,4,2,1,60,0,0
32860,-100,4,2,2,60,0,0
42566,-66.6666666666667,4,2,1,70,0,0
42919,-100,4,2,1,60,0,0
44154,-100,4,2,2,60,0,0
48919,-66.6666666666667,4,2,1,60,0,0
50154,-100,4,2,1,60,0,0
52272,-100,4,2,1,40,0,0
52625,-100,4,2,1,60,0,0
52889,-100,4,2,1,50,0,0
53242,-100,4,2,1,40,0,0
53860,-100,4,2,1,30,0,0
54037,-100,4,2,1,50,0,0
54507,-100,4,2,1,60,0,0
55389,-133.333333333333,4,2,1,50,0,0
55625,-133.333333333333,4,2,1,5,0,0
55684,-133.333333333333,4,2,1,50,0,0
55801,-80,4,2,1,60,0,0
55978,-80,4,2,1,5,0,0
56037,-66.6666666666667,4,2,1,70,0,0
56331,-66.6666666666667,4,2,1,5,0,0
56389,-66.6666666666667,4,2,1,70,0,0
56507,-57.1428571428571,4,2,1,80,0,0
56801,-57.1428571428571,4,2,1,5,0,0
57213,-133.333333333333,4,2,1,60,0,0
57978,-133.333333333333,4,2,1,5,0,0
58272,-133.333333333333,4,2,1,50,0,0
61095,-66.6666666666667,4,2,1,50,0,0
61448,-80,4,2,1,50,0,0
61977,-100,4,2,1,50,0,0
62418,-133.333333333333,4,2,1,50,0,0
65684,-133.333333333333,4,2,1,60,0,0
68154,-133.333333333333,4,2,1,65,0,0
69213,-133.333333333333,4,2,1,50,0,0
69331,-133.333333333333,4,2,1,60,0,0
69566,-80,4,2,1,60,0,0
71860,-80,4,2,1,5,0,0
71919,-80,4,2,1,60,0,0
72095,-80,4,2,1,5,0,0
72154,-80,4,2,1,60,0,0
72331,-80,4,2,1,5,0,0
72389,-80,4,2,1,60,0,0
74684,-80,4,2,1,5,0,0
74742,-80,4,2,1,60,0,0
74919,-80,4,2,1,5,0,0
74978,-80,4,2,1,60,0,0
75154,-80,4,2,1,5,0,0
75213,-80,4,2,1,70,0,0
77507,-80,4,2,1,5,0,0
77566,-80,4,2,1,70,0,0
77742,-80,4,2,1,5,0,0
77801,-80,4,2,1,70,0,0
77978,-80,4,2,1,5,0,0
78037,-80,4,2,1,70,0,0
80860,-100,4,2,3,70,0,0
82978,-100,4,2,3,50,0,0
83331,-100,4,2,3,60,0,0
83684,-100,4,2,3,70,0,0
83772,-100,4,2,3,60,0,0
84742,-100,4,2,3,70,0,0
85360,-100,4,2,3,60,0,0
85625,-100,4,2,3,50,0,0
85801,-100,4,2,3,55,0,0
85978,-100,4,2,3,60,0,0
86154,-100,4,2,3,65,0,0
86507,-100,4,2,3,70,0,0
86860,-100,4,2,3,60,0,0
87213,-100,4,2,1,70,0,0
88007,-100,4,2,3,50,0,0
88625,-100,4,2,1,60,0,0
88801,-100,4,2,1,70,0,0
89331,-100,4,2,3,70,0,0
89684,-100,4,2,1,65,0,0
89860,-100,4,2,3,65,0,0
89948,-100,4,2,1,65,0,0
90037,-100,4,2,3,70,0,0
90389,-100,4,2,3,75,0,0
90742,-50,4,2,1,70,0,0
91007,-100,4,2,1,70,0,0
91272,-100,4,2,1,60,0,0
92507,-50,4,2,1,70,0,0
92772,-100,4,2,1,80,0,0
93037,-100,4,2,1,60,0,0
93919,-50,4,2,1,70,0,0
94184,-100,4,2,1,70,0,0
94448,-100,4,2,1,60,0,0
95331,-50,4,2,1,70,0,0
95595,-100,4,2,1,80,0,0
95801,-100,4,2,1,60,0,0
96625,-100,4,2,1,50,0,0
98684,-100,4,2,1,5,0,0
98742,-100,4,2,1,50,0,0
98801,-100,4,2,1,5,0,0
99037,-133.333333333333,4,2,1,50,0,0
101213,-133.333333333333,4,2,1,45,0,0
101566,-133.333333333333,4,2,1,40,0,0
102742,-66.6666666666667,4,2,1,60,0,0
104860,-66.6666666666667,4,2,1,5,0,0

[Colours]
Combo1 : 204,0,0
Combo2 : 244,80,0
Combo3 : 255,255,138
Combo4 : 0,128,192
Combo5 : 0,166,83

[HitObjects]
91,119,390,6,0,P|115:118|138:109,1,50,2|0,0:0|0:0,0:0:0:0:
133,124,742,2,0,P|115:130|96:130,1,37.5000014305115,2|0,0:0|0:0,0:0:0:0:
44,297,919,5,8,0:0:0:0:
46,304,1007,1,8,0:0:0:0:
75,234,1095,5,8,0:0:0:0:
135,199,1184,1,8,0:0:0:0:
200,208,1272,1,8,0:3:0:0:
237,256,1360,1,8,0:3:0:0:
226,311,1448,1,4,0:3:0:0:
186,326,1537,1,4,0:3:0:0:
160,317,1625,1,0,1:0:0:0:
154,304,1713,1,0,1:0:0:0:
118,382,1801,6,0,P|142:338|157:291,1,100,4|0,1:0|0:0,0:0:0:0:
211,241,2066,2,0,P|201:219|175:203,1,50,2|0,0:0|0:0,0:0:0:0:
26,50,2331,2,0,P|75:47|119:72,1,100,4|0,0:0|0:0,0:0:0:0:
1,76,2684,1,8,0:0:0:0:
68,186,2860,6,0,P|103:135|151:102,1,100,0|0,1:0|0:0,0:0:0:0:
194,70,3125,2,0,P|213:84|224:107,1,50,2|0,0:0|0:0,0:0:0:0:
394,94,3389,2,0,P|384:141|344:171,1,100,4|0,0:0|0:0,0:0:0:0:
377,64,3742,5,8,0:0:0:0:
354,210,3919,1,0,1:0:0:0:
333,360,4095,1,8,0:0:0:0:
403,334,4272,5,0,1:0:0:0:
403,334,4360,1,8,0:0:0:0:
143,369,4537,1,8,0:0:0:0:
143,369,4625,6,0,P|112:341|118:281,2,83.3333333333333,4|0|0,1:0|0:0|0:0,0:0:0:0:
397,327,4978,2,0,B|435:321|451:359|451:359|430:331|380:332,1,125,2|0,0:0|0:0,0:0:0:0:
333,360,5242,2,0,P|270:345|209:338,1,125,2|0,0:1|0:0,0:0:0:0:
143,369,5507,2,0,P|129:348|106:338,1,50,8|0,0:0|0:0,0:0:0:0:
176,270,5684,6,0,L|196:169,1,66.6666666666667,0|0,1:0|0:0,0:0:0:0:
294,119,5919,1,0,0:0:0:0:
306,131,6037,2,0,P|287:146|263:151,1,50,2|0,0:0|0:0,0:0:0:0:
149,89,6213,6,0,P|98:83|49:102,1,100,4|0,0:0|0:0,0:0:0:0:
71,77,6478,2,0,P|95:69|121:70,2,50,2|8|0,0:0|0:0|0:0,0:0:0:0:
196,94,6742,1,0,1:0:0:0:
237,150,6831,1,0,1:0:0:0:
233,200,6919,1,0,1:0:0:0:
205,222,7007,1,8,0:0:0:0:
175,218,7095,5,0,1:1:0:0:
209,301,7213,5,2,0:1:0:0:
302,318,7331,5,2,0:0:0:0:
368,256,7448,6,0,P|384:208|390:158,1,100,6|0,1:1|0:0,0:0:0:0:
446,113,7713,2,0,P|429:96|405:90,1,50,2|0,0:0|0:0,0:0:0:0:
408,354,7978,2,0,P|468:349|495:291,1,100,4|0,0:0|0:0,0:0:0:0:
387,375,8331,1,8,0:0:0:0:
209,322,8507,6,0,P|189:265|157:205,1,100,0|0,1:0|0:0,0:0:0:0:
107,199,8772,2,0,P|114:172|150:141,1,50,2|0,0:0|0:0,0:0:0:0:
330,53,9037,2,0,P|326:29|303:25,1,50,4|0,0:0|0:0,0:0:0:0:
269,87,9213,5,2,0:0:0:0:
330,53,9301,1,2,0:0:0:0:
396,73,9389,1,0,1:0:0:0:
425,134,9478,1,0,1:0:0:0:
471,166,9566,5,2,0:0:0:0:
409,147,9654,1,2,0:0:0:0:
362,171,9742,1,0,1:0:0:0:
351,225,9831,1,0,1:0:0:0:
380,290,9919,5,2,1:2:0:0:
412,294,10007,1,10,0:0:0:0:
431,273,10095,1,0,0:0:0:0:
421,240,10184,2,0,P|400:251|401:275,1,50,8|4,0:0|0:0,0:0:0:0:
481,343,10360,5,2,0:0:0:0:
465,350,10448,1,2,0:0:0:0:
451,358,10537,1,2,0:1:0:0:
443,373,10625,5,0,3:0:0:0:
422,359,10713,1,0,3:0:0:0:
404,363,10801,5,2,1:1:0:0:
408,349,10889,1,0,1:0:0:0:
386,352,10978,1,0,1:0:0:0:
362,366,11066,5,2,0:3:0:0:
341,339,11154,1,2,0:3:0:0:
330,349,11242,1,2,0:3:0:0:
317,348,11331,1,4,1:1:0:0:
288,365,11419,5,0,1:0:0:0:
275,337,11507,1,0,1:0:0:0:
236,327,11595,1,2,1:0:0:0:
206,338,11684,1,0,3:0:0:0:
212,370,11772,5,0,3:0:0:0:
252,328,11860,1,2,3:1:0:0:
221,263,11948,1,0,3:0:0:0:
156,285,12037,1,0,3:0:0:0:
146,344,12125,1,0,1:0:0:0:
80,359,12213,1,0,1:0:0:0:
34,316,12301,1,0,3:0:0:0:
41,271,12389,1,4,1:0:0:0:
67,290,12478,5,8,0:3:0:0:
131,260,12566,1,8,0:3:0:0:
154,180,12654,1,8,0:3:0:0:
108,108,12742,5,8,0:0:0:0:
138,187,12831,2,0,P|154:204|179:204,1,50,8|0,0:0|0:0,0:0:0:0:
363,119,13095,6,0,B|447:109|447:109|477:134,1,100,6|0,1:0|0:0,0:0:0:0:
494,97,13360,1,2,0:0:0:0:
484,153,13448,1,8,0:0:0:0:
321,227,13625,2,0,B|329:281|329:281|363:304|363:304|374:370,1,150,4|0,0:0|0:0,0:0:0:0:
351,374,13978,2,0,L|363:298,1,50,0|0,1:0|0:0,0:0:0:0:
438,267,14154,5,8,0:0:0:0:
417,118,14331,1,2,1:0:0:0:
260,77,14507,1,0,0:0:0:0:
296,146,14684,5,0,3:0:0:0:
346,154,14772,1,0,3:0:0:0:
375,186,14860,1,8,0:0:0:0:
374,225,14948,1,2,3:0:0:0:
337,261,15037,2,0,B|252:247|259:336|186:313,1,150,4|0,0:0|0:0,0:0:0:0:
204,316,15389,6,0,L|187:232,1,50,2|0,0:0|0:0,0:0:0:0:
80,192,15566,2,0,L|140:192,1,50,2|0,0:0|3:0,0:0:0:0:
204,68,15742,2,0,L|187:152,1,50,2|0,0:0|3:0,0:0:0:0:
50,212,15919,6,0,B|60:188|60:188|42:95,1,100,6|0,1:0|0:0,0:0:0:0:
17,47,16184,1,2,0:0:0:0:
55,69,16272,1,8,0:0:0:0:
0,272,16448,2,0,P|63:255|179:261,1,150,4|0,0:0|0:0,0:0:0:0:
216,268,16801,2,0,P|209:291|193:310,2,50,8|8|8,3:0|3:0|0:0,0:0:0:0:
346,126,17154,6,0,P|340:89|316:60,1,75.0000028610231,4|0,1:0|0:0,0:0:0:0:
337,57,17419,1,0,3:0:0:0:
350,70,17507,1,0,3:0:0:0:
359,89,17595,1,0,3:2:0:0:
360,110,17683,1,8,0:0:0:0:
291,276,17860,2,0,P|249:309|257:362,1,112.500004291535,2|0,1:2|0:0,0:0:0:0:
257,362,18213,6,0,L|306:341,1,50,8|0,0:0|0:0,0:0:0:0:
386,287,18389,1,8,0:0:0:0:
402,293,18477,1,8,0:0:0:0:
417,299,18565,1,8,0:3:0:0:
433,306,18653,1,4,0:3:0:0:
491,354,18742,6,0,B|511:304|511:304|489:262,1,100,6|0,1:0|0:0,0:0:0:0:
429,225,19007,1,2,0:0:0:0:
448,189,19095,1,8,0:0:0:0:
367,30,19272,2,0,B|300:79|300:79|349:171,1,150,4|0,0:0|0:0,0:0:0:0:
366,124,19625,2,0,L|333:185,1,50,0|0,1:0|0:0,0:0:0:0:
304,226,19801,5,8,0:0:0:0:
445,162,19978,1,2,1:0:0:0:
391,25,20154,1,2,0:0:0:0:
378,203,20331,5,0,3:0:0:0:
357,168,20419,1,0,3:0:0:0:
360,130,20507,1,8,0:0:0:0:
388,101,20595,1,2,0:3:0:0:
433,92,20684,2,0,P|420:152|319:140,1,150,4|0,0:0|0:0,0:0:0:0:
341,163,21037,6,0,P|344:136|350:113,1,50,2|0,0:0|0:0,0:0:0:0:
256,276,21213,2,0,L|256:348,1,50,2|0,0:0|1:0,0:0:0:0:
171,163,21389,2,0,P|168:136|161:113,1,50,2|0,0:0|1:0,0:0:0:0:
134,48,21566,6,0,B|93:73|93:73|80:155,1,100,6|0,1:0|0:0,0:0:0:0:
106,197,21831,1,2,0:0:0:0:
95,231,21920,1,8,0:0:0:0:
171,353,22095,2,0,B|146:308|70:316|70:316|44:350,1,150,4|0,0:0|0:0,0:0:0:0:
48,344,22448,2,0,P|44:311|91:336,1,100,0|8,1:0|0:0,0:0:0:0:
211,189,22801,2,0,P|203:211|181:203,1,50,2|0,1:0|0:0,0:0:0:0:
112,225,22978,5,2,0:0:0:0:
205,237,23154,1,0,1:0:0:0:
98,135,23331,1,8,0:0:0:0:
249,163,23507,2,0,B|282:156|282:156|299:180|299:180|308:178|308:178|313:149|313:149|364:138,1,150,4|0,0:0|0:0,0:0:0:0:
360,139,23860,6,0,P|364:159|345:149,1,50,8|0,0:0|0:0,0:0:0:0:
320,223,24037,1,8,0:0:0:0:
278,154,24125,1,8,0:0:0:0:
307,86,24213,1,8,0:0:0:0:
369,64,24301,1,8,0:0:0:0:
419,88,24389,5,4,1:0:0:0:
93,88,24566,1,0,0:0:0:0:
91,96,24654,6,0,L|97:71,1,25,2|0,0:0|0:0,0:0:0:0:
62,139,24830,2,0,L|57:114,1,25,2|0,0:0|0:0,0:0:0:0:
100,178,25007,2,0,L|114:135,1,25,2|0,0:0|0:0,0:0:0:0:
69,219,25183,2,0,L|58:183,1,25,2|0,0:0|0:0,0:0:0:0:
88,249,25360,1,2,0:0:0:0:
73,277,25448,1,2,0:0:0:0:
84,297,25536,1,2,0:0:0:0:
77,312,25625,1,2,0:0:0:0:
83,323,25713,1,2,0:0:0:0:
143,365,25801,5,0,0:0:0:0:
15,356,25978,1,2,0:0:0:0:
369,365,26154,5,0,0:0:0:0:
497,356,26331,1,2,0:0:0:0:
256,288,26507,5,2,0:0:0:0:
269,281,26595,5,4,1:0:0:0:
307,220,26684,1,2,1:0:0:0:
255,172,26772,1,0,1:0:0:0:
203,221,26860,1,4,1:2:0:0:
239,281,26948,2,0,P|265:253|269:225,1,50,2|0,1:0|0:0,0:0:0:0:
320,104,27213,6,0,P|368:93|418:90,1,100,6|2,1:0|0:0,0:0:0:0:
428,99,27478,1,0,0:0:0:0:
422,106,27566,1,8,0:0:0:0:
239,30,27742,1,2,0:0:0:0:
267,53,27831,1,0,0:0:0:0:
256,80,27919,1,0,0:0:0:0:
59,145,28095,1,2,0:0:0:0:
124,123,28183,1,0,0:0:0:0:
156,171,28271,1,8,0:0:0:0:
156,171,28448,6,0,P|147:194|143:218,1,50,2|0,0:0|0:0,0:0:0:0:
202,349,28625,1,0,1:0:0:0:
71,249,28801,2,0,P|81:269|141:287,1,50,2|0,0:0|0:0,0:0:0:0:
202,349,28978,1,8,0:0:0:0:
78,358,29154,2,0,L|139:348,1,50,2|0,1:2|0:0,0:0:0:0:
202,349,29331,2,0,L|263:339,1,50
368,377,29507,6,0,P|417:348|399:280,1,100,2|8,0:0|0:0,0:0:0:0:
348,309,29772,1,8,0:0:0:0:
461,180,29948,1,8,0:0:0:0:
461,180,30037,6,0,P|435:129|406:54,1,100,0|2,1:0|0:0,0:0:0:0:
450,27,30301,2,0,P|471:39|483:61,1,50,0|8,0:0|0:0,0:0:0:0:
361,203,30566,1,2,0:0:0:0:
393,215,30654,2,0,P|373:234|321:222,1,50
206,137,30919,1,2,0:0:0:0:
208,159,31007,2,0,P|187:146|192:123,1,50,0|8,0:0|0:0,0:0:0:0:
269,31,31272,6,0,P|234:137|224:249,1,225.000008583069,2|0,0:1|0:0,0:0:0:0:
224,249,31625,2,0,P|246:250|241:228,2,50,2|0|8,0:0|0:0|0:0,0:0:0:0:
162,38,31978,6,0,P|156:112|180:183,1,150,2|0,0:1|0:0,0:0:0:0:
208,249,32331,1,0,1:0:0:0:
233,260,32420,1,0,1:0:0:0:
253,242,32508,1,8,0:0:0:0:
243,217,32596,1,8,0:0:0:0:
159,336,32772,1,8,0:0:0:0:
159,336,32860,6,0,P|103:318|45:313,1,100,0|2,1:0|0:0,0:0:0:0:
50,322,33125,1,0,0:0:0:0:
61,328,33213,1,8,0:0:0:0:
213,253,33389,1,2,0:0:0:0:
192,226,33478,1,0,0:0:0:0:
163,239,33566,1,0,0:0:0:0:
373,342,33742,1,2,0:0:0:0:
391,289,33831,1,0,0:0:0:0:
330,265,33919,1,8,0:0:0:0:
330,265,34095,6,0,P|338:231|372:184,1,50,2|0,0:0|0:0,0:0:0:0:
265,93,34272,1,0,1:0:0:0:
347,147,34448,2,0,P|370:146|407:175,1,50,2|0,0:0|0:0,0:0:0:0:
265,93,34625,1,8,0:0:0:0:
404,31,34801,2,0,P|393:53|387:78,1,50,2|0,1:2|0:0,0:0:0:0:
265,93,34978,2,0,P|265:57|290:6,1,50
159,147,35154,6,0,P|134:146|101:74,1,100,2|8,0:0|0:0,0:0:0:0:
167,78,35419,1,8,0:0:0:0:
40,330,35595,1,8,0:0:0:0:
40,330,35684,6,0,P|85:298|158:270,1,100,0|2,1:0|0:0,0:0:0:0:
193,293,35948,2,0,P|186:316|169:334,1,50,0|8,0:0|0:0,0:0:0:0:
57,218,36213,2,0,B|31:128|103:156|73:34,1,150,2|0,0:0|0:0,0:0:0:0:
79,74,36566,2,0,P|71:45|37:20,2,50,2|0|8,0:0|0:0|0:0,0:0:0:0:
123,184,36919,5,2,0:0:0:0:
140,199,37007,1,0,0:0:0:0:
159,192,37095,1,0,1:0:0:0:
160,77,37272,5,2,3:0:0:0:
160,57,37360,1,2,3:0:0:0:
160,77,37448,1,8,0:0:0:0:
133,275,37625,6,2,P|142:184|159:76,1,200,2|8,0:1|0:0,0:1:0:0:
227,59,38066,1,8,0:0:0:0:
276,111,38154,1,8,0:0:0:0:
249,178,38242,1,8,0:0:0:0:
245,326,38419,1,8,0:0:0:0:
304,365,38507,6,0,P|349:363|419:338,1,100,4|2,1:0|0:0,0:0:0:0:
414,330,38772,1,0,0:0:0:0:
403,325,38860,1,8,0:0:0:0:
475,226,39037,1,2,0:0:0:0:
473,189,39125,1,0,0:0:0:0:
437,181,39213,1,0,0:0:0:0:
473,64,39389,1,2,0:0:0:0:
429,31,39478,1,0,0:0:0:0:
382,66,39566,1,8,0:0:0:0:
376,258,39742,6,0,P|369:235|366:209,1,50,2|0,0:0|0:0,0:0:0:0:
304,83,39919,1,0,1:0:0:0:
304,83,40095,2,0,P|320:119|366:132,1,50,2|0,0:0|0:0,0:0:0:0:
298,275,40272,1,8,0:0:0:0:
298,275,40448,2,0,P|291:233|275:203,1,50,2|0,1:2|0:0,0:0:0:0:
303,82,40625,2,0,P|312:106|304:129,1,50
229,163,40801,6,0,B|156:143|156:143|119:160,1,100,2|8,0:0|0:0,0:0:0:0:
79,195,41066,1,8,0:0:0:0:
93,213,41154,1,8,1:2:0:0:
86,234,41242,1,8,0:0:0:0:
71,219,41331,6,0,P|93:164|101:96,1,100,0|2,0:0|0:0,0:0:0:0:
135,63,41595,2,0,P|124:41|103:29,1,50,0|8,0:0|0:0,0:0:0:0:
223,145,41860,1,2,0:0:0:0:
228,170,41948,2,0,P|244:151|242:127,1,50
207,297,42213,1,2,0:0:0:0:
195,320,42301,2,0,P|218:323|229:302,1,50,0|8,0:0|0:0,0:0:0:0:
93,204,42566,6,0,B|173:271|189:183|299:227|306:309,1,225.000008583069,2|0,0:1|0:0,0:0:0:0:
294,272,42919,2,0,P|315:263|305:243,2,50,2|0|8,0:0|0:0|0:0,0:0:0:0:
140,101,43272,6,0,B|184:177|203:120|253:220,1,150,2|0,0:1|0:0,0:0:0:0:
305,243,43625,1,0,1:0:0:0:
469,57,43801,1,8,0:0:0:0:
400,67,43889,1,8,0:0:0:0:
457,156,44066,1,8,0:0:0:0:
432,159,44154,6,0,P|385:140|335:136,1,100,0|2,1:0|0:0,0:0:0:0:
311,154,44419,1,0,0:0:0:0:
327,159,44507,1,8,0:0:0:0:
193,92,44684,1,2,0:0:0:0:
153,124,44772,1,0,0:0:0:0:
185,162,44860,1,0,0:0:0:0:
36,231,45037,1,2,0:0:0:0:
74,278,45125,1,0,0:0:0:0:
139,265,45213,1,8,0:0:0:0:
57,155,45389,6,0,P|80:166|97:184,1,50,2|0,0:0|0:0,0:0:0:0:
182,330,45566,1,0,1:0:0:0:
182,330,45742,2,0,P|157:333|135:345,1,50,2|0,0:0|0:0,0:0:0:0:
161,137,45919,1,8,0:0:0:0:
161,137,46095,2,0,P|174:183|161:225,1,50,2|0,1:2|0:0,0:0:0:0:
78,297,46272,2,0,P|103:297|124:310,1,50
249,161,46448,6,0,P|248:210|227:255,1,100,2|8,0:0|0:0,0:0:0:0:
227,255,46713,1,8,0:0:0:0:
88,80,46889,1,8,0:0:0:0:
88,80,46978,6,0,P|114:33|172:55,1,100,0|2,1:0|0:0,0:0:0:0:
215,75,47242,1,0,0:0:0:0:
255,64,47331,2,0,L|341:48,1,50,8|0,0:0|0:0,0:0:0:0:
454,47,47507,6,0,P|416:117|347:75,1,150,2|0,1:0|0:0,0:0:0:0:
304,54,47860,2,0,L|255:64,2,50,2|0|8,0:0|0:0|0:0,0:0:0:0:
286,217,48213,5,2,0:0:0:0:
290,197,48301,1,0,0:0:0:0:
238,153,48389,6,0,L|262:288,1,100,0|2,1:0|0:0,0:0:0:0:
319,293,48654,1,0,0:0:0:0:
319,293,48742,2,0,P|299:325|253:321,1,50,8|0,0:0|0:0,0:0:0:0:
106,292,48919,6,2,B|194:284|131:216|129:179|287:185|273:256|171:274|236:349|301:325,1,300.000011444092,2|0,0:1|1:1,0:1:0:0:
319,293,49360,1,0,1:0:0:0:
369,282,49448,1,8,0:0:0:0:
412,294,49537,1,0,1:0:0:0:
397,314,49625,5,0,1:0:0:0:
357,312,49713,1,8,0:0:0:0:
327,337,49801,1,4,0:0:0:0:
327,337,50154,6,0,L|342:238,2,66.6666666666667,0|8|0,1:0|0:0|0:0,0:0:0:0:
318,244,50507,2,0,L|300:138,2,66.6666666666667,0|2|2,1:0|0:3|0:0,0:0:0:0:
357,75,50860,1,8,0:0:0:0:
344,148,50978,1,0,0:0:0:0:
364,77,51095,1,0,0:0:0:0:
297,29,51213,6,0,L|287:64,1,33.3333333333333,8|0,0:0|0:0,0:0:0:0:
220,48,51331,2,0,L|210:83,1,33.3333333333333,8|8,0:0|0:0,0:0:0:0:
142,67,51448,1,0,1:0:0:0:
142,67,51566,5,8,3:0:0:0:
211,152,51684,1,2,0:3:0:0:
134,99,51801,1,8,0:0:0:0:
204,174,51919,6,8,L|194:209,2,33.3333333333333,8|8|8,3:0|3:0|3:0,3:0:0:0:
128,235,52095,2,0,L|172:297,1,50,0|0,1:0|0:0,0:0:0:0:
54,323,52272,6,8,L|82:330,1,25,8|0,0:0|0:0,0:0:0:0:
70,343,52360,2,8,L|98:350,1,25,8|0,0:0|0:0,0:0:0:0:
113,342,52448,6,8,L|141:349,1,25,8|0,0:0|0:0,0:0:0:0:
132,363,52536,2,8,L|160:370,1,25,8|0,0:0|0:0,0:0:0:0:
185,364,52625,5,0,1:0:0:0:
248,337,52713,1,0,1:0:0:0:
257,266,52801,1,0,1:0:0:0:
206,221,52889,5,4,1:2:0:0:
139,244,52978,1,0,3:0:0:0:
132,299,53066,1,0,3:0:0:0:
174,321,53154,1,0,3:0:0:0:
213,296,53242,5,4,1:0:0:0:
207,253,53331,1,2,0:0:0:0:
169,237,53419,1,2,0:0:0:0:
147,261,53507,1,0,0:0:0:0:
164,286,53595,1,2,0:0:0:0:
192,283,53684,1,2,0:0:0:0:
194,263,53772,1,0,0:0:0:0:
178,259,53860,2,0,L|154:274,2,25,8|8|8,0:0|0:0|0:0,0:0:0:0:
178,259,54037,6,0,B|214:246|244:267|235:271|271:294|306:281,1,133.333333333333,4|0,0:0|0:0,0:0:0:0:
374,247,54389,1,0,1:0:0:0:
371,323,54507,5,8,0:0:0:0:
313,205,54625,1,0,1:0:0:0:
444,221,54742,5,8,3:0:0:0:
349,318,54860,1,0,1:0:0:0:
328,190,54978,5,4,3:0:0:0:
447,247,55095,1,0,1:0:0:0:
69,375,55272,5,8,0:0:0:0:
57,368,55389,2,0,P|61:310|98:255,1,100,4|0,1:2|0:0,0:0:0:0:
80,273,55684,5,8,0:0:0:0:
2,226,55801,2,0,P|38:180|105:154,1,125,6|0,1:0|0:0,0:0:0:0:
98,154,56037,5,8,0:0:0:0:
74,58,56154,2,0,P|148:41|216:63,1,150.000005722046,4|0,1:2|0:0,0:0:0:0:
216,63,56389,5,8,0:0:0:0:
337,9,56507,2,0,P|460:92|463:230,1,291.666669448217,6|0,1:0|0:0,0:0:0:0:
466,224,57213,6,0,B|363:178|332:315|224:256,1,250.000009536744,4|0,0:0|3:0,0:0:0:0:
187,316,57919,2,0,L|197:351,1,25.0000009536744,2|0,0:0|0:0,0:0:0:0:
100,176,58271,2,0,L|121:119,2,50.0000019073487,0|0|0,3:0|0:0|0:0,0:0:0:0:
35,198,58624,5,2,0:0:0:0:
44,254,58742,1,0,0:0:0:0:
113,268,58860,5,2,0:0:0:0:
136,202,58977,1,0,0:0:0:0:
210,270,59095,5,2,0:0:0:0:
167,308,59213,1,0,0:0:0:0:
203,368,59330,5,2,0:0:0:0:
237,367,59448,1,0,0:0:0:0:
300,336,59565,6,0,L|289:276,2,50.0000019073487,2|0|0,0:0|0:0|0:0,0:0:0:0:
283,248,59918,1,0,1:0:0:0:
309,199,60036,1,0,0:0:0:0:
362,191,60154,1,0,0:0:0:0:
399,214,60271,1,0,0:0:0:0:
465,184,60389,6,0,L|472:133,1,50.0000019073487,2|0,1:2|0:0,0:0:0:0:
414,94,60625,1,2,0:0:0:0:
431,30,60742,1,8,0:0:0:0:
397,70,60860,1,2,0:0:0:0:
405,40,60977,1,0,0:0:0:0:
330,90,61095,6,0,L|347:253,1,150.000005722046,0|0,1:0|0:0,0:0:0:0:
345,239,61360,1,2,0:0:0:0:
269,244,61536,6,0,L|254:119,1,125,0|0,1:0|0:0,0:0:0:0:
254,119,61801,1,2,0:0:0:0:
178,155,61977,6,0,L|196:272,1,100,0|0,1:0|0:0,0:0:0:0:
193,253,62242,1,2,0:0:0:0:
120,265,62418,6,0,L|106:182,1,75.0000028610231,0|0,1:0|0:0,0:0:0:0:
108,192,62683,1,2,0:0:0:0:
56,46,62860,5,0,0:0:0:0:
58,40,62948,2,0,L|64:16,4,18.7500007152558,2|2|2|2|2,0:0|0:0|0:0|0:0|0:0,0:0:0:0:
38,113,63213,5,2,0:0:0:0:
82,165,63301,1,0,0:0:0:0:
148,147,63389,1,0,0:0:0:0:
159,80,63477,1,0,0:0:0:0:
211,51,63565,1,8,0:0:0:0:
270,75,63654,1,0,0:0:0:0:
271,134,63742,1,0,0:0:0:0:
219,164,63830,5,0,1:0:0:0:
187,150,63918,1,2,0:0:0:0:
183,119,64007,1,2,0:0:0:0:
212,97,64095,1,2,0:0:0:0:
240,112,64183,1,2,0:0:0:0:
243,145,64271,1,2,1:1:0:0:
51,313,64507,6,0,L|65:220,1,50.0000019073487,2|0,1:2|0:0,0:0:0:0:
126,334,64742,2,0,L|93:296,1,50.0000019073487,0|0,1:0|0:0,0:0:0:0:
184,290,64977,2,0,L|101:292,1,50.0000019073487,2|0,1:2|0:0,0:0:0:0:
328,290,65213,2,0,L|411:292,1,50.0000019073487,2|0,0:0|0:0,0:0:0:0:
381,238,65448,1,2,0:0:0:0:
419,284,65565,1,2,0:0:0:0:
459,214,65684,5,4,0:0:0:0:
449,306,65801,1,0,1:0:0:0:
448,341,65918,1,8,0:0:0:0:
378,368,66036,6,0,P|341:344|300:347,2,50.0000019073487,0|0|8,1:0|0:0|0:0,0:0:0:0:
338,228,66389,1,2,0:0:0:0:
265,209,66507,1,0,1:0:0:0:
284,284,66624,1,8,0:0:0:0:
255,218,66742,5,4,1:0:0:0:
336,214,66860,1,2,0:0:0:0:
297,287,66978,1,8,0:0:0:0:
186,254,67095,5,8,0:0:0:0:
148,184,67213,2,0,P|148:159|160:137,1,50.0000019073487,0|0,1:0|0:0,0:0:0:0:
295,94,67448,1,8,0:0:0:0:
231,37,67565,1,0,1:0:0:0:
376,69,67684,6,0,L|465:49,1,50.0000019073487,2|2,1:0|0:0,0:0:0:0:
242,165,67918,1,0,1:0:0:0:
371,288,68036,1,2,1:0:0:0:
429,218,68154,5,6,0:0:0:0:
298,252,68271,1,8,0:0:0:0:
319,374,68389,5,0,0:0:0:0:
286,250,68507,1,0,1:0:0:0:
413,216,68624,5,8,0:0:0:0:
275,248,68742,1,8,0:0:0:0:
126,274,68860,5,0,1:0:0:0:
142,189,68977,1,0,1:0:0:0:
65,163,69095,5,8,0:0:0:0:
150,181,69213,2,0,L|192:187,1,25.0000009536744,0|0,1:0|1:0,0:0:0:0:
161,90,69330,6,8,L|168:54,1,25.0000009536744
250,103,69448,2,8,L|292:109,1,25.0000009536744
268,10,69566,6,0,B|387:29|314:56|456:72,1,166.666666666667,6|0,1:0|0:0,0:0:0:0:
490,193,69919,1,0,1:0:0:0:
337,248,70037,1,8,0:0:0:0:
417,102,70154,1,0,1:0:0:0:
486,226,70272,2,0,P|472:293|346:252,2,166.666666666667,2|0|8,0:0|1:0|0:0,0:0:0:0:
247,334,70978,6,0,P|287:341|322:364,1,83.3333333333333,0|0,1:0|0:0,0:0:0:0:
154,333,71213,2,0,P|196:330|231:278,1,83.3333333333333,2|0,0:0|1:0,0:0:0:0:
103,236,71448,1,8,0:0:0:0:
40,376,71566,1,0,1:0:0:0:
207,277,71684,6,0,P|207:207|149:178,1,125,0|0,1:0|0:0,0:0:0:0:
147,77,71919,2,0,P|86:112|90:176,1,125,2|0,1:2|0:0,0:0:0:0:
5,232,72154,2,0,P|65:267|119:231,1,125,10|0,0:0|0:0,0:0:0:0:
110,245,72389,6,0,P|101:163|84:80,1,166.666666666667,2|0,1:0|0:0,0:0:0:0:
28,25,72742,1,2,1:2:0:0:
5,155,72860,1,8,0:0:0:0:
185,61,72978,1,0,1:0:0:0:
20,44,73095,2,0,P|23:123|97:152,2,166.666666666667,0|0|8,1:0|1:0|0:0,0:0:0:0:
317,16,73801,5,0,1:0:0:0:
342,100,73919,1,2,0:0:0:0:
281,165,74037,1,8,0:0:0:0:
173,74,74154,5,2,0:0:0:0:
224,1,74272,1,8,0:0:0:0:
312,11,74390,1,0,1:0:0:0:
349,95,74507,6,0,P|333:156|325:218,1,125,0|0,1:0|0:0,0:0:0:0:
338,291,74742,2,0,B|354:222|341:243|359:168,1,125,2|0,1:0|0:0,0:0:0:0:
368,243,74978,2,0,P|360:305|346:365,1,125,12|0,0:0|0:0,0:0:0:0:
345,365,75213,6,0,P|404:376|456:273,1,166.666666666667,6|2,1:0|0:0,0:0:0:0:
433,172,75566,1,0,1:0:0:0:
402,48,75684,1,8,0:0:0:0:
512,181,75801,5,0,1:0:0:0:
384,297,75919,2,0,P|346:279|305:275,1,83.3333333333333,0|0,1:0|0:0,0:0:0:0:
268,88,76154,2,0,P|225:118|217:179,1,83.3333333333333,0|2,1:0|0:0,0:0:0:0:
41,84,76389,2,0,P|30:122|57:151,1,83.3333333333333,8|0,0:0|0:0,0:0:0:0:
115,101,76625,5,2,1:2:0:0:
75,225,76742,1,2,0:0:0:0:
167,310,76860,1,0,1:2:0:0:
98,219,76978,1,2,0:0:0:0:
149,116,77095,1,8,0:0:0:0:
123,214,77213,1,2,0:0:0:0:
191,285,77331,6,0,P|247:270|296:316,1,125,0|0,1:0|0:0,0:0:0:0:
380,359,77566,2,0,P|339:318|354:253,1,125,2|0,1:2|0:0,0:0:0:0:
350,160,77801,2,0,P|334:214|271:234,1,125,10|0,0:0|0:0,0:0:0:0:
273,234,78037,6,0,B|228:134|269:174|223:73,1,166.666666666667,2|2,1:0|0:0,0:0:0:0:
92,165,78389,1,0,1:0:0:0:
165,304,78507,1,8,0:0:0:0:
135,86,78625,5,0,1:0:0:0:
313,23,78742,2,0,P|355:30|391:72,1,83.3333333333333,0|0,1:0|0:0,0:0:0:0:
364,237,78978,2,0,P|356:198|321:177,1,83.3333333333333,0|0,1:0|0:0,0:0:0:0:
240,292,79213,2,0,P|224:331|180:335,1,83.3333333333333,8|0,0:0|0:0,0:0:0:0:
174,195,79448,5,4,1:0:0:0:
327,305,79566,1,0,0:0:0:0:
496,249,79684,1,8,0:0:0:0:
234,145,79801,5,4,1:2:0:0:
331,281,79919,1,0,0:0:0:0:
461,180,80037,1,8,0:0:0:0:
291,92,80154,5,4,1:0:0:0:
334,259,80272,2,8,L|343:192,2,41.6666666666667
424,115,80507,1,8,0:0:0:0:
350,48,80625,6,0,L|379:20,1,41.6666666666667,0|0,1:0|1:0,1:0:0:0:
385,55,80742,2,0,L|370:15,1,41.6666666666667,0|0,1:0|1:0,1:0:0:0:
363,69,80860,6,0,L|355:118,1,50,4|0,1:0|0:0,0:0:0:0:
401,277,81037,1,2,0:0:0:0:
415,303,81125,1,0,0:0:0:0:
461,308,81213,1,8,0:0:0:0:
486,268,81301,1,0,0:0:0:0:
463,219,81389,5,2,0:0:0:0:
394,216,81478,1,0,0:0:0:0:
333,258,81566,1,0,0:0:0:0:
309,322,81654,1,0,0:0:0:0:
240,352,81742,5,2,1:2:0:0:
211,346,81831,1,0,0:0:0:0:
202,323,81919,1,8,0:0:0:0:
216,302,82007,1,0,0:0:0:0:
260,242,82095,5,2,0:0:0:0:
256,236,82184,1,0,0:0:0:0:
188,202,82272,6,0,L|210:138,1,50,0|0,1:0|0:0,0:0:0:0:
30,47,82448,1,2,0:0:0:0:
95,16,82537,2,0,P|109:39|109:92,1,50,0|8,1:0|0:0,0:0:0:0:
127,161,82713,1,0,0:0:0:0:
102,219,82801,1,2,0:0:0:0:
45,228,82889,1,0,0:0:0:0:
6,207,82978,5,0,1:0:0:0:
17,203,83066,1,0,1:0:0:0:
34,204,83154,1,2,1:2:0:0:
49,213,83242,1,8,0:0:0:0:
76,249,83331,5,8,0:0:0:0:
80,210,83419,1,0,1:0:0:0:
113,181,83507,1,2,0:0:0:0:
164,173,83595,1,0,1:0:0:0:
231,199,83684,1,0,1:0:0:0:
260,264,83772,5,0,0:0:0:0:
250,269,83860,1,2,0:0:0:0:
257,278,83948,1,0,0:0:0:0:
261,296,84037,5,8,0:0:0:0:
218,257,84125,1,0,0:0:0:0:
278,242,84213,1,2,0:0:0:0:
336,291,84301,5,0,0:0:0:0:
338,283,84389,2,0,L|324:353,1,50,0|0,1:0|0:0,0:0:0:0:
313,103,84566,2,0,L|297:55,1,50,2|0,1:2|0:0,0:0:0:0:
355,7,84742,5,8,0:0:0:0:
378,72,84831,1,0,0:0:0:0:
395,126,84919,1,2,0:0:0:0:
405,171,85007,1,0,0:0:0:0:
410,244,85095,5,2,1:0:0:0:
439,258,85184,1,0,0:0:0:0:
460,232,85272,1,2,0:0:0:0:
472,242,85360,5,8,0:0:0:0:
442,271,85449,1,2,0:1:0:0:
405,261,85537,1,0,1:0:0:0:
399,278,85625,5,10,0:0:0:0:
446,285,85713,1,0,0:0:0:0:
483,253,85801,1,0,1:0:0:0:
491,199,85889,1,2,0:0:0:0:
458,146,85978,1,0,1:0:0:0:
393,130,86066,1,2,0:0:0:0:
327,166,86154,1,8,0:0:0:0:
308,236,86242,1,8,0:0:0:0:
341,303,86331,1,8,0:0:0:0:
418,320,86419,1,8,0:0:0:0:
428,307,86507,5,4,1:2:0:0:
406,306,86595,1,0,0:0:0:0:
380,317,86684,1,2,0:0:0:0:
363,341,86772,1,0,0:0:0:0:
293,369,86860,6,0,L|216:350,1,50,8|0,0:0|0:0,0:0:0:0:
146,247,87037,1,2,1:2:0:0:
129,252,87125,1,0,0:0:0:0:
77,203,87213,5,2,1:0:0:0:
61,275,87301,1,2,0:0:0:0:
114,320,87389,1,2,0:0:0:0:
177,305,87478,1,2,0:0:0:0:
195,243,87566,1,8,0:0:0:0:
151,186,87654,1,2,0:0:0:0:
105,130,87742,1,2,0:0:0:0:
138,68,87831,1,2,0:0:0:0:
209,84,87919,1,2,1:0:0:0:
221,157,88007,5,0,3:0:0:0:
241,161,88095,1,2,3:2:0:0:
255,147,88184,1,0,3:0:0:0:
276,153,88272,6,0,P|279:126|288:104,1,50,8|0,0:0|0:0,0:0:0:0:
334,279,88448,2,0,P|327:253|312:233,1,50,2|0,0:0|0:0,0:0:0:0:
433,339,88625,5,2,1:0:0:0:
468,356,88713,1,2,1:0:0:0:
504,346,88801,5,2,0:0:0:0:
458,313,88889,1,2,0:0:0:0:
403,309,88978,1,8,0:0:0:0:
354,334,89066,1,2,0:0:0:0:
317,365,89154,1,2,0:0:0:0:
252,372,89242,1,2,0:0:0:0:
196,332,89331,5,4,1:0:0:0:
205,323,89419,1,0,0:0:0:0:
208,311,89507,2,0,P|205:284|195:262,1,50,2|0,0:0|0:0,0:0:0:0:
210,40,89684,5,8,0:0:0:0:
197,79,89772,1,2,0:0:0:0:
225,54,89860,1,2,0:0:0:0:
214,78,89948,1,2,0:0:0:0:
234,71,90037,5,4,0:0:0:0:
276,128,90125,1,0,0:0:0:0:
258,197,90213,1,0,0:0:0:0:
190,218,90301,1,2,0:0:0:0:
126,183,90389,5,8,1:2:0:0:
184,231,90478,1,8,0:0:0:0:
268,207,90566,1,8,0:0:0:0:
295,125,90654,1,8,0:0:0:0:
248,60,90742,6,0,B|201:34|124:64|177:96|95:145|36:107,1,200,4|0,1:0|0:0,0:0:0:0:
60,106,91007,2,0,P|108:102|141:66,1,100,4|0,1:2|0:0,0:0:0:0:
141,66,91272,1,0,1:0:0:0:
21,334,91537,1,0,1:0:0:0:
33,266,91625,6,0,L|45:187,1,50,8|0,0:0|0:0,0:0:0:0:
96,324,91801,1,8,0:0:0:0:
102,295,91889,6,0,L|111:220,1,50,0|0,1:0|0:0,0:0:0:0:
168,322,92066,1,8,0:0:0:0:
173,313,92154,5,0,1:0:0:0:
173,313,92507,2,0,B|192:266|287:282|261:328|333:365|365:316,1,200,2|0,1:0|0:0,0:0:0:0:
353,316,92772,2,0,P|295:322|262:372,1,100,4|0,1:2|0:0,0:0:0:0:
268,350,93037,1,8,0:0:0:0:
466,205,93213,5,8,0:0:0:0:
441,166,93301,1,8,0:0:0:0:
393,177,93389,1,8,3:0:0:0:
391,228,93478,1,8,3:0:0:0:
425,200,93566,5,0,1:0:0:0:
425,200,93919,2,0,B|440:145|440:145|381:88|381:88|399:27,1,200,4|0,1:0|0:0,0:0:0:0:
419,18,94184,2,0,B|406:65|406:65|375:23,1,100,4|0,1:2|0:0,0:0:0:0:
375,23,94448,1,8,0:0:0:0:
229,122,94625,1,8,0:0:0:0:
157,108,94713,6,0,L|93:95,1,50,0|0,1:0|0:0,0:0:0:0:
192,186,94889,1,8,0:0:0:0:
166,181,94978,5,0,1:0:0:0:
166,181,95331,2,0,B|181:236|181:236|122:293|122:293|140:354,1,200,2|0,1:0|0:0,0:0:0:0:
152,356,95595,2,0,L|137:307,1,50,4|0,1:2|0:0,0:0:0:0:
70,239,95801,6,0,P|43:257|43:290,1,66.6666666666667,8|4,0:0|3:0,0:0:0:0:
228,365,96037,2,0,P|254:346|254:313,1,66.6666666666667,8|8,0:0|3:0,0:0:0:0:
185,210,96272,1,8,0:0:0:0:
170,247,96389,2,0,B|222:164|157:210|228:108,1,133.333333333333,0|8,1:0|0:0,0:0:0:0:
171,67,96742,5,2,0:3:0:0:
102,96,96860,2,0,L|114:137,2,33.3333333333333,2|2|8,0:3|0:3|0:3,0:3:0:0:
30,116,97095,1,4,0:3:0:0:
281,189,97331,1,8,0:0:0:0:
293,152,97448,5,0,0:0:0:0:
363,177,97566,1,2,0:0:0:0:
355,203,97684,1,2,0:0:0:0:
425,230,97801,2,0,L|435:199,2,33.3333333333333,8|0|8,3:0|3:0|0:0,0:0:0:0:
239,327,98154,1,4,3:0:0:0:
229,289,98272,5,8,0:0:0:0:
156,315,98389,1,8,0:0:0:0:
82,339,98507,1,2,3:0:0:0:
35,282,98625,6,0,L|47:238,1,33.3333333333333,8|0,0:0|0:0,0:0:0:0:
50,270,98742,2,0,L|59:237,1,33.3333333333333,8|0,0:0|0:0,0:0:0:0:
202,121,99095,6,0,B|189:72|189:72|141:83,1,100.000003814697,0|0,1:0|0:0,0:0:0:0:
141,82,99448,2,0,L|151:131,1,50.0000019073487,4|0,3:0|0:0,0:0:0:0:
207,186,99684,2,0,L|169:219,1,50.0000019073487,8|0,3:0|0:0,0:0:0:0:
155,293,99919,1,0,1:0:0:0:
129,283,100037,2,0,L|88:268,2,25.0000009536744,8|2|2,0:0|3:0|3:0,0:0:0:0:
239,324,100272,6,0,B|308:344|260:341|346:364,1,100.000003814697,0|4,1:0|3:0,0:0:0:0:
331,360,100625,1,8,0:0:0:0:
387,312,100742,1,8,0:0:0:0:
345,253,100860,5,8,0:0:0:0:
397,199,100978,2,0,P|389:177|386:150,1,50.0000019073487,8|0,0:0|1:0,0:0:0:0:
250,158,101213,5,8,0:0:0:0:
274,153,101331,2,0,P|278:122|292:86,1,50.0000019073487,0|0,1:0|0:0,0:0:0:0:
195,39,101566,5,8,3:0:0:0:
207,43,101684,1,8,3:0:0:0:
148,95,101801,2,0,L|110:110,2,25.0000009536744,8|2|2,0:0|3:0|3:0,0:0:0:0:
342,33,102037,5,8,0:0:0:0:
329,38,102154,2,0,L|384:16,2,50.0000019073487,4|8|8,3:0|3:0|3:0,0:0:0:0:
57,128,102625,1,0,1:0:0:0:
177,205,102742,6,0,B|117:173|117:173|65:217|65:217|9:188,2,200.000007629395,2|2|2,1:0|1:1|1:0,0:0:0:0:
446,359,103448,1,4,1:2:0:0:
256,192,103537,12,0,104860,0:0:0:0:
