osu file format v14

[General]
AudioFilename: audio.mp3
AudioLeadIn: 0
PreviewTime: 104412
Countdown: 0
SampleSet: Soft
StackLeniency: 0.3
Mode: 0
LetterboxInBreaks: 0
WidescreenStoryboard: 1

[Editor]
DistanceSpacing: 2
BeatDivisor: 4
GridSize: 32
TimelineZoom: 1.1

[Metadata]
Title:Opening Sequence
TitleUnicode:Opening Sequence
Artist:TOMORROW X TOGETHER
ArtistUnicode:투모로우바이투게더
Creator:Sani_
Version:NORMAL SEQUENCE
Source:
Tags:minisode 2 : Thursday's Child Soul txt kpop korean pop k-pop soobin yeonjun beomgyu taehyun hueningkai 수빈 연준 범규 태현 휴닝카이 hannody
BeatmapID:4428193
BeatmapSetID:2109635

[Difficulty]
HPDrainRate:4
CircleSize:3
OverallDifficulty:4
ApproachRate:5.5
SliderMultiplier:2.8
SliderTickRate:1

[Events]
//Background and Video events
0,0,"boy.jpg",0,0
//Break Periods
2,93335,101715
2,132653,141026
//Storyboard Layer 0 (Background)
//Storyboard Layer 1 (Fail)
//Storyboard Layer 2 (Pass)
//Storyboard Layer 3 (Foreground)
//Storyboard Layer 4 (Overlay)
//Storyboard Sound Samples

[TimingPoints]
220,827.586206896552,4,2,1,80,1,0
13461,-111.111111111111,4,2,1,60,0,0
21944,-111.111111111111,4,2,1,60,0,0
22151,-111.111111111111,4,2,1,60,0,0
26702,-111.111111111111,4,2,1,70,0,0
39944,-90.9090909090908,4,2,2,80,0,1
52771,-90.9090909090908,4,2,2,80,0,0
53185,-90.9090909090908,4,2,2,80,0,1
63323,-90.9090909090908,4,2,2,80,0,1
63737,-90.9090909090908,4,2,2,80,0,1
65599,-100,4,2,2,80,0,0
66426,-100,4,2,10,70,0,0
71599,-100,4,2,10,70,0,0
71806,-100,4,2,10,70,0,0
74909,-100,4,2,10,70,0,0
75116,-100,4,2,10,70,0,0
79668,-100,4,2,2,80,0,0
86702,-100,4,2,2,80,0,0
86909,-100,4,2,2,80,0,0
90013,-100,4,2,2,80,0,0
90426,-100,4,2,2,80,0,0
92909,-100,4,2,2,60,0,0
106151,-90.9090909090909,4,2,2,80,0,1
118978,-90.9090909090909,4,2,2,80,0,0
119392,-90.9090909090909,4,2,2,80,0,1
129737,-90.9090909090909,4,2,2,80,0,1
129944,-90.9090909090909,4,2,2,80,0,1
132633,-111.111111111111,4,2,2,40,0,0
144220,-111.111111111111,4,2,2,60,0,0
145875,-111.111111111111,4,2,9,60,0,0
146288,-111.111111111111,4,2,9,60,0,0
146702,-111.111111111111,4,2,9,5,0,0
146909,-111.111111111111,4,2,9,60,0,0
148564,-111.111111111111,4,2,9,60,0,0
148978,-111.111111111111,4,2,9,60,0,0
149185,-111.111111111111,4,2,9,60,0,0
149599,-111.111111111111,4,2,9,60,0,0
150013,-111.111111111111,4,2,9,5,0,0
150220,-111.111111111111,4,2,9,60,0,0
152082,-111.111111111111,4,2,9,60,0,0
152288,-111.111111111111,4,2,9,60,0,0
152702,-111.111111111111,4,2,9,60,0,0
153323,-111.111111111111,4,2,9,5,0,0
153530,-111.111111111111,4,2,9,60,0,0
155392,-111.111111111111,4,2,9,60,0,0
155599,-111.111111111111,4,2,9,60,0,0
155806,-111.111111111111,4,2,9,60,0,0
155909,-111.111111111111,4,2,2,60,0,0
157875,-111.111111111111,4,2,10,60,0,0
158288,-111.111111111111,4,2,11,80,0,0
158294,-111.111111111111,4,2,11,80,0,0
158314,-111.111111111111,4,2,2,59,0,0
159116,-90.9090909090909,4,2,2,80,0,1
169461,-90.9090909090909,4,2,2,80,0,1
169668,-90.9090909090909,4,2,2,80,0,1
172357,-90.9090909090909,4,2,2,80,0,0

[Colours]
Combo1 : 128,255,255
Combo2 : 0,128,255
SliderTrackOverride : 0,0,0
SliderBorder : 220,240,255

[HitObjects]
466,64,13461,6,0,P|424:20|361:11,2,125.999996154785,2|2|10,0:2|0:2|0:2,0:0:0:0:
351,236,15116,2,0,P|365:162|374:108,1,125.999996154785,2|2,0:2|0:2,0:0:0:0:
271,30,15944,1,10,0:2:0:0:
157,103,16357,1,2,0:2:0:0:
191,232,16771,6,0,B|255:252|217:301|277:324,2,125.999996154785,2|2|10,0:2|0:2|0:2,0:0:0:0:
109,331,18013,2,0,P|77:317|50:312,1,62.9999980773926,2|10,0:2|0:2,0:0:0:0:
22,187,18633,2,0,P|54:201|85:207,1,62.9999980773926,8|2,0:2|0:2,0:0:0:0:
157,103,19254,1,10,0:2:0:0:
399,22,20082,6,0,P|366:77|365:140,1,125.999996154785,2|2,0:2|0:2,0:0:0:0:
463,222,20909,2,0,P|487:282|479:344,1,125.999996154785,10|2,0:2|0:2,0:0:0:0:
433,365,21530,2,0,B|368:376|361:316|368:312|346:256|292:267,1,188.999994232178,2|2,0:2|0:2,0:0:0:0:
193,348,22564,1,10,0:2:0:0:
97,263,22978,1,2,0:2:0:0:
194,175,23392,6,0,P|210:115|194:53,2,125.999996154785,2|2|10,0:2|0:2|0:2,0:0:0:0:
75,129,24633,2,0,P|45:135|17:150,1,62.9999980773926,2|10,0:2|0:2,0:0:0:0:
14,23,25254,2,0,P|44:17|72:2,1,62.9999980773926,8|0,0:2|0:2,0:0:0:0:
194,54,25875,1,8,0:2:0:0:
97,263,26702,6,0,B|160:284|126:327|182:348,1,125.999996154785,2|2,3:2|0:2,0:0:0:0:
234,324,27323,1,2,0:2:0:0:
234,324,27530,2,0,B|281:282|281:282|337:314,1,125.999996154785,10|2,0:2|0:2,0:0:0:0:
455,369,28357,1,2,0:2:0:0:
496,248,28771,1,2,0:2:0:0:
390,178,29185,1,10,0:2:0:0:
501,7,30013,6,0,P|437:23|373:40,1,125.999996154785,2|2,3:2|0:2,0:0:0:0:
327,18,30633,1,2,0:2:0:0:
327,18,30840,1,10,0:2:0:0:
231,100,31254,2,0,P|240:131|240:162,1,62.9999980773926,2|10,0:2|0:2,0:0:0:0:
118,200,31875,2,0,P|109:169|109:138,1,62.9999980773926,8|2,0:2|0:2,0:0:0:0:
153,19,32495,1,10,0:2:0:0:
28,5,32909,1,2,0:2:0:0:
16,135,33323,6,0,P|15:195|42:257,1,125.999996154785,2|0,3:2|0:2,0:0:0:0:
148,329,34151,2,0,B|216:323|185:270|249:264,1,125.999996154785,10|0,0:2|0:0,0:0:0:0:
313,152,34978,2,0,P|353:131|376:205,1,125.999996154785,2|2,0:2|0:2,0:0:0:0:
396,253,35599,1,2,0:2:0:0:
396,253,35806,2,0,P|372:296|380:374,1,125.999996154785,10|2,0:2|0:2,0:0:0:0:
500,330,36633,5,2,3:2:0:0:
256,192,37047,12,2,39116,0:2:0:0:
500,330,39944,6,0,B|390:312|390:312|378:287|361:275,1,154.000004699707,4|2,3:0|0:2,0:0:0:0:
319,241,40564,1,2,0:2:0:0:
319,241,40771,2,0,B|274:228|250:268|254:272|245:317|188:302,1,154.000004699707,10|2,0:2|3:2,0:0:0:0:
75,344,41599,2,0,P|67:294|48:189,1,154.000004699707,2|2,0:2|3:2,0:0:0:0:
89,149,42220,2,0,B|159:184|159:184|203:120,1,154.000004699707,2|2,0:2|0:2,0:0:0:0:
263,114,42840,2,0,P|255:77|246:36,1,77.0000023498536,2|2,0:2|3:2,0:0:0:0:
288,0,43254,5,2,3:2:0:0:
403,65,43668,2,0,P|438:84|454:117,1,77.0000023498536,2|2,0:2|0:2,0:0:0:0:
430,168,44082,2,0,B|377:155|363:195|366:196|353:247|302:229,1,154.000004699707,10|2,0:2|3:2,0:0:0:0:
253,198,44702,1,10,0:2:0:0:
186,311,45116,1,8,0:2:0:0:
186,311,45323,2,0,L|337:351,1,154.000004699707,2|8,3:2|0:2,0:0:0:0:
374,313,45944,2,0,B|402:288|402:288|449:304,1,77.0000023498536,2|2,3:2|0:2,0:0:0:0:
492,344,46357,1,2,3:2:0:0:
492,344,46564,6,0,P|529:276|503:208,1,154.000004699707,2|2,3:2|0:2,0:0:0:0:
392,148,47392,2,0,B|349:151|334:106|334:106|323:64|272:59,1,154.000004699707,10|2,0:2|3:2,0:0:0:0:
230,29,48013,1,2,0:2:0:0:
230,29,48220,2,0,B|157:3|157:3|110:67,1,154.000004699707,2|2,0:2|3:2,0:0:0:0:
128,126,48840,1,2,0:2:0:0:
71,239,49254,2,0,P|35:222|0:206,2,77.0000023498536,2|2|2,0:2|0:2|3:2,0:0:0:0:
106,289,49875,5,2,3:2:0:0:
214,369,50288,1,2,0:2:0:0:
283,260,50702,1,10,0:2:0:0:
299,130,51116,2,0,P|306:87|316:55,1,77.0000023498536,2|8,3:2|0:2,0:0:0:0:
338,3,51530,5,2,0:2:0:0:
467,22,51944,1,2,3:2:0:0:
509,151,52357,2,0,P|497:187|492:225,1,77.0000023498536,10|0,0:2|3:2,0:0:0:0:
443,258,52771,2,0,P|454:294|459:332,1,77.0000023498536,2|0,0:2|3:2,0:0:0:0:
406,353,53185,6,0,B|361:357|347:316|347:316|333:272|287:276,1,154.000004699707,12|2,3:0|0:2,0:0:0:0:
243,308,53806,1,2,0:2:0:0:
243,308,54013,2,0,P|205:338|140:271,1,154.000004699707,10|2,0:2|3:2,0:0:0:0:
222,172,54840,2,0,B|260:103|260:103|218:35,1,154.000004699707,2|2,0:2|3:2,0:0:0:0:
173,3,55461,2,0,P|106:21|22:45,1,154.000004699707,2|2,0:2|3:2,0:0:0:0:
7,101,56082,2,0,P|18:146|24:180,1,77.0000023498536,2|2,0:2|3:2,0:0:0:0:
71,212,56495,5,2,3:2:0:0:
181,280,56909,2,0,P|167:326|159:360,1,77.0000023498536,2|2,0:2|0:2,0:0:0:0:
105,365,57323,2,0,P|47:349|55:262,1,154.000004699707,10|2,0:2|3:2,0:0:0:0:
71,212,57944,1,10,0:2:0:0:
164,121,58357,1,10,0:2:0:0:
164,121,58564,2,0,B|237:147|237:147|311:120,1,154.000004699707,2|8,3:2|0:2,0:0:0:0:
349,79,59185,2,0,P|337:35|328:-1,2,77.0000023498536,2|2|2,3:2|0:2|3:2,0:0:0:0:
408,105,59806,5,6,3:2:0:0:
368,228,60220,1,2,0:2:0:0:
389,354,60633,1,10,0:2:0:0:
265,323,61047,2,0,P|222:332|192:350,1,77.0000023498536,2|0,3:2|0:0,0:0:0:0:
140,329,61461,5,2,0:2:0:0:
58,230,61875,1,2,3:2:0:0:
167,151,62288,2,0,P|132:120|100:94,1,77.0000023498536,10|0,0:2|0:0,0:0:0:0:
74,61,62702,2,0,P|105:38|138:15,1,77.0000023498536,2|0,0:2|3:2,0:0:0:0:
194,39,63116,6,0,B|255:32|277:97|277:97|299:168|367:153,1,231.000007049561,2|2,3:2|0:2,0:0:0:0:
413,116,63944,2,0,P|451:95|463:187,1,154.000004699707,10|2,0:2|3:2,0:0:0:0:
454,221,64564,1,10,0:2:0:0:
346,296,64978,1,8,0:2:0:0:
346,296,65185,2,0,P|383:317|414:338,1,77.0000023498536,0|0,3:2|0:0,0:0:0:0:
460,368,65599,1,14,0:2:0:0:
367,152,66426,6,0,P|296:168|226:184,2,140,2|10|2,3:2|0:2|0:2,0:0:0:0:
157,136,68082,2,0,P|150:206|188:260,1,140,10|10,0:2|3:2,0:0:0:0:
267,364,68909,1,2,3:2:0:0:
347,263,69323,1,10,0:2:0:0:
443,352,69737,6,0,P|480:275|462:208,1,140,2|10,3:2|0:2,0:0:0:0:
367,152,70564,2,0,B|292:136|347:76|269:57,1,140,2|10,0:2|0:2,0:0:0:0:
230,26,71185,2,0,P|159:-3|138:109,1,210,2|10,3:2|3:2,0:0:0:0:
230,182,72220,2,0,P|239:219|241:251,2,70,2|0|10,3:2|3:2|0:2,0:0:0:0:
114,237,73047,5,2,3:2:0:0:
142,361,73461,1,10,0:2:0:0:
21,314,73875,2,0,P|0:267|16:175,1,140,2|10,0:2|0:2,0:0:0:0:
56,140,74495,2,0,B|112:157|135:94|135:94|161:22|214:38,1,210,2|10,3:2|3:2,0:0:0:0:
272,153,75530,2,0,P|265:192|258:237,2,70,2|0|10,3:2|3:2|0:2,0:0:0:0:
371,73,76357,5,2,3:2:0:0:
455,171,76771,2,0,P|448:210|441:255,1,70,10|8,0:2|0:2,0:0:0:0:
393,277,77185,2,0,B|334:319|334:319|274:274,1,140,2|10,3:2|0:2,0:0:0:0:
260,221,77806,1,2,3:2:0:0:
310,96,79668,6,0,B|302:140|302:140|267:176|267:176|259:225,1,140,6|2,3:2|0:2,0:0:0:0:
215,261,80288,1,2,0:2:0:0:
215,261,80495,2,0,B|143:275|183:333|112:346,1,140,10|2,0:2|3:2,0:0:0:0:
31,246,81323,2,0,P|48:171|66:98,1,140,2|2,0:2|3:2,0:0:0:0:
156,22,82151,1,10,0:2:0:0:
243,116,82564,2,0,P|283:103|312:95,1,70,2|0,0:2|3:2,0:0:0:0:
346,50,82978,6,0,P|380:25|420:97,1,140,2|2,3:2|0:2,0:0:0:0:
446,151,83599,1,2,0:2:0:0:
446,151,83806,2,0,P|428:214|445:287,1,140,10|2,0:2|3:2,0:0:0:0:
398,324,84426,1,10,0:2:0:0:
307,230,84840,1,8,0:2:0:0:
307,230,85047,2,0,P|323:180|307:90,1,140,2|2,3:2|0:2,0:0:0:0:
261,57,85668,2,0,B|195:73|230:136|165:147,1,140,0|0,3:2|3:2,0:0:0:0:
117,116,86288,6,0,P|75:80|56:190,1,210,2|0,3:2|0:2,0:0:0:0:
68,229,87116,2,0,P|61:271|53:313,2,70,8|0|0,0:2|0:0|3:2,0:0:0:0:
228,362,88357,2,0,P|221:320|213:278,1,70,2|2,3:2|0:2,0:0:0:0:
245,246,88771,2,0,B|319:237|276:178|352:168,1,140,10|2,0:2|0:2,0:0:0:0:
393,131,89392,1,2,3:2:0:0:
393,131,89599,6,0,B|437:103|503:122|507:183|479:237|472:234|464:229|410:261|425:315,1,280,0|8,3:2|0:2,0:0:0:0:
386,358,90633,2,0,P|351:344|317:345,1,70,2|2,0:2|3:2,0:0:0:0:
279,305,91047,1,10,0:2:0:0:
159,349,91461,2,0,P|124:363|90:362,2,70,8|0|2,0:0|3:2|0:2,0:0:0:0:
168,291,92082,1,10,0:2:0:0:
168,291,92288,2,0,P|155:231|122:159,1,140,2|0,3:2|3:0,0:0:0:0:
69,136,92909,5,2,3:2:0:0:
256,192,102840,12,2,104495,0:2:0:0:
29,34,106151,6,0,B|77:33|89:82|89:82|99:138|161:123,1,154.000004699707,4|2,3:0|0:2,0:0:0:0:
181,168,106771,1,2,0:2:0:0:
181,168,106978,2,0,P|137:232|150:311,1,154.000004699707,10|2,0:2|3:2,0:0:0:0:
270,263,107806,2,0,P|327:278|418:314,1,154.000004699707,2|2,0:2|3:2,0:0:0:0:
459,355,108426,2,0,P|509:343|477:258,1,154.000004699707,2|2,0:2|0:2,0:0:0:0:
459,210,109047,2,0,P|470:171|483:136,1,77.0000023498536,2|2,0:2|3:2,0:0:0:0:
461,84,109461,5,2,3:2:0:0:
353,22,109875,2,0,P|342:61|329:96,1,77.0000023498536,2|2,0:2|0:2,0:0:0:0:
283,137,110288,2,0,B|272:224|341:189|331:281,1,154.000004699707,10|2,0:2|3:2,0:0:0:0:
289,319,110909,1,10,0:2:0:0:
162,351,111323,1,8,0:2:0:0:
162,351,111530,2,0,B|151:264|220:299|210:207,1,154.000004699707,2|8,3:2|0:2,0:0:0:0:
179,169,112151,2,0,P|133:178|98:189,1,77.0000023498536,2|2,3:2|0:2,0:0:0:0:
79,238,112564,1,2,3:2:0:0:
79,238,112771,6,0,P|27:254|14:163,1,154.000004699707,2|2,3:2|0:2,0:0:0:0:
79,72,113599,2,0,B|122:82|148:52|146:47|144:41|168:6|216:23,1,154.000004699707,10|2,0:2|3:2,0:0:0:0:
266,58,114220,1,2,0:2:0:0:
266,58,114426,2,0,P|237:131|263:200,1,154.000004699707,2|2,0:2|3:2,0:0:0:0:
294,250,115047,1,2,0:2:0:0:
404,178,115461,2,0,P|414:139|425:95,2,77.0000023498536,2|2|2,0:2|0:2|3:2,0:0:0:0:
431,235,116082,5,2,3:2:0:0:
376,351,116495,1,2,0:2:0:0:
294,250,116909,1,10,0:2:0:0:
192,335,117323,2,0,P|155:345|126:372,1,77.0000023498536,2|8,3:2|0:2,0:0:0:0:
85,333,117737,5,2,0:2:0:0:
0,240,118151,1,2,3:2:0:0:
93,149,118564,2,0,P|74:114|43:88,1,77.0000023498536,10|0,0:2|3:2,0:0:0:0:
27,40,118978,2,0,P|65:26|96:-1,1,77.0000023498536,2|0,0:2|3:2,0:0:0:0:
140,33,119392,6,0,L|287:77,1,154.000004699707,12|2,3:0|0:2,0:0:0:0:
337,46,120013,1,2,0:2:0:0:
337,46,120220,2,0,B|387:-11|387:-11|457:29,1,154.000004699707,10|2,0:2|3:2,0:0:0:0:
495,156,121047,2,0,P|464:196|464:298,1,154.000004699707,2|2,0:2|3:2,0:0:0:0:
420,337,121668,2,0,B|376:342|363:295|363:295|349:248|308:252,1,154.000004699707,2|2,0:2|3:2,0:0:0:0:
278,202,122288,2,0,P|285:161|291:124,1,77.0000023498536,2|2,0:2|3:2,0:0:0:0:
296,68,122702,5,2,3:2:0:0:
176,10,123116,2,0,P|183:58|188:93,1,77.0000023498536,2|2,0:2|0:2,0:0:0:0:
147,129,123530,2,0,B|94:73|94:73|21:108,1,154.000004699707,10|2,0:2|3:2,0:0:0:0:
29,165,124151,1,10,0:2:0:0:
105,273,124564,1,10,0:2:0:0:
105,273,124771,2,0,B|149:272|163:313|163:313|177:362|229:353,1,154.000004699707,2|8,3:2|0:2,0:0:0:0:
268,317,125392,2,0,P|278:277|290:244,2,77.0000023498536,2|2|2,3:2|0:2|3:2,0:0:0:0:
316,356,126013,5,6,3:2:0:0:
442,331,126426,1,2,0:2:0:0:
403,211,126840,1,10,0:2:0:0:
495,122,127254,2,0,P|483:77|473:43,1,77.0000023498536,2|0,3:2|0:0,0:0:0:0:
422,19,127668,5,2,0:2:0:0:
287,11,128082,1,2,3:2:0:0:
244,138,128495,2,0,P|233:174|223:212,1,77.0000023498536,10|0,0:2|0:0,0:0:0:0:
250,263,128909,2,0,P|264:301|277:347,1,77.0000023498536,2|0,0:2|3:2,0:0:0:0:
220,354,129323,6,0,B|157:369|139:298|139:298|122:221|49:238,1,231.000007049561,2|2,3:2|0:2,0:0:0:0:
15,197,130151,2,0,P|1:120|19:48,1,154.000004699707,10|2,0:2|3:2,0:0:0:0:
65,13,130771,1,10,0:2:0:0:
189,83,131185,1,8,0:2:0:0:
189,83,131392,2,0,P|217:112|246:139,1,77.0000023498536,0|0,3:2|0:0,0:0:0:0:
289,174,131806,5,14,0:2:0:0:
256,192,142151,12,2,144220,0:2:0:0:
358,90,145875,6,0,B|376:32|423:33|469:59|450:123|450:123|406:275,1,314.999990386963,4|0,0:2|0:0,0:0:0:0:
11,358,148357,2,0,B|66:374|86:320|86:320|101:263|155:270,1,188.999994232178,4|0,0:2|0:0,0:0:0:0:
203,233,149185,6,0,B|285:247|314:326|314:326|288:246|344:172,1,314.999990386963,4|0,0:2|0:0,0:0:0:0:
36,45,151668,2,0,B|25:10|25:10|120:-13|147:92,1,188.999994232178,4|0,0:2|0:0,0:0:0:0:
206,90,152495,6,0,B|250:115|241:172|236:172|207:209|232:257|232:257|147:240|144:172,1,314.999990386963,4|0,0:2|0:0,0:0:0:0:
306,27,154978,2,0,B|370:38|370:38|395:89|395:89|464:100,1,188.999994232178,4|0,0:2|0:0,0:0:0:0:
491,153,155806,5,4,0:2:0:0:
442,273,156220,1,2,0:2:0:0:
334,198,156633,1,2,0:2:0:0:
258,303,157047,2,0,P|248:338|243:369,2,62.9999980773926,2|0|2,0:2|0:0|0:2,0:0:0:0:
334,198,157875,5,2,3:0:0:0:
442,273,158288,1,2,0:2:0:0:
491,153,158702,1,2,0:2:0:0:
392,71,159116,6,0,P|329:60|237:44,1,154.000004699707,12|2,3:0|0:2,0:0:0:0:
191,80,159737,1,2,0:2:0:0:
191,80,159944,2,0,B|206:137|206:137|188:167|188:167|202:226,1,154.000004699707,10|2,0:2|3:2,0:0:0:0:
115,324,160771,2,0,L|78:174,1,154.000004699707,2|2,0:2|3:2,0:0:0:0:
29,142,161392,2,0,P|-4:98|75:63,1,154.000004699707,2|2,0:2|3:2,0:0:0:0:
191,80,162220,1,2,3:2:0:0:
191,80,162426,6,0,B|233:74|251:117|251:117|267:156|316:151,1,154.000004699707,2|2,3:2|0:2,0:0:0:0:
362,116,163047,1,2,0:2:0:0:
362,116,163254,2,0,B|424:73|424:73|470:140,1,154.000004699707,10|2,0:2|3:2,0:0:0:0:
496,192,163875,1,10,0:2:0:0:
381,246,164288,1,8,0:2:0:0:
381,246,164495,2,0,P|308:257|236:296,1,154.000004699707,2|8,3:2|0:2,0:0:0:0:
183,321,165116,2,0,P|147:314|115:289,2,77.0000023498536,2|2|2,3:2|0:2|3:2,0:0:0:0:
219,374,165737,5,6,3:2:0:0:
346,350,166151,1,2,0:2:0:0:
474,316,166564,1,10,0:2:0:0:
496,192,166978,2,0,P|486:151|490:117,1,77.0000023498536,2|0,3:2|0:0,0:0:0:0:
448,82,167392,5,2,0:2:0:0:
322,44,167806,1,2,3:2:0:0:
193,22,168220,2,0,P|183:59|187:97,1,77.0000023498536,10|0,0:2|0:0,0:0:0:0:
204,154,168633,2,0,P|166:152|127:166,1,77.0000023498536,2|0,0:2|3:2,0:0:0:0:
84,136,169047,6,0,P|8:114|41:217,1,231.000007049561,2|2,3:2|0:2,0:0:0:0:
78,256,169875,2,0,B|155:249|134:327|220:313,1,154.000004699707,10|2,0:2|3:2,0:0:0:0:
265,304,170495,1,10,0:2:0:0:
289,171,170909,2,0,P|289:131|274:93,2,77.0000023498536,8|0|0,0:0|3:0|0:0,0:0:0:0:
345,195,171530,6,0,P|394:176|459:303,1,231.000007049561,14|0,0:0|0:0,0:0:0:0:
429,353,172357,5,2,0:2:0:0:
