osu file format v14

[General]
AudioFilename: audio.mp3
AudioLeadIn: 0
PreviewTime: 104412
Countdown: 0
SampleSet: Soft
StackLeniency: 0.3
Mode: 0
LetterboxInBreaks: 0
WidescreenStoryboard: 1

[Editor]
Bookmarks: 73067,106998,157895,158308,158722,159136
DistanceSpacing: 1.7
BeatDivisor: 4
GridSize: 32
TimelineZoom: 1

[Metadata]
Title:Opening Sequence
TitleUnicode:Opening Sequence
Artist:TOMORROW X TOGETHER
ArtistUnicode:투모로우바이투게더
Creator:Sani_
Version:HARD SEQUENCE
Source:
Tags:minisode 2 : Thursday's Child Soul txt kpop korean pop k-pop soobin yeonjun beomgyu taehyun hueningkai 수빈 연준 범규 태현 휴닝카이 hannody
BeatmapID:4428191
BeatmapSetID:2109635

[Difficulty]
HPDrainRate:5
CircleSize:3.5
OverallDifficulty:6
ApproachRate:7.8
SliderMultiplier:3
SliderTickRate:1

[Events]
//Background and Video events
0,0,"boy.jpg",0,0
//Break Periods
2,132833,141785
//Storyboard Layer 0 (Background)
//Storyboard Layer 1 (Fail)
//Storyboard Layer 2 (Pass)
//Storyboard Layer 3 (Foreground)
//Storyboard Layer 4 (Overlay)
//Storyboard Sound Samples

[TimingPoints]
220,827.586206896552,4,2,1,80,1,0
13461,-125,4,2,1,60,0,0
26702,-125,4,2,1,70,0,0
33737,-125,4,2,1,70,0,0
33944,-125,4,2,1,70,0,0
34564,-125,4,2,1,70,0,0
34771,-125,4,2,1,70,0,0
37668,-125,4,2,1,70,0,0
38082,-125,4,2,1,70,0,0
39944,-90.9090909090909,4,2,2,80,0,1
52771,-90.9090909090909,4,2,2,80,0,0
53185,-90.9090909090909,4,2,2,80,0,1
65599,-90.9090909090909,4,2,2,80,0,0
66013,-90.9090909090909,4,2,2,80,0,0
66220,-90.9090909090909,4,2,2,80,0,0
66426,-100,4,2,10,70,0,0
67461,-100,4,2,10,70,0,0
67875,-100,4,2,10,70,0,0
78013,-100,4,2,10,70,0,0
78426,-100,4,2,10,70,0,0
79254,-83.3333333333333,4,2,10,70,0,0
79668,-100,4,2,2,80,0,0
92909,-125,4,2,2,60,0,0
106151,-83.3333333333333,4,2,2,80,0,1
118978,-83.3333333333333,4,2,2,80,0,0
119392,-83.3333333333333,4,2,2,80,0,1
132013,-83.3333333333333,4,2,2,80,0,1
132426,-83.3333333333333,4,2,2,80,0,1
132633,-100,4,2,2,40,0,0
144220,-166.666666666667,4,2,2,60,0,0
145875,-166.666666666667,4,2,9,60,0,0
146288,-166.666666666667,4,2,9,60,0,0
146909,-166.666666666667,4,2,9,60,0,0
148357,-166.666666666667,4,2,9,60,0,0
148771,-166.666666666667,4,2,9,60,0,0
148978,-166.666666666667,4,2,9,60,0,0
149185,-166.666666666667,4,2,9,60,0,0
149599,-166.666666666667,4,2,9,60,0,0
150220,-166.666666666667,4,2,9,60,0,0
151668,-166.666666666667,4,2,9,60,0,0
151875,-166.666666666667,4,2,9,60,0,0
152288,-166.666666666667,4,2,9,60,0,0
152495,-166.666666666667,4,2,9,60,0,0
152702,-166.666666666667,4,2,9,60,0,0
153530,-166.666666666667,4,2,9,60,0,0
154978,-166.666666666667,4,2,9,60,0,0
155185,-166.666666666667,4,2,9,60,0,0
155599,-166.666666666667,4,2,9,60,0,0
155806,-125,4,2,9,60,0,0
155909,-125,4,2,2,60,0,0
157875,-125,4,2,10,60,0,0
158288,-125,4,2,11,80,0,0
158314,-125,4,2,2,59,0,0
159116,-83.3333333333333,4,2,2,80,0,1
171944,-83.3333333333333,4,2,2,80,0,1
172151,-83.3333333333333,4,2,2,80,0,1
172357,-83.3333333333333,4,2,2,80,0,0

[Colours]
Combo1 : 128,255,255
Combo2 : 0,128,255
SliderTrackOverride : 0,0,0
SliderBorder : 220,240,255

[HitObjects]
105,306,13461,6,0,B|79:291|79:291|26:289|6:333,2,120,2|2|10,0:2|0:2|0:2,0:0:0:0:
261,360,15116,6,0,P|325:347|392:338,1,120,2|2,0:2|0:2,0:0:0:0:
396,183,15944,2,0,P|332:196|265:205,1,120,10|2,0:2|0:2,0:0:0:0:
173,79,16771,2,0,P|131:42|73:62,1,120,2|2,0:2|0:2,0:0:0:0:
66,209,17599,6,0,P|95:201|126:192,1,60,10|0,0:2|0:0,0:0:0:0:
178,248,18013,1,2,0:2:0:0:
120,297,18220,2,0,P|57:316|-5:336,1,120,10|8,0:2|0:2,0:0:0:0:
1,256,18840,1,2,0:2:0:0:
193,327,19254,6,0,P|256:341|310:365,1,120,10|2,0:2|0:2,0:0:0:0:
446,273,20082,2,0,B|422:289|413:323|413:323|392:294|362:285,1,120,2|2,0:2|0:2,0:0:0:0:
306,143,20909,6,0,B|334:189|378:206|395:188|397:163|375:169,1,120,10|2,0:2|0:2,0:0:0:0:
381,89,21530,2,0,B|417:98|431:65|425:62|437:23|472:29,1,120,2|0,0:2|0:0,0:0:0:0:
512,92,22151,1,2,0:2:0:0:
341,11,22564,6,0,P|293:22|225:48,1,120,10|2,0:2|0:2,0:0:0:0:
138,177,23392,1,2,0:2:0:0:
38,58,23806,1,2,0:2:0:0:
138,177,24220,6,0,P|151:241|158:295,1,120,10|2,0:2|0:2,0:0:0:0:
103,348,24840,2,0,P|67:357|37:286,1,120,10|8,0:2|0:2,0:0:0:0:
15,221,25461,1,0,0:2:0:0:
195,367,25875,5,8,0:2:0:0:
501,260,26702,6,0,B|461:269|461:269|431:252|431:252|383:263,1,120,2|2,3:2|0:2,0:0:0:0:
316,220,27323,1,2,0:2:0:0:
374,160,27530,2,0,P|386:88|396:42,1,120,10|2,0:2|0:2,0:0:0:0:
321,4,28151,1,2,0:2:0:0:
249,66,28357,6,0,P|217:58|192:46,1,60,2|0,0:2|0:0,0:0:0:0:
166,127,28771,2,0,P|198:135|223:147,1,60,2|0,0:2|0:0,0:0:0:0:
108,63,29185,2,0,B|77:60|59:92|69:93|47:129|11:118,1,120,10|2,0:2|0:2,0:0:0:0:
168,277,30013,6,0,B|162:307|125:314|125:314|125:273|166:271,1,120,2|2,3:2|0:2,0:0:0:0:
243,268,30633,1,2,0:2:0:0:
309,321,30840,2,0,P|350:340|416:389,1,120,10|2,0:2|0:2,0:0:0:0:
480,334,31461,1,10,0:2:0:0:
455,208,31668,6,0,P|437:249|434:271,1,60,2|8,0:0|0:2,0:0:0:0:
361,223,32082,2,0,P|379:182|382:160,1,60,2|0,0:2|0:0,0:0:0:0:
456,126,32495,1,10,0:2:0:0:
328,0,32909,1,2,0:2:0:0:
243,155,33323,6,0,B|192:166|173:112|180:112|169:55|107:63,1,180,2|0,3:2|0:2,0:0:0:0:
95,149,34151,6,0,B|146:160|165:106|158:106|169:49|231:57,1,180,10|0,0:2|0:0,0:0:0:0:
305,100,34978,6,0,P|326:151|311:213,1,120,2|2,0:2|0:2,0:0:0:0:
242,264,35599,5,2,0:2:0:0:
307,319,35806,2,0,P|250:325|190:355,1,120,10|2,0:2|0:2,0:0:0:0:
117,314,36426,1,2,0:2:0:0:
0,279,36633,6,0,P|34:269|64:258,1,60,2|2,3:2|0:2,0:0:0:0:
105,192,37047,2,0,P|71:182|41:171,1,60,2|2,0:2|0:2,0:0:0:0:
7,97,37461,6,0,P|-8:44|77:69,1,180,2|0,0:2|0:0,0:0:0:0:
179,35,38288,6,0,P|131:72|73:55,1,120,2|2,0:2|3:2,0:0:0:0:
146,111,38909,1,2,0:2:0:0:
273,27,39116,6,0,P|262:57|258:87,1,60,2|2,0:2|0:2,0:0:0:0:
370,47,39530,2,0,P|365:76|355:104,1,60,2|2,0:2|0:2,0:0:0:0:
268,202,39944,6,0,B|322:193|341:240|335:242|350:294|401:284,1,165.000005035401,4|2,3:0|0:2,0:0:0:0:
474,234,40564,1,2,0:2:0:0:
429,144,40771,6,0,P|380:201|395:284,1,165.000005035401,10|2,0:2|3:2,0:0:0:0:
462,354,41392,1,2,0:2:0:0:
395,284,41599,6,0,B|330:268|291:311|291:311|287:340|268:356,1,165.000005035401,2|2,0:2|3:2,0:0:0:0:
136,294,42220,2,0,P|196:252|195:324,1,165.000005035401,2|2,0:2|0:2,0:0:0:0:
60,310,42840,2,0,P|102:313|136:293,1,82.5000025177003,2|2,0:2|3:2,0:0:0:0:
87,196,43254,6,0,P|65:117|3:51,1,165.000005035401,2|2,3:2|0:2,0:0:0:0:
89,0,43875,1,2,0:2:0:0:
134,84,44082,6,0,P|58:112|10:50,1,165.000005035401,10|2,0:2|3:2,0:0:0:0:
186,21,44702,6,0,P|209:56|214:96,1,82.5000025177003,10|2,0:2|0:2,0:0:0:0:
259,180,45116,1,8,0:2:0:0:
300,94,45323,2,0,P|306:54|329:20,1,82.5000025177003,2|2,3:2|0:2,0:0:0:0:
460,106,45737,6,0,P|419:89|378:80,1,82.5000025177003,8|2,0:2|3:2,0:0:0:0:
259,180,46151,5,2,0:2:0:0:
259,180,46357,1,2,3:2:0:0:
345,257,46564,6,0,B|370:286|375:328|375:328|401:289|446:278,1,165.000005035401,2|2,3:2|0:2,0:0:0:0:
413,187,47185,1,2,0:2:0:0:
345,257,47392,6,0,P|291:264|185:304,1,165.000005035401,10|2,0:2|3:2,0:0:0:0:
99,356,48013,1,2,0:2:0:0:
19,304,48220,6,0,P|32:237|106:264,1,165.000005035401,2|2,0:2|3:2,0:0:0:0:
186,207,48840,2,0,P|196:164|217:103,2,82.5000025177003,2|8|2,0:2|0:2|0:2,0:0:0:0:
167,47,49461,5,2,0:2:0:0:
167,47,49668,1,2,3:2:0:0:
69,131,49875,6,0,P|99:138|123:146,1,41.2500012588501,2|2,3:2|0:2,0:0:0:0:
19,304,50288,2,0,P|8:216|-7:137,1,165.000005035401,2|10,0:2|0:2,0:0:0:0:
105,261,51116,1,2,3:2:0:0:
114,267,51220,1,2,0:2:0:0:
123,274,51323,6,0,P|110:313|103:353,2,82.5000025177003,8|2|8,0:2|0:2|0:2,0:0:0:0:
196,375,51944,2,0,P|209:336|216:296,1,82.5000025177003,2|0,3:2|0:2,0:0:0:0:
345,257,52357,5,10,0:2:0:0:
378,154,52564,1,0,3:2:0:0:
480,188,52771,1,2,0:2:0:0:
447,290,52978,1,0,3:2:0:0:
378,154,53185,6,0,B|330:157|320:112|328:113|313:53|258:62,1,165.000005035401,12|2,3:0|0:2,0:0:0:0:
173,2,53806,1,2,0:2:0:0:
151,97,54013,6,0,B|192:105|222:135|222:135|227:93|262:57,1,165.000005035401,10|2,0:2|3:2,0:0:0:0:
173,2,54633,1,2,0:2:0:0:
151,97,54840,6,0,B|103:94|93:139|101:138|86:198|31:189,1,165.000005035401,2|2,0:2|3:2,0:0:0:0:
112,253,55461,2,0,P|142:284|151:369,1,123.75000377655,2|0,0:2|0:0,0:0:0:0:
136,375,55875,5,2,3:2:0:0:
40,330,56082,1,2,0:2:0:0:
112,253,56288,1,2,3:2:0:0:
237,304,56495,6,0,B|263:362|339:355|339:355|326:337|324:311,1,165.000005035401,2|2,3:2|0:2,0:0:0:0:
297,224,57116,1,2,0:2:0:0:
376,174,57323,6,0,B|424:188|436:130|424:126|442:76|496:86,1,165.000005035401,10|2,0:2|3:2,0:0:0:0:
506,181,57944,2,0,P|492:221|481:261,2,82.5000025177003,10|2|10,0:2|0:0|0:2,0:0:0:0:
394,291,58564,6,0,P|410:336|417:375,1,82.5000025177003,2|2,3:2|0:0,0:0:0:0:
376,174,58978,5,8,0:2:0:0:
293,124,59185,1,2,3:2:0:0:
221,191,59392,2,0,P|181:175|141:166,1,82.5000025177003,2|2,0:2|3:2,0:0:0:0:
78,54,59806,6,0,L|90:13,1,41.2500012588501,6|2,3:2|0:2,0:0:0:0:
4,187,60220,2,0,P|16:243|32:350,1,165.000005035401,2|10,0:2|0:2,0:0:0:0:
168,260,61047,1,2,3:2:0:0:
161,266,61151,1,2,0:2:0:0:
274,361,61461,1,2,0:2:0:0:
267,355,61565,1,2,0:2:0:0:
379,235,61875,6,0,P|392:168|417:75,2,165.000005035401,2|10|2,3:2|0:2|0:2,0:0:0:0:
444,308,62909,1,0,3:2:0:0:
302,219,63116,6,0,P|306:178|321:137,3,82.5000025177003,2|2|2|2,3:2|0:2|0:2|0:2,0:0:0:0:
172,88,63944,6,0,P|214:84|257:68,1,82.5000025177003,10|2,0:2|0:2,0:0:0:0:
223,240,64357,2,0,P|196:204|166:180,1,82.5000025177003,2|10,3:2|0:2,0:0:0:0:
93,42,64771,6,0,P|66:78|36:102,1,82.5000025177003,2|8,0:2|0:2,0:0:0:0:
73,193,65185,1,0,3:2:0:0:
9,371,65599,6,0,B|23:360|30:343|30:343|134:315|238:388,1,247.500007553101,14|0,0:2|0:0,0:0:0:0:
342,316,66426,6,0,P|325:242|361:180,1,150,2|10,3:2|0:2,0:0:0:0:
396,94,67047,1,8,0:2:0:0:
336,24,67254,2,0,B|265:11|246:78|252:80|234:153|161:127,1,225,2|0,0:2|3:2,0:0:0:0:
102,53,68082,6,0,P|42:36|24:107,1,150,10|10,0:2|3:2,0:0:0:0:
28,116,68599,1,8,0:2:0:0:
34,126,68702,1,8,0:2:0:0:
108,203,68909,2,0,P|100:246|96:278,1,75,2|0,3:2|3:2,0:0:0:0:
19,334,69323,1,10,0:2:0:0:
194,290,69737,6,0,P|255:296|346:317,1,150,2|10,3:2|0:2,0:0:0:0:
427,367,70357,1,8,0:2:0:0:
488,291,70564,2,0,P|496:250|508:214,2,75,2|0|10,0:2|0:0|0:2,0:0:0:0:
402,251,71185,6,0,P|418:193|452:106,1,150,2|0,3:2|0:2,0:0:0:0:
394,30,71806,1,10,3:2:0:0:
385,25,71909,1,8,0:2:0:0:
376,19,72013,1,8,0:2:0:0:
302,133,72220,2,0,P|339:119|375:107,1,75,2|0,3:2|3:2,0:0:0:0:
242,69,72633,1,10,0:2:0:0:
341,315,73047,6,0,P|268:298|194:290,1,150,2|10,3:2|0:2,0:0:0:0:
155,202,73668,1,8,0:2:0:0:
96,272,73875,2,0,B|125:296|132:333|132:333|154:297|193:290,1,150,2|10,0:2|0:2,0:0:0:0:
155,202,74495,2,0,P|148:142|119:58,1,150,2|0,3:2|0:0,0:0:0:0:
31,8,75116,1,10,3:2:0:0:
26,17,75220,1,8,0:2:0:0:
22,27,75323,1,8,0:2:0:0:
4,157,75530,6,0,P|13:198|16:234,1,75,2|0,3:2|3:2,0:0:0:0:
2,324,75944,1,10,0:2:0:0:
155,202,76357,6,0,P|148:142|119:58,1,150,2|10,3:2|0:2,0:0:0:0:
197,6,76978,1,8,0:2:0:0:
267,69,77185,2,0,P|253:103|251:142,1,75,2|0,3:2|0:0,0:0:0:0:
345,121,77599,1,10,0:2:0:0:
385,214,77806,6,0,P|442:143|398:27,1,225,2|0,3:2|0:0,0:0:0:0:
208,300,79254,6,0,B|191:327|194:366|194:366|174:329|142:315,1,134.999995880127,2|0,3:0|0:0,0:0:0:0:
155,244,79668,6,0,B|167:198|127:173|124:176|122:180|86:158|102:108,1,150,6|2,3:2|0:2,0:0:0:0:
158,37,80288,1,2,0:2:0:0:
233,95,80495,6,0,B|216:124|183:139|155:131|155:131|95:114,1,150,10|2,0:2|3:2,0:0:0:0:
30,40,81116,1,2,0:2:0:0:
27,136,81323,6,0,P|82:120|115:110,1,75,2|0,0:2|0:0,0:0:0:0:
155,244,81737,2,0,P|100:228|67:218,1,75,2|0,3:2|0:2,0:0:0:0:
15,348,82151,6,0,P|73:327|108:317,2,75,10|0|2,0:2|3:2|0:2,0:0:0:0:
157,367,82771,1,0,3:2:0:0:
155,244,82978,6,0,B|203:237|216:276|215:280|222:327|275:319,1,150,2|2,3:2|0:2,0:0:0:0:
359,287,83599,1,2,0:2:0:0:
319,197,83806,2,0,P|268:242|290:344,1,150,10|2,0:2|3:2,0:0:0:0:
428,313,84426,6,0,P|389:295|353:286,1,75,10|2,0:2|0:2,0:0:0:0:
416,213,84840,1,8,0:2:0:0:
407,116,85047,2,0,P|446:134|482:143,1,75,2|0,3:2|0:2,0:0:0:0:
376,22,85461,6,0,P|337:40|301:49,2,75,2|0|2,0:2|3:2|0:2,0:0:0:0:
306,136,86082,1,0,3:2:0:0:
215,45,86288,6,0,B|234:95|194:109|194:104|153:125|170:174,1,150,2|0,3:2|0:2,0:0:0:0:
117,250,86909,1,0,0:2:0:0:
6,204,87116,2,0,P|43:189|78:176,1,75,8|0,0:2|0:0,0:0:0:0:
163,320,87530,6,0,P|85:329|39:280,1,150,0|0,3:2|0:0,0:0:0:0:
124,71,88358,5,2,3:2:0:0:
130,63,88461,1,0,0:2:0:0:
136,55,88565,1,2,0:2:0:0:
37,31,88771,2,0,P|61:112|76:181,1,150,10|2,0:2|0:2,0:0:0:0:
39,281,89392,1,2,3:2:0:0:
117,250,89599,6,0,B|188:274|177:184|248:199,1,150,0|2,3:2|0:2,0:0:0:0:
318,131,90220,2,0,P|343:197|308:263,1,150,0|2,0:2|0:2,0:0:0:0:
181,360,90840,6,0,P|209:339|250:328,1,75,2|10,3:2|0:2,0:0:0:0:
323,267,91254,6,0,P|358:203|333:134,1,150,2|0,0:2|3:2,0:0:0:0:
397,68,91875,2,0,P|395:48|401:27,2,37.5,2|0|10,0:2|0:2|0:2,0:0:0:0:
475,127,92288,2,0,P|451:209|436:277,1,150,2|0,3:2|3:0,0:0:0:0:
344,347,92909,6,0,B|318:365|318:365|259:353|259:353|246:326,2,120,2|2|10,3:2|0:2|0:2,0:0:0:0:
333,134,94151,2,0,P|325:101|314:72,1,60,2|2,0:2|0:2,0:0:0:0:
399,31,94564,2,0,P|410:87|440:168,2,120,2|2|10,0:2|0:2|0:2,0:0:0:0:
239,135,96220,6,0,B|177:129|201:188|135:181,1,120,2|2,3:2|0:2,0:0:0:0:
6,64,97047,2,0,P|20:37|37:8,2,60,10|2|2,0:2|0:2|0:2,0:0:0:0:
68,131,97668,1,10,0:2:0:0:
140,72,97875,2,0,P|154:45|171:16,1,60,2|8,0:2|0:2,0:0:0:0:
68,131,98288,2,0,P|80:184|71:250,1,120,2|10,0:2|0:2,0:0:0:0:
235,360,99530,6,0,P|223:311|244:244,1,120,2|2,3:2|0:2,0:0:0:0:
397,321,100357,2,0,P|367:314|337:310,1,60,10|2,0:2|0:2,0:0:0:0:
413,237,100771,2,0,P|383:232|354:226,1,60,2|2,0:2|0:2,0:0:0:0:
455,155,101185,2,0,P|490:196|492:266,2,120,2|2|10,0:2|0:2|0:2,0:0:0:0:
118,310,102840,6,0,B|85:314|71:335|76:338|61:348|60:378|28:377|33:339|58:345,1,120,2|2,3:2|0:2,0:0:0:0:
259,188,103668,2,0,P|246:229|239:261,1,60,10|2,0:2|0:2,0:0:0:0:
170,57,104288,1,8,0:2:0:0:
90,13,104495,6,0,B|70:1|70:1|14:12|2:67,1,120,2|2,0:2|0:2,0:0:0:0:
10,157,105116,1,2,0:2:0:0:
194,110,105323,6,0,P|183:75|165:51,1,60,2|2,0:2|0:2,0:0:0:0:
264,16,105737,2,0,P|275:51|293:75,1,60,2|2,0:2|0:2,0:0:0:0:
259,188,106151,6,0,B|270:231|329:244|364:203|364:203|396:208|407:229,1,179.999994506836,4|2,3:0|0:2,0:0:0:0:
476,292,106771,1,2,0:2:0:0:
430,378,106978,6,0,P|379:310|406:224,1,179.999994506836,10|2,0:2|3:2,0:0:0:0:
436,134,107599,1,2,0:2:0:0:
346,91,107806,6,0,P|283:75|166:55,1,179.999994506836,2|2,0:2|3:2,0:0:0:0:
75,86,108426,2,0,B|123:103|141:140|141:140|133:99|171:53,1,179.999994506836,2|2,0:2|0:2,0:0:0:0:
51,12,109047,2,0,P|11:44|-1:88,1,89.9999972534181,2|2,0:2|3:2,0:0:0:0:
56,170,109461,6,0,P|71:225|83:350,1,179.999994506836,2|2,3:2|0:2,0:0:0:0:
178,368,110082,1,2,0:2:0:0:
246,298,110288,6,0,P|231:243|219:118,1,179.999994506836,10|2,0:2|3:2,0:0:0:0:
298,55,110909,6,0,P|263:24|221:14,1,89.9999972534181,10|2,0:2|0:2,0:0:0:0:
218,120,111323,1,8,0:2:0:0:
308,159,111530,2,0,P|351:147|384:118,1,89.9999972534181,2|2,3:2|0:2,0:0:0:0:
395,13,111944,5,8,0:2:0:0:
395,13,112151,1,2,3:2:0:0:
222,15,112357,6,0,P|265:26|298:55,1,89.9999972534181,2|2,0:2|3:2,0:0:0:0:
384,118,112771,6,0,P|353:189|352:293,1,179.999994506836,2|2,3:2|0:2,0:0:0:0:
404,370,113392,1,2,0:2:0:0:
471,309,113599,6,0,P|502:238|503:134,1,179.999994506836,10|2,0:2|3:2,0:0:0:0:
456,57,114220,1,2,0:2:0:0:
384,118,114426,6,0,P|344:145|306:49,1,179.999994506836,2|2,0:2|3:2,0:0:0:0:
215,9,115047,2,0,P|168:22|126:33,2,89.9999972534181,2|8|2,0:2|0:2|0:2,0:0:0:0:
92,112,115668,5,2,0:2:0:0:
92,112,115875,1,2,3:2:0:0:
186,200,116082,6,0,L|167:258,1,44.999998626709,2|2,3:2|0:2,0:0:0:0:
32,340,116495,2,0,B|49:306|49:306|131:308|168:377,1,179.999994506836,2|10,0:2|0:2,0:0:0:0:
325,262,117323,1,2,3:2:0:0:
321,251,117426,1,2,0:2:0:0:
316,240,117530,6,0,P|272:248|241:278,2,89.9999972534181,8|2|8,0:2|0:2|0:2,0:0:0:0:
372,336,118151,2,0,P|403:366|447:374,1,89.9999972534181,2|0,3:2|0:2,0:0:0:0:
461,237,118564,5,10,0:2:0:0:
375,164,118771,1,0,3:2:0:0:
457,88,118978,1,2,0:2:0:0:
369,19,119185,1,0,3:2:0:0:
265,121,119392,6,0,B|214:134|192:89|197:86|186:23|126:32,1,179.999994506836,12|2,3:0|0:2,0:0:0:0:
38,4,120013,1,2,0:2:0:0:
8,96,120220,6,0,B|-7:161|34:174|36:169|91:189|76:255,1,179.999994506836,10|2,0:2|3:2,0:0:0:0:
52,338,120840,1,2,0:2:0:0:
146,308,121047,6,0,P|199:317|308:386,1,179.999994506836,2|2,0:2|3:2,0:0:0:0:
380,307,121668,2,0,P|335:297|260:240,1,134.999995880127,2|0,0:2|0:0,0:0:0:0:
258,233,122082,5,2,3:2:0:0:
293,133,122288,1,2,0:2:0:0:
360,211,122495,1,2,3:2:0:0:
380,307,122702,6,0,P|446:259|445:164,1,179.999994506836,2|2,3:2|0:2,0:0:0:0:
388,95,123323,1,2,0:2:0:0:
293,133,123530,6,0,P|308:37|374:-8,1,179.999994506836,10|2,0:2|3:2,0:0:0:0:
388,95,124151,2,0,P|426:73|475:76,2,89.9999972534181,10|2|10,0:2|0:0|0:2,0:0:0:0:
293,133,124771,6,0,P|248:131|212:106,1,89.9999972534181,2|2,3:2|0:0,0:0:0:0:
118,16,125185,5,8,0:2:0:0:
39,82,125392,1,2,3:2:0:0:
126,133,125599,2,0,P|171:116|213:105,1,89.9999972534181,2|2,0:2|3:2,0:0:0:0:
204,230,126013,6,0,P|170:240|143:252,1,44.999998626709,6|2,3:2|0:2,0:0:0:0:
36,364,126426,2,0,B|56:290|69:237|69:237|67:206|52:184,1,179.999994506836,2|10,0:2|0:2,0:0:0:0:
125,10,127254,1,2,3:2:0:0:
118,16,127358,1,2,0:2:0:0:
218,111,127668,1,2,0:2:0:0:
211,105,127772,1,2,0:2:0:0:
321,26,128082,6,0,P|396:15|383:97,2,179.999994506836,2|10|2,3:2|0:2|0:2,0:0:0:0:
296,117,129116,1,0,3:2:0:0:
360,211,129323,6,0,P|394:241|437:251,3,89.9999972534181,2|2|2|2,3:2|0:2|0:2|0:2,0:0:0:0:
339,373,130151,6,0,P|374:343|417:336,1,89.9999972534181,10|2,0:2|0:2,0:0:0:0:
285,234,130564,2,0,P|293:280|282:321,1,89.9999972534181,2|10,3:2|0:2,0:0:0:0:
125,304,130978,6,0,P|160:276|205:271,1,89.9999972534181,2|8,0:2|0:2,0:0:0:0:
196,368,131392,1,0,3:2:0:0:
32,130,131806,6,0,B|36:158|30:172|30:172|-31:200|11:297|98:258|85:197|85:197|94:184|120:179,1,269.999991760254,14|0,0:2|3:2,0:0:0:0:
109,91,132633,5,2,0:2:0:0:
256,192,142564,12,2,144220,0:2:0:0:
436,34,145875,6,0,B|446:50|465:58|465:58|429:104|372:75|379:69|367:12|307:23,1,224.999993133545,4|0,0:2|0:0,0:0:0:0:
52,234,148357,2,0,P|31:185|63:105,1,134.999995880127,4|0,0:2|0:0,0:0:0:0:
118,179,149185,6,0,B|176:165|215:227|190:236|212:308|291:290,1,224.999993133545,4|0,0:2|0:0,0:0:0:0:
488,288,151668,2,0,B|463:315|463:351|463:351|446:319|409:307,1,134.999995880127,4|0,0:2|0:0,0:0:0:0:
420,221,152495,6,0,B|427:194|427:194|361:174|304:204|285:270|297:299,1,224.999993133545,4|0,0:2|0:0,0:0:0:0:
123,43,154978,2,0,P|73:21|58:88,1,134.999995880127,4|0,0:2|0:0,0:0:0:0:
128,150,155806,6,0,L|117:181,1,30,4|2,0:2|0:2,0:0:0:0:
196,293,156220,1,2,0:2:0:0:
316,246,156633,1,2,0:2:0:0:
227,134,157047,6,0,L|216:165,1,30,2|2,0:2|0:2,0:0:0:0:
342,120,157461,6,0,L|331:151,1,30,2|2,0:2|0:2,0:0:0:0:
399,38,157875,2,0,P|427:57|451:73,1,60,2|0,3:0|0:0,0:0:0:0:
493,143,158288,6,0,P|457:158|423:232,1,120,2|2,0:2|0:2,0:0:0:0:
482,300,158909,1,0,0:0:0:0:
373,361,159116,6,0,P|301:337|195:314,1,179.999994506836,12|2,3:0|0:2,0:0:0:0:
144,237,159737,1,2,0:2:0:0:
56,285,159944,6,0,B|43:216|43:216|62:187|62:187|47:112,1,179.999994506836,10|2,0:2|3:2,0:0:0:0:
97,31,160564,1,2,0:2:0:0:
175,100,160771,6,0,L|151:156,2,44.999998626709,2|0|0,0:2|0:2|0:2,0:0:0:0:
97,31,161185,1,2,3:2:0:0:
47,113,161392,2,0,P|12:80|3:39,2,89.9999972534181,2|8|2,0:2|0:2|3:2,0:0:0:0:
178,6,162013,6,0,P|132:7|96:31,1,89.9999972534181,2|2,0:2|3:2,0:0:0:0:
157,141,162426,6,0,B|219:124|234:174|230:179|245:227|305:215,1,179.999994506836,2|2,3:2|0:2,0:0:0:0:
329,115,163047,1,2,0:2:0:0:
264,39,163254,6,0,P|284:111|303:221,1,179.999994506836,10|2,0:2|3:2,0:0:0:0:
365,295,163875,2,0,B|331:326|331:326|285:310,2,89.9999972534181,10|2|8,0:2|0:2|0:2,0:0:0:0:
407,202,164495,6,0,B|448:187|448:187|482:218,1,89.9999972534181,2|2,3:2|0:2,0:0:0:0:
490,322,164909,5,8,0:2:0:0:
490,322,165116,1,2,3:2:0:0:
407,202,165323,6,0,P|419:139|430:102,1,89.9999972534181,2|2,0:2|3:2,0:0:0:0:
307,25,165737,6,0,L|261:39,1,44.999998626709,6|2,3:2|0:2,0:0:0:0:
126,173,166151,2,0,L|310:216,1,179.999994506836,2|10,0:2|0:2,0:0:0:0:
188,358,166978,1,2,3:2:0:0:
181,348,167082,1,2,0:2:0:0:
73,281,167392,1,2,0:2:0:0:
66,291,167496,1,2,0:2:0:0:
126,173,167806,6,0,B|134:105|81:97|81:101|33:93|39:33,2,179.999994506836,2|10|2,3:2|0:2|0:2,0:0:0:0:
73,281,168840,1,0,3:2:0:0:
181,348,169047,6,0,P|244:333|273:329,1,89.9999972534181,2|2,3:2|0:2,0:0:0:0:
281,224,169461,2,0,P|284:271|292:319,1,89.9999972534181,2|2,0:2|0:2,0:0:0:0:
358,166,169875,6,0,P|421:181|450:185,1,89.9999972534181,10|2,0:2|0:2,0:0:0:0:
458,290,170289,2,0,P|461:243|469:195,1,89.9999972534181,2|10,3:2|0:2,0:0:0:0:
506,108,170702,5,2,0:2:0:0:
408,76,170909,1,8,0:0:0:0:
358,166,171116,1,0,3:0:0:0:
126,173,171530,6,0,P|98:231|195:181,1,269.999991760254,14|0,0:2|0:0,0:0:0:0:
189,115,172357,5,2,0:2:0:0:
