osu file format v14

[General]
AudioFilename: audio.mp3
AudioLeadIn: 0
PreviewTime: 46488
Countdown: 0
SampleSet: Soft
StackLeniency: 0.4
Mode: 0
LetterboxInBreaks: 0
WidescreenStoryboard: 1

[Editor]
Bookmarks: 156927,158860
DistanceSpacing: 2
BeatDivisor: 4
GridSize: 32
TimelineZoom: 1.3

[Metadata]
Title:Deja Vu
TitleUnicode:Deja Vu
Artist:TOMORROW X TOGETHER
ArtistUnicode:투모로우바이투게더
Creator:Sani_
Version:Nightmarish interrogation
Source:
Tags:TXT minisode 3: TOMORROW dance kpop korean pop k-pop soobin yeonjun beomgyu taehyun hueningkai 수빈 연준 범규 태현 휴닝카이 hannody leominexd leomine not your kitty sanayui
BeatmapID:4580748
BeatmapSetID:2153768

[Difficulty]
HPDrainRate:5
CircleSize:3.8
OverallDifficulty:8
ApproachRate:8.5
SliderMultiplier:1.8
SliderTickRate:1

[Events]
//Background and Video events
Video,-40,"deja_vu_txt-video.mp4"
0,0,"Beomgyu_Minisode_3_TOMORROW_-_Promise_Concept_Photo_(5).jpg",0,0
//Break Periods
2,41626,45476
2,71074,76028
2,100522,104555
//Storyboard Layer 0 (Background)
//Storyboard Layer 1 (Fail)
//Storyboard Layer 2 (Pass)
//Storyboard Layer 3 (Foreground)
//Storyboard Layer 4 (Overlay)
//Storyboard Sound Samples

[TimingPoints]
200,368.098159509203,4,2,1,85,1,0
11979,-80,4,2,1,75,0,0
23758,-100,4,2,1,65,0,0
35537,-125,4,2,1,55,0,0
38482,-100,4,2,1,65,0,0
41426,-100,4,2,1,55,0,0
47316,-66.6666666666667,4,2,1,80,0,1
48420,-80,4,2,1,80,0,1
51733,-153.846153846154,4,2,1,80,0,1
52101,-80,4,2,1,80,0,1
53206,-66.6666666666667,4,2,1,80,0,1
54310,-80,4,2,1,80,0,1
57623,-153.846153846154,4,2,1,80,0,1
57991,-80,4,2,1,80,0,0
58727,-80,4,2,1,80,0,0
59095,-80,4,2,1,80,0,1
64617,-80,4,2,1,80,0,0
64985,-80,4,2,1,80,0,1
65353,-80,4,2,1,80,0,1
65721,-66.6666666666667,4,2,1,80,0,1
66089,-66.6666666666667,4,2,1,80,0,1
66457,-80,4,2,1,80,0,1
66825,-80,4,2,1,80,0,1
67193,-66.6666666666667,4,2,1,80,0,1
67561,-66.6666666666667,4,2,1,80,0,1
67930,-80,4,2,1,80,0,1
70874,-100,4,2,1,60,0,0
81917,-100,4,2,1,60,0,0
82653,-100,4,2,1,65,0,0
84126,-125,4,2,1,55,0,0
85598,-100,4,2,1,65,0,0
87071,-125,4,2,1,55,0,0
88543,-100,4,2,1,65,0,0
91488,-100,4,2,1,55,0,0
94433,-100,4,2,1,65,0,0
100322,-100,4,2,1,55,0,0
106212,-66.6666666666667,4,2,1,80,0,1
107316,-80,4,2,1,80,0,1
110629,-153.846153846154,4,2,1,80,0,1
110997,-80,4,2,1,80,0,1
111365,-80,4,2,1,80,0,1
112101,-66.6666666666667,4,2,1,80,0,1
113206,-80,4,2,1,80,0,1
116519,-153.846153846154,4,2,1,80,0,1
116887,-80,4,2,1,80,0,0
117623,-80,4,2,1,80,0,0
117991,-80,4,2,1,80,0,1
123512,-80,4,2,1,80,0,0
123880,-80,4,2,1,80,0,1
124617,-66.6666666666667,4,2,1,80,0,1
125353,-80,4,2,1,80,0,1
126089,-66.6666666666667,4,2,1,80,0,1
126825,-80,4,2,1,80,0,1
129770,-86.9565217391304,4,2,1,70,0,0
141549,-86.9565217391304,4,2,1,50,0,0
143758,-400,4,2,1,50,0,0
144494,-66.6666666666667,4,2,1,80,0,1
145598,-80,4,2,1,80,0,1
148911,-153.846153846154,4,2,1,80,0,1
149279,-80,4,2,1,80,0,1
150384,-66.6666666666667,4,2,1,80,0,1
151488,-80,4,2,1,80,0,1
154801,-153.846153846154,4,2,1,80,0,1
155169,-153.846153846154,4,2,1,80,0,0
155537,-80,4,2,1,80,0,0
156273,-80,4,2,1,80,0,1
157377,-80,4,2,1,80,0,1
161795,-80,4,2,1,80,0,0
162163,-80,4,2,1,80,0,1
162899,-80,4,2,1,80,0,1
163635,-80,4,2,1,80,0,1
164371,-80,4,2,1,80,0,1
165107,-80,4,2,1,80,0,1
167868,-80,4,2,1,80,0,0
168052,-80,4,2,1,60,0,0

[Colours]
Combo1 : 239,198,167
Combo2 : 192,239,248
Combo3 : 253,232,149
Combo4 : 209,205,252

[HitObjects]
31,300,11242,5,2,2:2:0:0:
95,252,11426,1,2,2:2:0:0:
174,240,11611,1,2,2:2:0:0:
251,248,11795,1,2,2:2:0:0:
435,317,11979,6,0,B|401:316|383:334|383:334|401:316|403:282,1,112.5,4|0,1:2|0:0,0:0:0:0:
324,281,12347,1,2,2:2:0:0:
473,246,12531,5,6,1:2:0:0:
367,180,12715,2,0,B|367:146|350:128|350:128|366:146|400:149,1,112.5,10|0,2:2|0:0,0:0:0:0:
289,178,13083,2,0,B|226:195|205:129|207:126|210:122|189:47|121:65,1,225,6|0,1:2|0:0,0:0:0:0:
14,224,13635,6,0,B|63:209|75:172|75:172|63:210|96:254,1,168.75,0|0,1:1|0:0,0:0:0:0:
105,255,14003,1,0,0:0:0:0:
31,300,14187,6,0,P|113:282|254:258,1,225,12|0,2:2|0:0,0:0:0:0:
262,252,14647,1,0,0:0:0:0:
273,255,14739,1,0,0:0:0:0:
440,364,14923,5,2,1:2:0:0:
365,333,15107,1,0,0:0:0:0:
469,211,15292,1,0,0:0:0:0:
433,280,15476,1,2,1:2:0:0:
390,109,15660,6,0,B|370:75|370:75|333:69|314:34,1,112.5,10|0,2:2|0:0,0:0:0:0:
313,33,15936,1,0,0:0:0:0:
313,33,16028,6,0,P|298:97|269:283,1,225,2|0,1:2|0:0,0:0:0:0:
137,358,16580,1,0,0:0:0:0:
35,273,16764,5,2,1:2:0:0:
158,355,16948,1,2,1:2:0:0:
19,174,17132,6,0,B|53:165|53:165|63:133|102:106,1,112.5,10|2,2:2|1:2,0:0:0:0:
102,107,17408,1,0,0:0:0:0:
102,107,17500,2,0,P|94:69|88:41,1,56.25,2|0,1:2|0:0,0:0:0:0:
137,187,17684,5,10,2:2:0:0:
313,33,17868,5,4,1:2:0:0:
244,137,18052,1,0,0:0:0:0:
305,45,18236,1,2,2:2:0:0:
358,166,18420,5,6,1:2:0:0:
222,53,18604,1,10,2:2:0:0:
349,159,18788,1,0,0:0:0:0:
493,35,18973,6,0,P|470:59|446:68,1,56.25,6|0,1:2|0:0,0:0:0:0:
449,67,19157,2,0,P|481:123|481:282,1,225,0|0,0:0|1:1,0:0:0:0:
332,352,19709,6,0,P|352:335|380:325,1,56.25,2|0,2:2|0:0,0:0:0:0:
379,325,19893,1,0,0:0:0:0:
475,374,20077,6,0,P|403:355|241:320,1,225,12|0,2:2|0:0,0:0:0:0:
233,306,20537,1,0,0:0:0:0:
222,310,20629,1,0,0:0:0:0:
27,343,20813,5,2,1:2:0:0:
103,373,20997,1,0,0:0:0:0:
70,220,21181,1,0,0:0:0:0:
89,295,21365,1,0,1:1:0:0:
138,169,21549,6,0,B|181:124|181:124|176:99|188:73,1,112.5,10|0,2:2|0:0,0:0:0:0:
187,74,21825,1,0,0:0:0:0:
187,74,21917,6,0,B|243:48|301:73|331:116|331:116|328:150|350:175,1,225,2|0,1:2|0:0,0:0:0:0:
348,173,22653,2,0,P|334:148|331:120,1,56.25,0|0,1:1|0:0,0:0:0:0:
409,124,22838,1,0,1:1:0:0:
327,257,23022,6,0,B|293:263|293:263|274:302|231:306,1,112.5,8|2,2:2|1:2,0:0:0:0:
232,305,23298,1,0,0:0:0:0:
232,305,23390,1,2,1:2:0:0:
89,295,23574,1,10,2:2:0:0:
135,202,23758,6,0,P|182:215|222:228,1,90,4|2,1:1|2:2,0:0:0:0:
330,120,24126,1,2,2:2:0:0:
295,50,24310,1,2,2:2:0:0:
231,151,24494,2,0,P|289:141|410:123,1,180,10|2,2:2|1:2,0:0:0:0:
479,58,25046,1,2,2:2:0:0:
509,192,25230,6,0,P|490:237|476:277,1,90,2|2,2:2|1:2,0:0:0:0:
319,269,25598,1,2,1:2:0:0:
357,340,25782,1,2,2:2:0:0:
411,232,25966,2,0,P|371:267|274:348,1,180,10|2,2:2|2:2,0:0:0:0:
251,351,26426,1,2,2:2:0:0:
241,346,26519,1,2,2:2:0:0:
130,257,26703,5,2,1:2:0:0:
148,336,26887,1,2,2:2:0:0:
57,307,27071,1,2,2:2:0:0:
61,333,27255,1,2,2:2:0:0:
144,234,27439,5,10,2:2:0:0:
46,192,27623,1,2,2:2:0:0:
150,127,27807,1,2,1:2:0:0:
84,72,27991,1,2,2:2:0:0:
201,46,28175,6,0,P|255:58|316:80,1,90,2|0,2:2|1:1,0:0:0:0:
346,5,28451,2,0,P|361:44|377:96,1,90,2|0,2:2|0:0,0:0:0:0:
458,81,28727,2,0,P|451:112|444:148,1,45,2|0,2:2|0:0,0:0:0:0:
478,66,28911,1,10,2:2:0:0:
368,169,29095,1,0,1:1:0:0:
376,176,29187,1,0,0:0:0:0:
379,167,29279,1,2,2:2:0:0:
469,268,29463,1,8,2:2:0:0:
512,174,29647,6,0,P|495:220|482:261,1,90,2|2,1:2|2:2,0:0:0:0:
386,378,30015,2,0,P|372:335|345:245,1,135,2|0,2:2|0:0,0:0:0:0:
346,248,30384,6,0,B|313:235|293:206|293:206|179:191,1,180,10|2,2:2|1:2,0:0:0:0:
107,131,30936,1,2,2:2:0:0:
31,285,31120,6,0,P|67:277|144:262,1,90,2|0,2:2|1:1,0:0:0:0:
132,264,31396,1,2,2:2:0:0:
144,261,31488,2,0,B|124:255|112:235|112:235|64:223,1,90,0|2,1:1|2:2,0:0:0:0:
107,131,31856,6,0,P|128:204|146:269,1,135,10|0,2:2|0:0,0:0:0:0:
210,304,32224,5,2,2:2:0:0:
206,314,32316,1,2,2:2:0:0:
202,323,32408,1,2,2:2:0:0:
371,171,32592,6,0,P|379:130|385:88,1,45,2|2,1:2|2:2,0:0:0:0:
295,248,32868,2,0,P|343:266|386:285,1,90,2|0,2:2|0:0,0:0:0:0:
378,281,33144,1,2,2:2:0:0:
249,146,33328,6,0,P|241:100|235:58,1,90,10|0,2:2|0:0,0:0:0:0:
234,57,33604,1,2,2:2:0:0:
234,57,33696,2,0,B|206:46|206:46|195:17|168:2,1,90,0|2,1:1|2:2,0:0:0:0:
95,208,34065,6,0,B|122:193|133:164|133:164|161:152,1,90,2|0,2:2|1:1,0:0:0:0:
161,153,34341,1,2,2:2:0:0:
161,153,34433,2,0,P|142:104|128:68,1,90,0|2,1:1|1:2,0:0:0:0:
0,109,34801,5,10,2:2:0:0:
40,35,34985,5,0,1:1:0:0:
40,35,35077,1,0,0:0:0:0:
40,35,35169,1,2,1:2:0:0:
95,208,35353,2,0,P|83:239|73:273,1,45,10|0,2:2|0:0,0:0:0:0:
9,294,35537,6,0,P|57:280|137:337,1,144,4|0,1:1|0:0,0:0:0:0:
210,347,36089,1,2,1:2:0:0:
296,331,36273,5,2,2:2:0:0:
302,340,36457,1,2,2:2:0:0:
397,305,36641,5,2,1:2:0:0:
397,317,36825,1,2,2:2:0:0:
490,335,37009,5,2,2:2:0:0:
486,344,37193,1,2,2:2:0:0:
481,353,37377,6,0,P|463:270|448:197,1,144,2|8,2:2|2:2,0:0:0:0:
394,145,38114,5,2,2:2:0:0:
397,131,38206,1,2,2:2:0:0:
400,117,38298,1,2,2:2:0:0:
461,42,38482,6,0,P|482:60|466:32,1,90,2|0,1:2|0:0,0:0:0:0:
381,7,38850,1,0,0:0:0:0:
292,95,39034,5,2,1:2:0:0:
176,35,39218,5,10,2:2:0:0:
184,43,39402,1,2,2:2:0:0:
117,114,39586,5,2,1:2:0:0:
127,118,39770,1,2,2:2:0:0:
145,212,39954,5,2,2:2:0:0:
155,209,40138,1,2,1:2:0:0:
274,272,40322,6,0,B|223:260|197:311|197:311|172:358|121:342,1,180,2|8,1:2|2:2,0:0:0:0:
25,223,40874,5,0,1:1:0:0:
22,209,40966,1,0,0:0:0:0:
19,195,41058,1,0,0:0:0:0:
117,114,41242,1,10,2:2:0:0:
31,55,41426,5,2,1:2:0:0:
486,347,46580,5,10,2:2:0:0:
341,278,46764,1,0,3:3:0:0:
355,235,46856,1,0,3:3:0:0:
369,192,46948,1,2,3:2:0:0:
448,83,47132,1,0,1:1:0:0:
492,151,47316,6,0,B|504:157|509:166|509:177|493:211|493:211|460:195|452:186|451:170|458:157,1,135.000005149842,4|0,1:2|0:0,0:0:0:0:
274,140,47684,1,2,2:2:0:0:
314,74,47868,6,0,B|326:68|331:59|331:48|315:14|315:14|282:30|274:39|273:55|280:68,1,135.000005149842,4|8,1:2|2:2,0:0:0:0:
192,197,48236,1,0,0:0:0:0:
103,156,48420,5,6,1:2:0:0:
103,156,48604,1,2,2:2:0:0:
50,321,48788,5,2,2:2:0:0:
45,293,48880,1,0,0:0:0:0:
40,265,48973,1,0,1:1:0:0:
34,237,49065,1,0,0:0:0:0:
28,208,49157,1,2,2:2:0:0:
180,108,49341,1,2,2:2:0:0:
148,279,49525,6,0,B|257:309|257:309|261:335|284:357,1,168.75,14|0,2:2|0:0,0:0:0:0:
347,304,49893,1,2,2:2:0:0:
347,304,49985,1,2,2:2:0:0:
347,304,50077,2,0,P|358:264|367:235,1,56.25,2|0,2:2|0:0,0:0:0:0:
454,199,50261,6,0,P|379:228|327:169,1,168.75,2|0,1:2|0:0,0:0:0:0:
327,169,50629,1,2,2:2:0:0:
404,104,50813,1,0,1:1:0:0:
255,13,50997,5,10,2:2:0:0:
290,89,51181,1,2,2:2:0:0:
345,24,51365,2,0,P|283:38|181:60,1,168.75,2|0,1:2|0:0,0:0:0:0:
162,168,51733,6,0,P|178:146|156:166,1,87.749995983124,2|0,2:2|0:0,0:0:0:0:
18,162,52101,6,0,B|70:184|70:184|80:211|101:230,1,112.5,0|0,1:1|1:1,0:0:0:0:
256,309,52469,6,0,B|235:328|225:354|225:354|173:377,1,112.5,10|0,2:2|1:1,0:0:0:0:
256,309,52746,1,2,0:0:0:0:
256,309,52838,2,0,P|314:323|366:335,1,112.5,2|8,1:2|2:2,0:0:0:0:
495,237,53206,5,4,1:2:0:0:
446,365,53390,1,0,0:0:0:0:
450,355,53574,1,2,2:2:0:0:
351,229,53758,5,4,1:2:0:0:
462,138,53942,1,8,2:2:0:0:
454,145,54126,1,0,0:0:0:0:
297,100,54310,5,6,1:2:0:0:
396,6,54494,2,0,P|388:39|381:68,1,56.25,2|0,2:2|0:0,0:0:0:0:
382,60,54678,2,0,P|316:82|241:28,1,168.75,2|0,2:2|0:0,0:0:0:0:
241,28,55046,1,2,2:2:0:0:
164,66,55230,1,2,2:2:0:0:
32,33,55414,6,0,B|67:53|67:53|63:99|85:140|132:153,1,168.75,14|0,2:2|0:0,0:0:0:0:
190,220,55782,1,2,2:2:0:0:
190,220,55874,1,2,2:2:0:0:
190,220,55966,2,0,L|88:245,1,56.25,2|0,2:2|0:0,0:0:0:0:
245,161,56150,6,0,P|217:259|198:326,1,168.75,2|0,1:2|0:0,0:0:0:0:
198,323,56519,1,2,2:2:0:0:
278,368,56703,1,0,1:1:0:0:
388,241,56887,5,10,2:2:0:0:
457,316,57071,1,2,2:2:0:0:
305,269,57255,2,0,B|335:274|368:256|376:223|373:221|377:190|406:168|437:171,1,168.75,2|0,1:2|0:0,0:0:0:0:
422,83,57623,6,0,P|376:69|338:58,1,87.749995983124,2|0,2:2|0:0,0:0:0:0:
337,57,57991,6,0,P|329:39|320:-3,1,56.25,2|0,1:2|0:0,0:0:0:0:
241,28,58175,2,0,P|249:46|258:88,1,56.25,2|0,1:2|0:0,0:0:0:0:
257,81,58359,1,10,2:2:0:0:
418,3,58543,5,0,1:1:0:0:
418,3,58635,1,0,0:0:0:0:
418,3,58727,2,0,P|468:-4|500:43,1,112.5,2|8,1:2|2:2,0:0:0:0:
245,161,59095,6,0,B|251:183|275:200|275:200|221:165|163:163,1,168.75,4|0,1:2|0:0,0:0:0:0:
163,163,59463,1,0,0:0:0:0:
66,263,59647,6,0,B|60:285|36:302|36:302|90:267|148:265,1,168.75,4|0,1:2|0:0,0:0:0:0:
147,265,60015,1,0,0:0:0:0:
385,342,60200,6,0,B|350:353|337:377|337:377|344:333|321:292|295:296|271:271|217:288|220:322|204:346|177:359|133:348,1,337.5,6|2,1:2|1:2,0:0:0:0:
80,183,60936,5,2,2:2:0:0:
74,155,61028,1,0,0:0:0:0:
67,127,61120,1,2,2:2:0:0:
156,36,61304,5,14,2:2:0:0:
243,11,61488,1,0,0:0:0:0:
225,108,61672,5,2,2:2:0:0:
225,108,61764,1,2,2:2:0:0:
225,108,61856,2,0,P|235:137|247:166,1,56.25,2|0,2:2|0:0,0:0:0:0:
179,214,62040,6,0,B|240:181|303:205|335:260|335:260|342:323|387:342,1,281.25,2|0,1:2|0:0,0:0:0:0:
443,266,62592,2,0,P|456:260|437:261,1,56.25,2|0,1:2|0:0,0:0:0:0:
443,266,62776,6,0,P|455:202|508:113,1,168.75,8|0,2:2|0:0,0:0:0:0:
382,17,63144,6,0,P|411:85|382:344,1,337.5,2|0,1:2|0:0,0:0:0:0:
384,340,63880,6,0,P|398:311|408:287,1,56.25,0|0,1:1|0:0,0:0:0:0:
312,210,64065,2,0,P|322:235|335:261,1,56.25,0|0,1:1|0:0,0:0:0:0:
292,324,64249,2,0,P|305:294|315:270,1,56.25,8|0,2:2|0:0,0:0:0:0:
219,193,64434,2,0,P|229:218|242:244,1,56.25,0|0,1:1|0:0,0:0:0:0:
199,307,64617,2,0,P|212:277|222:253,1,56.25,0|0,1:1|0:0,0:0:0:0:
126,176,64801,2,0,P|136:201|149:227,1,56.25,8|0,2:2|0:0,0:0:0:0:
89,295,64985,6,0,P|114:233|151:69,1,225,4|2,1:2|2:2,0:0:0:0:
104,11,65537,6,0,P|93:-1|99:19,1,56.25,4|0,1:2|0:0,0:0:0:0:
257,63,65721,6,0,B|277:69|292:81|292:81|263:118|225:106|222:68|234:50|216:24|184:12,1,202.500007724762,10|0,2:2|0:0,0:0:0:0:
149,79,66089,2,0,P|240:45|343:18,1,202.500007724762,6|0,1:2|0:0,0:0:0:0:
480,102,66457,5,2,2:2:0:0:
480,102,66641,1,0,1:1:0:0:
512,28,66825,2,0,P|447:69|420:200,1,168.75,2|0,2:2|0:0,0:0:0:0:
491,230,67193,6,0,B|451:162|380:161|337:212|337:212|331:262|289:280,1,270.000010299683,14|2,2:2|2:2,0:0:0:0:
273,290,67653,1,2,2:2:0:0:
260,285,67746,1,2,2:2:0:0:
198,160,67930,6,0,P|239:210|233:367,1,225,2|2,1:2|2:2,0:0:0:0:
40,300,68482,2,0,P|63:318|84:354,1,56.25,0|0,1:1|0:0,0:0:0:0:
78,340,68666,6,0,P|123:333|137:265,1,112.5,10|2,2:2|2:2,0:0:0:0:
198,160,69034,2,0,P|153:153|139:85,1,112.5,2|0,1:2|0:0,0:0:0:0:
61,71,69310,1,0,0:0:0:0:
61,71,69402,6,0,P|107:136|142:280,1,225,2|2,2:2|1:2,0:0:0:0:
235,363,69954,1,2,1:2:0:0:
331,296,70138,5,10,2:2:0:0:
408,355,70322,1,0,1:1:0:0:
476,304,70506,5,0,1:1:0:0:
476,304,70690,1,8,2:2:0:0:
409,206,70874,5,4,1:2:0:0:
256,192,76764,12,0,79341,0:0:0:0:
256,192,79709,12,0,81181,0:0:0:0:
426,225,81549,5,2,1:2:0:0:
426,225,81733,1,2,2:2:0:0:
426,225,81917,6,0,B|439:245|462:256|462:256|437:254|418:262|418:262|404:245|384:235|384:235|408:238|429:223,1,180,10|2,2:2|2:2,0:0:0:0:
279,245,82469,2,0,B|270:234|270:218|279:220|290:221|288:252,1,45,10|0,2:2|0:0,0:0:0:0:
346,306,82653,6,0,P|274:322|227:330,1,90,4|0,1:1|0:0,0:0:0:0:
105,247,83022,2,0,P|149:254|193:263,1,90,0|2,0:0|1:2,0:0:0:0:
66,318,83390,6,0,P|50:213|39:137,1,180,10|0,2:2|1:1,0:0:0:0:
94,73,83942,1,2,2:2:0:0:
207,14,84126,6,0,B|242:26|255:57|250:59|247:63|274:116|358:99|360:49|360:23,1,216,2|0,2:2|0:0,0:0:0:0:
447,24,84862,1,2,2:2:0:0:
420,103,85046,1,2,2:2:0:0:
329,181,85230,5,2,2:2:0:0:
322,205,85322,1,2,2:2:0:0:
314,229,85414,1,2,2:2:0:0:
251,366,85598,6,0,P|306:309|394:338,1,180,2|0,1:2|0:0,0:0:0:0:
471,373,86150,1,2,2:2:0:0:
504,240,86334,6,0,P|435:244|405:192,1,135,10|0,2:2|0:0,0:0:0:0:
405,192,86703,2,0,P|413:145|421:99,1,90,0|2,1:1|2:2,0:0:0:0:
299,17,87071,6,0,P|306:61|313:97,1,72,2|2,2:2|1:2,0:0:0:0:
242,173,87439,2,0,B|200:172|181:211|181:211|163:247|110:237,1,144,0|2,1:1|2:2,0:0:0:0:
48,201,87991,1,2,2:2:0:0:
106,139,88175,1,2,2:2:0:0:
106,139,88359,1,2,2:2:0:0:
247,249,88543,6,0,P|298:261|425:294,1,180,2|0,1:2|0:0,0:0:0:0:
477,165,89095,1,2,2:2:0:0:
477,165,89187,1,0,0:0:0:0:
477,165,89279,6,0,P|434:170|417:213,1,90,10|0,2:2|0:0,0:0:0:0:
506,280,89647,1,0,1:1:0:0:
437,373,89831,1,2,2:2:0:0:
416,209,90015,6,0,P|406:139|399:86,1,90,2|0,2:2|1:1,0:0:0:0:
401,98,90292,1,2,2:2:0:0:
396,75,90384,2,0,B|365:62|365:62|359:32|332:11,1,90,2|0,1:2|0:0,0:0:0:0:
153,109,90752,6,0,P|238:89|293:76,1,135,8|0,2:2|0:0,0:0:0:0:
317,150,91120,1,2,2:2:0:0:
309,162,91212,1,2,2:2:0:0:
302,175,91304,1,2,2:2:0:0:
190,246,91488,6,0,B|199:262|225:270|225:270|199:262|170:269|149:289|150:293|145:323|92:341|45:305|45:243|76:218|76:218|70:208|70:208|94:181|91:127|74:97|37:86,1,450,2|0,1:2|0:0,0:0:0:0:
11,156,92592,2,0,B|58:188|128:164|149:113|144:88|144:88|150:97|167:103|167:103|153:105|148:113,1,225,0|0,0:0|0:0,0:0:0:0:
152,108,93144,5,2,1:2:0:0:
246,190,93328,1,0,1:1:0:0:
365,179,93512,1,2,1:2:0:0:
440,86,93696,6,0,B|413:75|401:47|401:47|368:30,1,90,10|0,2:2|1:1,0:0:0:0:
371,31,93973,1,0,0:0:0:0:
371,31,94065,1,0,1:1:0:0:
480,11,94249,1,10,2:2:0:0:
497,169,94433,6,0,P|483:211|469:257,1,90,4|2,1:1|2:2,0:0:0:0:
390,310,94801,1,2,2:2:0:0:
394,320,94985,1,2,1:2:0:0:
246,346,95169,6,0,P|197:337|154:329,1,90,10|2,2:2|2:2,0:0:0:0:
72,362,95537,1,2,1:2:0:0:
64,367,95721,1,2,2:2:0:0:
120,246,95905,6,0,P|105:202|76:169,1,90,2|0,2:2|1:1,0:0:0:0:
142,121,96181,2,0,P|149:77|169:35,1,90,2|0,2:2|0:0,0:0:0:0:
168,36,96457,1,2,2:2:0:0:
34,1,96641,6,0,P|64:46|74:176,1,180,10|2,2:2|2:2,0:0:0:0:
55,186,97101,1,2,2:2:0:0:
51,198,97193,1,2,2:2:0:0:
157,329,97377,5,2,1:2:0:0:
209,246,97561,1,0,0:0:0:0:
281,289,97746,2,0,P|328:282|377:275,1,90,2|2,2:2|1:2,0:0:0:0:
495,308,98114,5,10,2:2:0:0:
457,215,98298,1,0,0:0:0:0:
497,141,98482,2,0,P|503:94|508:48,1,90,2|2,1:2|2:2,0:0:0:0:
352,13,98850,6,0,P|326:40|274:48,1,90,2|0,2:2|1:1,0:0:0:0:
275,48,99126,1,2,2:2:0:0:
275,48,99218,2,0,B|288:103|288:103|312:117|325:139,1,90,0|2,1:1|2:2,0:0:0:0:
155,142,99586,1,10,2:2:0:0:
224,198,99770,1,0,1:1:0:0:
236,194,99862,1,0,0:0:0:0:
248,190,99954,1,0,0:0:0:0:
147,132,100138,6,0,L|153:79,1,45,10|0,2:2|0:0,0:0:0:0:
126,256,100322,1,2,1:2:0:0:
26,347,105476,5,10,2:2:0:0:
171,278,105660,1,0,3:3:0:0:
157,235,105752,1,0,3:3:0:0:
143,192,105844,1,2,3:2:0:0:
22,84,106028,1,0,1:1:0:0:
11,160,106212,6,0,B|46:173|62:203|62:203|58:171|78:140,1,135.000005149842,4|0,1:2|0:0,0:0:0:0:
256,106,106580,1,2,2:2:0:0:
313,49,106764,6,0,B|293:18|296:-16|296:-16|281:16|246:29,1,135.000005149842,4|8,1:2|2:2,0:0:0:0:
322,182,107132,1,0,0:0:0:0:
401,138,107316,5,6,1:2:0:0:
401,138,107500,1,2,2:2:0:0:
482,281,107684,5,2,2:2:0:0:
458,275,107776,1,0,0:0:0:0:
433,270,107868,1,0,1:1:0:0:
409,265,107960,1,0,0:0:0:0:
384,259,108052,1,2,2:2:0:0:
243,239,108236,1,2,2:2:0:0:
130,351,108420,6,0,B|114:232|114:232|90:223|75:202,1,168.75,14|0,2:2|0:0,0:0:0:0:
143,148,108788,1,2,2:2:0:0:
143,148,108880,1,2,2:2:0:0:
143,148,108973,2,0,L|133:92,1,56.25,2|0,2:2|0:0,0:0:0:0:
86,8,109157,6,0,P|113:68|203:55,1,168.75,2|0,1:2|0:0,0:0:0:0:
202,55,109525,1,2,2:2:0:0:
286,12,109709,1,0,1:1:0:0:
365,162,109893,5,10,2:2:0:0:
285,136,110077,1,2,2:2:0:0:
304,219,110261,2,0,P|390:204|472:190,1,168.75,2|0,1:2|0:0,0:0:0:0:
458,275,110629,6,0,P|416:282|368:290,1,87.749995983124,2|0,2:2|0:0,0:0:0:0:
297,353,110997,6,0,B|240:335|240:335|230:309|207:292,1,112.5,0|0,1:1|1:1,0:0:0:0:
48,272,111365,6,0,B|104:254|104:254|114:228|138:211,1,112.5,10|0,2:2|1:1,0:0:0:0:
48,272,111641,1,2,0:0:0:0:
48,272,111733,2,0,P|32:329|18:384,1,112.5,2|8,1:2|2:2,0:0:0:0:
64,166,112101,5,4,1:2:0:0:
4,43,112285,1,0,0:0:0:0:
10,54,112469,1,2,2:2:0:0:
176,117,112653,5,4,1:2:0:0:
108,4,112838,1,8,2:2:0:0:
114,14,113022,1,0,0:0:0:0:
288,68,113206,5,6,1:2:0:0:
399,174,113390,2,0,L|414:119,1,56.25,2|0,2:2|0:0,0:0:0:0:
414,120,113574,2,0,P|339:97|278:155,1,168.75,2|0,2:2|0:0,0:0:0:0:
278,153,113942,1,2,2:2:0:0:
339,237,114126,1,2,2:2:0:0:
224,322,114310,5,14,2:2:0:0:
224,322,114402,2,0,B|190:316|190:316|146:309|141:338|97:326,1,112.5,2|0,2:2|0:0,0:0:0:0:
86,257,114678,1,2,2:2:0:0:
86,257,114770,1,2,2:2:0:0:
86,257,114862,2,0,L|103:204,1,56.25,2|0,2:2|0:0,0:0:0:0:
47,145,115046,6,0,P|99:168|150:88,1,168.75,2|0,1:2|0:0,0:0:0:0:
150,88,115414,1,2,2:2:0:0:
70,45,115598,1,0,1:1:0:0:
227,8,115782,5,10,2:2:0:0:
281,83,115966,1,2,2:2:0:0:
351,25,116150,2,0,P|319:107|286:205,1,168.75,2|0,1:2|0:0,0:0:0:0:
356,232,116519,6,0,P|376:248|358:226,1,87.749995983124,2|0,2:2|0:0,0:0:0:0:
298,302,116887,6,0,P|290:335|287:360,1,56.25,2|0,1:2|0:0,0:0:0:0:
206,344,117071,2,0,P|214:311|217:286,1,56.25,2|0,1:2|0:0,0:0:0:0:
216,288,117255,1,10,2:2:0:0:
381,355,117439,5,0,1:1:0:0:
381,355,117531,1,0,0:0:0:0:
381,355,117623,2,0,P|442:366|493:375,1,112.5,2|8,1:2|2:2,0:0:0:0:
358,225,117991,6,0,B|374:228|392:241|392:241|381:188|333:169|294:184,1,168.75,4|0,1:2|0:0,0:0:0:0:
292,179,118359,1,0,0:0:0:0:
206,77,118543,6,0,B|190:80|172:93|172:93|183:40|231:21|270:36,1,168.75,4|0,1:2|0:0,0:0:0:0:
271,31,118911,1,0,0:0:0:0:
441,48,119095,6,0,B|433:37|429:22|433:2|433:2|391:21|380:66|394:113|445:130|445:130|451:126|451:126|447:139|447:139|454:136|454:136|492:171|479:221,1,337.5,6|2,1:2|1:2,0:0:0:0:
328,296,119831,5,2,2:2:0:0:
298,302,119923,1,0,0:0:0:0:
268,308,120015,1,2,2:2:0:0:
150,241,120200,5,14,2:2:0:0:
188,160,120384,1,0,0:0:0:0:
98,172,120568,5,2,2:2:0:0:
98,172,120660,1,2,2:2:0:0:
98,172,120752,2,0,L|40:155,1,56.25,2|0,2:2|0:0,0:0:0:0:
25,81,120936,6,0,B|75:148|27:214|23:213|18:212|-28:280|20:346,1,281.25,2|0,1:2|0:0,0:0:0:0:
97,298,121488,2,0,P|83:289|101:295,1,56.25,2|0,1:2|0:0,0:0:0:0:
97,298,121672,6,0,P|155:312|242:384,1,168.75,8|0,2:2|0:0,0:0:0:0:
328,251,122040,6,0,P|229:322|15:344,1,337.5,2|0,1:2|0:0,0:0:0:0:
19,344,122776,6,0,P|49:350|79:353,1,56.25,0|0,1:1|0:0,0:0:0:0:
152,290,122960,2,0,P|122:295|92:298,1,56.25,0|0,1:1|0:0,0:0:0:0:
20,235,123144,2,0,P|49:240|79:243,1,56.25,8|0,2:2|0:0,0:0:0:0:
152,180,123328,2,0,P|122:185|92:188,1,56.25,0|0,1:1|0:0,0:0:0:0:
20,125,123512,2,0,P|49:130|79:133,1,56.25,0|0,1:1|0:0,0:0:0:0:
152,70,123696,2,0,P|122:75|92:78,1,56.25,8|0,2:2|0:0,0:0:0:0:
20,15,123880,6,0,P|137:37|259:77,1,225,4|2,1:2|2:2,0:0:0:0:
408,39,124433,2,0,P|422:23|417:42,1,56.25,4|0,1:2|0:0,0:0:0:0:
439,129,124617,6,0,B|355:139|317:86|317:86|322:53|305:22,1,202.500007724762,10|0,2:2|0:0,0:0:0:0:
237,68,124985,2,0,P|275:133|284:260,1,202.500007724762,6|0,1:2|0:0,0:0:0:0:
179,350,125353,1,2,2:2:0:0:
179,350,125537,1,0,1:1:0:0:
106,289,125721,6,0,B|178:298|178:298|238:305|217:338|293:344,1,168.75,2|0,2:2|0:0,0:0:0:0:
284,257,126089,6,0,P|171:282|13:281,1,270.000010299683,14|2,2:2|2:2,0:0:0:0:
11,261,126549,1,2,2:2:0:0:
22,254,126641,1,2,2:2:0:0:
123,171,126825,6,0,B|80:126|88:70|88:70|71:123|4:140,1,225,2|2,1:2|2:2,0:0:0:0:
211,110,127377,2,0,P|207:87|216:111,1,56.25,0|0,1:1|0:0,0:0:0:0:
229,94,127561,6,0,P|292:109|353:126,1,112.5,10|2,2:2|2:2,0:0:0:0:
473,227,127930,2,0,P|410:242|349:259,1,112.5,2|0,1:2|0:0,0:0:0:0:
287,205,128206,1,0,0:0:0:0:
287,205,128298,6,0,B|310:227|310:227|304:296|227:305|197:251|197:251|212:220,1,225,2|2,2:2|1:2,0:0:0:0:
115,187,128850,1,2,1:2:0:0:
23,234,129034,5,10,2:2:0:0:
124,289,129218,1,0,1:1:0:0:
45,348,129402,5,0,1:1:0:0:
45,348,129586,1,8,2:2:0:0:
23,234,129770,6,0,B|55:181|23:136|19:132|15:130|-19:88|21:33,1,207.000003948212,4|0,1:2|0:0,0:0:0:0:
166,101,130322,2,0,B|170:111|170:111|128:130|89:82,2,103.500001974106,4|0|0,1:2|0:0|0:0,0:0:0:0:
316,83,130874,6,0,B|308:69|308:69|231:150|286:260,1,207.000003948212,4|0,1:2|0:0,0:0:0:0:
279,245,131426,1,0,1:1:0:0:
337,355,131611,1,0,3:3:0:0:
435,362,131795,1,0,3:3:0:0:
485,278,131979,5,0,1:1:0:0:
419,351,132163,1,0,0:0:0:0:
377,216,132347,5,0,3:3:0:0:
422,330,132531,1,0,3:3:0:0:
468,180,132715,6,0,P|509:125|476:186,1,207.000003948212,4|0,1:2|0:0,0:0:0:0:
377,216,133267,2,0,B|321:225|304:159|304:159|282:90|210:109,1,207.000003948212,4|0,1:2|0:0,0:0:0:0:
60,68,133819,6,0,B|81:74|84:92|84:92|83:72|88:17|179:9|187:55|196:115|196:115|209:191,1,310.500005922318,4|0,1:2|3:3,0:0:0:0:
164,265,134555,1,0,1:1:0:0:
167,276,134739,1,0,1:1:0:0:
215,355,134923,1,0,1:1:0:0:
300,312,135107,1,0,1:1:0:0:
208,351,135292,2,0,P|120:360|43:368,1,155.250002961159,0|0,1:1|0:0,0:0:0:0:
53,366,135660,6,0,B|106:327|119:253|57:205|9:239|28:287,1,207.000003948212,4|0,1:2|0:0,0:0:0:0:
130,189,136212,2,0,B|81:149|100:101|121:103|131:125,2,103.500001974106,4|0|0,1:2|0:0|0:0,0:0:0:0:
74,20,136764,6,0,P|105:87|258:80,1,207.000003948212,4|0,1:2|0:0,0:0:0:0:
367,20,137316,6,0,P|310:13|282:61,1,103.500001974106,0|0,1:1|0:0,0:0:0:0:
254,243,137684,1,0,3:3:0:0:
254,243,137776,1,0,3:3:0:0:
254,243,137868,2,0,B|316:258|316:258|391:276|348:322|425:346,1,207.000003948212,0|0,3:3|0:0,0:0:0:0:
512,226,138420,2,0,P|494:204|488:182,1,51.7500009870529,0|0,0:0|0:0,0:0:0:0:
487,181,138604,6,0,P|450:219|443:270,2,103.500001974106,4|0|0,1:2|3:3|3:3,0:0:0:0:
441,85,139157,2,0,P|484:170|436:272,1,207.000003948212,4|0,1:2|3:3,0:0:0:0:
254,243,139709,6,0,B|213:235|186:278|186:278|147:319|73:332|8:297|-21:226|5:180|5:180|14:203|41:215,1,414.000007896424,4|0,1:2|1:1,0:0:0:0:
151,86,140629,2,0,P|129:74|115:50,1,51.7500009870529,0|0,1:1|0:0,0:0:0:0:
116,52,140813,6,0,P|108:107|75:147,1,103.500001974106,8|0,2:2|1:1,0:0:0:0:
254,243,141181,2,0,P|223:201|217:151,1,103.500001974106,0|8,1:1|2:2,0:0:0:0:
216,151,143758,6,0,P|239:160|261:164,1,45,4|2,0:1|2:2,0:0:0:0:
258,163,144494,6,0,P|271:94|303:36,1,135.000005149842,4|0,1:2|0:0,0:0:0:0:
301,37,144862,1,2,2:2:0:0:
178,233,145046,6,0,P|165:164|133:106,1,135.000005149842,4|8,1:2|2:2,0:0:0:0:
134,107,145414,1,0,0:0:0:0:
30,68,145598,1,6,1:2:0:0:
30,68,145782,1,2,2:2:0:0:
4,262,145966,5,2,2:2:0:0:
39,254,146058,1,0,0:0:0:0:
74,260,146150,1,0,1:1:0:0:
106,272,146242,1,0,0:0:0:0:
129,299,146334,1,2,2:2:0:0:
34,375,146519,1,2,2:2:0:0:
178,233,146703,6,0,B|227:247|249:197|249:197|272:152|314:159,1,168.75,14|0,2:2|0:0,0:0:0:0:
371,219,147071,1,2,2:2:0:0:
375,232,147163,1,2,2:2:0:0:
381,244,147255,2,0,L|362:321,1,56.25,2|0,2:2|0:0,0:0:0:0:
299,369,147439,6,0,P|357:313|453:353,1,168.75,2|0,1:2|0:0,0:0:0:0:
435,331,147807,1,2,2:2:0:0:
504,262,147991,1,0,1:1:0:0:
428,153,148175,5,10,2:2:0:0:
490,91,148359,1,2,2:2:0:0:
409,62,148543,2,0,B|295:45|295:45|287:15|256:-4,1,168.75,2|0,1:2|0:0,0:0:0:0:
200,89,148911,6,0,P|192:69|204:90,1,87.749995983124,2|0,2:2|0:0,0:0:0:0:
204,89,149279,6,0,P|177:138|169:201,1,112.5,0|0,1:1|1:1,0:0:0:0:
69,316,149647,6,0,P|60:260|33:211,1,112.5,10|0,2:2|1:1,0:0:0:0:
69,316,149923,1,2,0:0:0:0:
69,316,150015,2,0,P|125:324|181:333,1,112.5,2|8,1:2|2:2,0:0:0:0:
340,352,150384,5,4,1:2:0:0:
255,273,150568,1,0,0:0:0:0:
258,283,150752,1,2,2:2:0:0:
415,178,150936,5,4,1:2:0:0:
343,267,151120,1,8,2:2:0:0:
339,259,151304,1,0,0:0:0:0:
237,136,151488,5,6,1:2:0:0:
317,178,151672,1,2,2:2:0:0:
168,193,151856,5,2,2:2:0:0:
168,193,151948,2,0,B|121:179|92:210|92:215|92:220|66:253|15:237,1,168.75,0|2,0:0|2:2,0:0:0:0:
152,278,152408,1,2,2:2:0:0:
30,151,152592,6,0,P|45:91|58:42,1,112.5,14|0,2:2|0:0,0:0:0:0:
156,13,152960,1,2,2:2:0:0:
156,13,153052,1,2,2:2:0:0:
156,13,153144,1,2,2:2:0:0:
237,136,153328,6,0,B|299:158|326:107|328:102|330:96|365:32|431:57,1,225,2|2,1:2|2:2,0:0:0:0:
502,139,153880,1,0,1:1:0:0:
502,139,153973,1,0,0:0:0:0:
502,139,154065,6,0,P|481:197|465:246,1,112.5,10|2,2:2|2:2,0:0:0:0:
375,365,154433,2,0,P|357:311|322:198,1,168.75,2|0,1:2|0:0,0:0:0:0:
255,273,154801,6,0,P|268:313|283:364,1,87.749995983124,2|0,2:2|0:0,0:0:0:0:
280,356,155169,1,2,1:2:0:0:
185,337,155353,1,2,1:2:0:0:
323,204,155537,5,10,2:2:0:0:
237,136,155721,1,0,1:1:0:0:
237,136,155813,1,0,0:0:0:0:
237,136,155905,2,0,P|183:148|131:128,1,112.5,2|8,1:2|2:2,0:0:0:0:
323,204,156273,6,0,P|277:133|286:45,1,168.75,4|0,1:2|0:0,0:0:0:0:
282,51,156641,1,0,0:0:0:0:
131,128,156825,6,0,P|177:199|168:287,1,168.75,4|0,1:2|0:0,0:0:0:0:
171,280,157193,1,0,0:0:0:0:
16,318,157377,6,0,B|5:291|5:291|102:244|214:267|274:378,1,337.5,6|2,1:2|1:2,0:0:0:0:
436,299,158114,5,2,2:2:0:0:
406,306,158206,1,0,0:0:0:0:
377,315,158298,1,2,2:2:0:0:
480,219,158482,5,14,2:2:0:0:
448,132,158666,1,0,0:0:0:0:
416,45,158850,5,2,2:2:0:0:
416,45,158942,1,2,2:2:0:0:
416,45,159034,2,0,P|381:31|355:23,1,56.25,2|0,2:2|0:0,0:0:0:0:
276,0,159218,6,0,B|324:31|343:92|300:145|252:138|249:137|247:134|252:134|196:136|169:171|178:219,1,281.25,2|0,1:2|0:0,0:0:0:0:
257,240,159770,2,0,P|250:229|263:240,1,56.25,2|0,1:2|0:0,0:0:0:0:
257,240,159954,6,0,P|326:284|366:368,1,168.75,8|0,2:2|0:0,0:0:0:0:
474,297,160322,6,0,P|356:308|177:194,1,337.5,2|0,1:2|0:0,0:0:0:0:
177,194,161058,6,0,P|193:216|224:246,1,56.25,0|0,1:1|0:0,0:0:0:0:
219,127,161242,2,0,P|203:148|172:178,1,56.25,0|0,1:1|0:0,0:0:0:0:
103,246,161426,6,0,P|87:267|56:297,1,56.25,8|0,2:2|0:0,0:0:0:0:
61,178,161610,2,0,P|76:199|107:229,1,56.25,0|0,1:1|0:0,0:0:0:0:
172,305,161795,6,0,P|187:326|218:356,1,56.25,0|0,1:1|0:0,0:0:0:0:
213,237,161979,2,0,P|197:258|166:288,1,56.25,8|0,2:2|0:0,0:0:0:0:
71,366,162163,6,0,P|59:277|-17:167,1,225,4|2,1:2|2:2,0:0:0:0:
61,65,162715,2,0,P|66:48|66:68,1,56.25,4|0,1:2|0:0,0:0:0:0:
144,144,162899,6,0,P|98:194|66:295,1,168.75,10|0,2:2|0:0,0:0:0:0:
71,366,163267,2,0,P|60:280|11:195,1,168.75,6|0,1:2|0:0,0:0:0:0:
61,65,163635,1,2,2:2:0:0:
61,65,163819,1,0,1:1:0:0:
144,144,164003,6,0,B|210:131|210:131|266:120|237:78|303:65,1,168.75,2|0,2:2|0:0,0:0:0:0:
327,149,164371,6,0,B|344:211|413:233|486:188|461:120|411:135,1,225,14|2,2:2|2:2,0:0:0:0:
401,120,164831,1,2,2:2:0:0:
397,110,164923,1,2,2:2:0:0:
286,69,165107,6,0,P|306:161|334:301,1,225,2|2,1:2|2:2,0:0:0:0:
198,301,165660,2,0,P|201:324|217:354,1,56.25,0|0,1:1|0:0,0:0:0:0:
216,352,165844,6,0,P|163:361|118:322,1,112.5,10|2,2:2|2:2,0:0:0:0:
22,208,166212,2,0,P|64:173|118:182,1,112.5,2|0,1:2|0:0,0:0:0:0:
195,120,166488,1,0,0:0:0:0:
195,120,166580,6,0,P|143:148|36:48,1,225,2|2,2:2|1:2,0:0:0:0:
130,56,167132,1,2,1:2:0:0:
206,215,167316,5,10,2:2:0:0:
289,170,167500,1,0,1:1:0:0:
361,223,167684,5,0,1:1:0:0:
361,223,167868,1,8,2:2:0:0:
