osu file format v14

[General]
AudioFilename: audio.mp3
AudioLeadIn: 0
PreviewTime: 46488
Countdown: 0
SampleSet: Soft
StackLeniency: 0.4
Mode: 0
LetterboxInBreaks: 0
WidescreenStoryboard: 1

[Editor]
Bookmarks: 100322
DistanceSpacing: 2.1
BeatDivisor: 4
GridSize: 32
TimelineZoom: 1.3

[Metadata]
Title:Deja Vu
TitleUnicode:Deja Vu
Artist:TOMORROW X TOGETHER
ArtistUnicode:투모로우바이투게더
Creator:Sani_
Version:Hard
Source:
Tags:TXT minisode 3: TOMORROW dance kpop korean pop k-pop soobin yeonjun beomgyu taehyun hueningkai 수빈 연준 범규 태현 휴닝카이 hannody leominexd leomine not your kitty sanayui
BeatmapID:4558215
BeatmapSetID:2153768

[Difficulty]
HPDrainRate:4
CircleSize:3.6
OverallDifficulty:6
ApproachRate:7.5
SliderMultiplier:1.5
SliderTickRate:1

[Events]
//Background and Video events
Video,-40,"deja_vu_txt-video.mp4"
0,0,"taehyun.jpg",0,0
//Break Periods
2,41626,45476
2,71074,75939
2,100522,104555
//Storyboard Layer 0 (Background)
//Storyboard Layer 1 (Fail)
//Storyboard Layer 2 (Pass)
//Storyboard Layer 3 (Foreground)
//Storyboard Layer 4 (Overlay)
//Storyboard Sound Samples

[TimingPoints]
200,368.098159509203,4,2,1,85,1,0
11979,-83.3333333333333,4,2,1,75,0,0
23758,-100,4,2,1,65,0,0
35537,-125,4,2,1,55,0,0
38482,-100,4,2,1,65,0,0
41426,-100,4,2,1,55,0,0
47316,-83.3333333333333,4,2,1,80,0,1
57991,-83.3333333333333,4,2,1,80,0,0
58359,-83.3333333333333,4,2,1,80,0,0
58727,-83.3333333333333,4,2,1,80,0,0
59095,-83.3333333333333,4,2,1,80,0,1
64617,-83.3333333333333,4,2,1,80,0,0
64985,-83.3333333333333,4,2,1,80,0,1
70874,-100,4,2,1,60,0,0
82653,-100,4,2,1,65,0,0
84126,-125,4,2,1,55,0,0
84678,-100,4,2,1,55,0,0
85598,-100,4,2,1,65,0,0
87071,-100,4,2,1,55,0,0
87439,-125,4,2,1,55,0,0
87991,-100,4,2,1,55,0,0
88543,-100,4,2,1,65,0,0
91488,-100,4,2,1,55,0,0
94433,-100,4,2,1,65,0,0
100322,-100,4,2,1,55,0,0
106212,-83.3333333333333,4,2,1,80,0,1
116887,-83.3333333333333,4,2,1,80,0,0
117255,-83.3333333333333,4,2,1,80,0,0
117991,-83.3333333333333,4,2,1,80,0,1
123512,-83.3333333333333,4,2,1,80,0,0
123880,-83.3333333333333,4,2,1,80,0,1
129770,-100,4,2,1,70,0,0
141549,-100,4,2,1,50,0,0
144494,-83.3333333333333,4,2,1,80,0,1
155169,-83.3333333333333,4,2,1,80,0,0
156273,-83.3333333333333,4,2,1,80,0,1
161795,-83.3333333333333,4,2,1,80,0,0
162163,-83.3333333333333,4,2,1,80,0,1
167868,-83.3333333333333,4,2,1,80,0,0
168052,-83.3333333333333,4,2,1,60,0,0

[Colours]
Combo1 : 209,208,217
Combo2 : 173,239,239
Combo3 : 133,152,241
Combo4 : 234,169,243

[HitObjects]
468,340,11242,6,0,P|430:335|392:330,1,75,2|2,2:2|2:2,0:0:0:0:
326,276,11611,2,0,P|289:280|251:285,1,75,2|2,2:2|2:2,0:0:0:0:
142,353,11979,6,0,P|116:295|131:223,1,134.999995880127,4|0,1:2|0:0,0:0:0:0:
140,208,12347,1,2,2:2:0:0:
125,121,12531,1,6,1:2:0:0:
182,58,12715,2,0,P|220:80|266:82,1,89.9999972534181,10|0,2:2|0:0,0:0:0:0:
329,141,13083,2,0,P|393:91|484:111,1,179.999994506836,6|0,1:2|0:0,0:0:0:0:
507,199,13635,1,0,1:1:0:0:
507,199,13819,2,0,P|492:241|497:286,1,89.9999972534181,2|0,2:2|0:0,0:0:0:0:
393,330,14187,6,0,B|350:344|311:323|311:316|311:309|271:281|223:294,1,179.999994506836,12|0,2:2|0:0,0:0:0:0:
211,300,14647,1,0,0:0:0:0:
201,308,14739,1,0,0:0:0:0:
121,354,14923,6,0,P|148:307|136:184,1,179.999994506836,2|0,1:2|0:0,0:0:0:0:
227,167,15476,1,2,1:2:0:0:
227,167,15660,2,0,P|232:119|252:80,1,89.9999972534181,10|0,2:2|0:0,0:0:0:0:
188,14,16028,6,0,B|150:-14|111:10|111:10|73:33|73:33|72:42|72:42|64:38|64:38|24:62|24:62|-14:87|2:130,1,269.999991760254,2|0,1:2|0:0,0:0:0:0:
49,208,16764,6,0,P|91:197|140:184,1,89.9999972534181,2|2,1:2|1:2,0:0:0:0:
227,167,17132,1,10,2:2:0:0:
299,217,17316,1,2,1:2:0:0:
305,228,17408,1,0,0:0:0:0:
312,240,17500,2,0,P|361:251|423:265,1,89.9999972534181,2|10,1:2|2:2,0:0:0:0:
494,167,17868,6,0,P|422:144|395:89,1,134.999995880127,4|0,1:2|0:0,0:0:0:0:
389,77,18236,1,2,2:2:0:0:
319,26,18420,1,6,1:2:0:0:
238,58,18604,2,0,P|191:66|145:73,1,89.9999972534181,10|0,2:2|0:0,0:0:0:0:
79,19,18973,2,0,P|119:64|110:181,1,179.999994506836,6|0,1:2|0:0,0:0:0:0:
41,229,19525,1,0,1:1:0:0:
41,229,19709,2,0,P|50:276|57:324,1,89.9999972534181,2|0,2:2|0:0,0:0:0:0:
161,372,20077,6,0,P|144:278|126:178,1,179.999994506836,12|0,2:2|0:0,0:0:0:0:
121,186,20537,1,0,0:0:0:0:
112,177,20629,1,0,0:0:0:0:
227,167,20813,6,0,P|308:154|357:231,1,179.999994506836,2|0,1:2|0:0,0:0:0:0:
445,262,21365,1,0,1:1:0:0:
445,262,21549,2,0,P|415:295|408:342,1,89.9999972534181,10|0,2:2|0:0,0:0:0:0:
323,371,21917,6,0,B|318:333|268:320|268:320|261:324|261:324|259:317|259:317|235:313|235:313|229:318|229:318|227:311|227:311|91:286,1,269.999991760254,2|0,1:2|0:0,0:0:0:0:
30,224,22653,6,0,P|38:173|45:133,1,89.9999972534181,0|0,1:1|1:1,0:0:0:0:
25,48,23022,1,8,2:2:0:0:
116,14,23206,1,2,1:2:0:0:
126,22,23298,1,0,0:0:0:0:
136,31,23390,2,0,P|187:36|235:42,1,89.9999972534181,2|10,1:2|2:2,0:0:0:0:
314,14,23758,5,4,1:1:0:0:
338,98,23942,1,2,2:2:0:0:
430,82,24126,2,0,P|424:57|437:80,1,75,2|2,2:2|2:2,0:0:0:0:
487,162,24494,5,10,2:2:0:0:
489,171,24862,2,0,P|477:214|469:252,1,75,2|2,1:2|2:2,0:0:0:0:
340,244,25230,5,2,2:2:0:0:
260,212,25414,1,2,1:2:0:0:
191,262,25598,2,0,P|195:287|182:261,1,75,2|2,1:2|2:2,0:0:0:0:
86,275,25966,5,10,2:2:0:0:
76,285,26334,2,0,P|47:280|24:275,2,37.5,2|2|2,2:2|2:2|2:2,0:0:0:0:
148,370,26703,6,0,P|193:362|240:355,1,75,2|2,1:2|2:2,0:0:0:0:
307,377,27071,1,2,2:2:0:0:
307,377,27255,1,2,2:2:0:0:
378,280,27439,6,0,P|384:241|390:205,1,75,10|2,2:2|2:2,0:0:0:0:
477,219,27807,2,0,P|470:255|465:293,1,75,2|2,1:2|2:2,0:0:0:0:
408,360,28175,5,2,2:2:0:0:
287,286,28451,1,2,2:2:0:0:
166,209,28727,1,2,2:2:0:0:
166,209,28911,6,0,P|161:166|153:114,1,75,10|0,2:2|1:1,0:0:0:0:
148,125,29187,1,0,0:0:0:0:
138,116,29279,5,2,2:2:0:0:
181,29,29463,1,8,2:2:0:0:
322,53,29647,6,0,P|352:71|392:77,1,75,2|2,1:2|2:2,0:0:0:0:
404,173,30015,2,0,P|371:188|342:215,1,75,2|0,2:2|0:0,0:0:0:0:
255,179,30384,6,0,P|254:138|239:96,1,75,10|0,2:2|0:0,0:0:0:0:
181,29,30752,1,2,1:2:0:0:
127,105,30936,1,2,2:2:0:0:
37,88,31120,5,2,2:2:0:0:
88,210,31396,1,2,2:2:0:0:
139,332,31672,1,2,2:2:0:0:
139,332,31856,2,0,P|210:319|260:311,1,112.5,10|0,2:2|0:0,0:0:0:0:
277,321,32224,2,0,L|291:257,2,37.5,2|2|2,2:2|2:2|2:2,0:0:0:0:
365,353,32592,6,0,P|409:358|476:388,2,112.5,2|2|2,1:2|2:2|2:2,0:0:0:0:
285,284,33328,6,0,P|279:235|269:157,1,112.5,10|2,2:2|2:2,0:0:0:0:
287,155,33696,2,0,P|321:171|357:171,1,75,0|2,1:1|2:2,0:0:0:0:
344,76,34065,5,2,2:2:0:0:
209,102,34341,1,2,2:2:0:0:
77,131,34617,1,2,1:2:0:0:
77,131,34801,5,10,2:2:0:0:
29,214,34985,1,0,1:1:0:0:
105,263,35169,1,2,1:2:0:0:
105,263,35353,1,10,2:2:0:0:
47,361,35537,6,0,P|92:328|157:331,1,120,4|0,1:1|0:0,0:0:0:0:
231,286,36089,2,0,P|285:280|328:326,1,120,2|2,1:2|2:2,0:0:0:0:
413,300,36641,1,2,1:2:0:0:
413,300,36825,2,0,P|447:303|467:375,1,120,2|2,2:2|2:2,0:0:0:0:
327,324,37377,6,0,P|322:289|366:222,1,120,2|8,2:2|2:2,0:0:0:0:
337,44,38114,2,0,P|321:42|304:32,2,30,2|2|2,2:2|2:2|2:2,0:0:0:0:
355,141,38482,6,0,P|275:130|222:78,1,150,2|0,1:2|0:0,0:0:0:0:
168,20,39034,1,2,1:2:0:0:
168,20,39218,6,0,P|135:38|99:44,1,75,10|2,2:2|2:2,0:0:0:0:
97,132,39586,2,0,P|133:138|166:155,1,75,2|2,1:2|2:2,0:0:0:0:
224,226,39954,1,2,2:2:0:0:
224,226,40138,1,2,1:2:0:0:
224,226,40322,2,0,P|141:226|99:277,1,150,2|8,1:2|2:2,0:0:0:0:
40,345,40874,5,0,1:1:0:0:
31,335,40966,1,0,0:0:0:0:
22,325,41058,2,0,P|15:283|8:238,1,75,0|10,0:0|2:2,0:0:0:0:
20,163,41426,5,2,1:2:0:0:
51,330,46580,6,0,P|95:323|130:317,1,75,10|0,2:2|3:3,0:0:0:0:
132,308,46856,1,0,3:3:0:0:
140,298,46948,2,0,P|212:309|247:315,1,75,2|0,3:2|1:1,0:0:0:0:
301,378,47316,6,0,P|271:334|271:252,1,134.999995880127,4|0,1:2|0:0,0:0:0:0:
281,239,47684,1,2,2:2:0:0:
320,153,47868,1,4,1:2:0:0:
265,69,48052,2,0,P|221:77|175:87,1,89.9999972534181,8|0,2:2|0:0,0:0:0:0:
100,46,48420,5,6,1:2:0:0:
100,46,48604,1,2,2:2:0:0:
28,119,48788,2,0,P|12:162|37:223,1,89.9999972534181,2|0,2:2|1:1,0:0:0:0:
106,258,49157,1,2,2:2:0:0:
106,258,49341,1,2,2:2:0:0:
197,222,49525,6,0,P|269:213|341:286,1,179.999994506836,14|2,2:2|2:2,0:0:0:0:
344,295,49985,1,2,2:2:0:0:
347,306,50077,1,2,2:2:0:0:
406,376,50261,6,0,P|451:369|500:363,1,89.9999972534181,2|0,1:2|0:0,0:0:0:0:
472,273,50629,2,0,P|479:227|487:184,1,89.9999972534181,2|0,2:2|1:1,0:0:0:0:
445,110,50997,1,10,2:2:0:0:
445,110,51181,1,2,2:2:0:0:
495,33,51365,2,0,P|462:78|342:75,1,179.999994506836,2|2,1:2|2:2,0:0:0:0:
176,0,52101,2,0,P|129:7|85:14,1,89.9999972534181,0|0,1:1|1:1,0:0:0:0:
0,26,52469,5,10,2:2:0:0:
16,115,52653,1,0,1:1:0:0:
25,125,52746,1,2,0:0:0:0:
34,135,52838,2,0,P|25:191|20:229,1,89.9999972534181,2|8,1:2|2:2,0:0:0:0:
110,253,53206,6,0,P|116:208|123:164,2,89.9999972534181,4|0|2,1:2|0:0|2:2,0:0:0:0:
46,324,53758,2,0,P|106:277|201:299,1,179.999994506836,4|0,1:2|0:0,0:0:0:0:
273,351,54310,5,6,1:2:0:0:
273,351,54494,1,2,2:2:0:0:
339,279,54678,2,0,P|332:232|326:187,1,89.9999972534181,2|0,2:2|1:1,0:0:0:0:
365,107,55046,1,2,2:2:0:0:
450,152,55230,1,2,2:2:0:0:
450,152,55414,6,0,P|457:228|470:348,1,179.999994506836,14|2,2:2|2:2,0:0:0:0:
459,340,55874,1,2,2:2:0:0:
450,348,55966,1,2,2:2:0:0:
339,279,56150,6,0,P|332:232|326:187,1,89.9999972534181,2|0,1:2|0:0,0:0:0:0:
244,154,56519,2,0,P|196:158|154:162,1,89.9999972534181,2|0,2:2|1:1,0:0:0:0:
85,215,56887,1,10,2:2:0:0:
85,215,57071,1,2,2:2:0:0:
15,142,57255,2,0,P|94:103|99:20,1,179.999994506836,2|2,1:2|2:2,0:0:0:0:
287,4,57991,6,0,P|331:8|379:13,1,89.9999972534181,2|2,1:2|1:2,0:0:0:0:
467,44,58359,2,0,B|455:91|455:91|468:109|471:128,1,89.9999972534181,10|0,2:2|1:1,0:0:0:0:
467,142,58635,1,0,0:0:0:0:
463,155,58727,2,0,P|472:200|481:247,1,89.9999972534181,2|8,1:2|2:2,0:0:0:0:
506,364,59095,6,0,P|465:308|343:302,1,179.999994506836,4|0,1:2|0:0,0:0:0:0:
306,214,59647,2,0,P|260:267|165:233,1,179.999994506836,4|0,1:2|0:0,0:0:0:0:
101,311,60200,6,0,P|147:300|55:267,1,269.999991760254,6|2,1:2|1:2,0:0:0:0:
14,320,60936,1,2,2:2:0:0:
14,320,61120,1,2,2:2:0:0:
48,230,61304,6,0,P|81:196|146:197,1,89.9999972534181,14|0,2:2|0:0,0:0:0:0:
186,130,61672,2,0,P|203:140|227:144,2,44.999998626709,2|2|2,2:2|2:2|2:2,0:0:0:0:
246,62,62040,6,0,B|215:100|223:155|273:171|276:169|278:166|335:164|366:225|332:280,1,269.999991760254,2|2,1:2|1:2,0:0:0:0:
264,328,62776,2,0,B|259:317|248:311|248:311|323:294|370:339|379:383,1,179.999994506836,8|2,2:2|1:2,0:0:0:0:
448,319,63328,6,0,P|384:322|148:370,1,269.999991760254,2|0,2:2|1:1,0:0:0:0:
101,327,64065,1,0,1:1:0:0:
10,299,64249,5,8,2:2:0:0:
20,211,64433,1,0,1:1:0:0:
20,211,64617,2,0,P|68:211|106:187,1,89.9999972534181,0|8,1:1|2:2,0:0:0:0:
42,122,64985,6,0,P|128:143|232:191,1,179.999994506836,4|2,1:2|2:2,0:0:0:0:
304,161,65537,1,4,1:2:0:0:
304,161,65721,2,0,P|319:114|324:60,1,89.9999972534181,10|0,2:2|0:0,0:0:0:0:
411,93,66089,2,0,P|396:135|391:180,1,89.9999972534181,6|0,1:2|0:0,0:0:0:0:
464,292,66457,5,2,2:2:0:0:
464,292,66641,1,0,1:1:0:0:
464,292,66825,2,0,P|405:272|360:339,1,134.999995880127,2|0,2:2|0:0,0:0:0:0:
352,328,67193,2,0,B|300:338|273:290|282:287|253:244|199:257,1,179.999994506836,14|2,2:2|2:2,0:0:0:0:
188,262,67653,1,2,2:2:0:0:
182,273,67746,1,2,2:2:0:0:
165,366,67930,6,0,P|147:293|70:222,1,179.999994506836,2|2,1:2|2:2,0:0:0:0:
26,147,68482,1,0,1:1:0:0:
26,147,68666,2,0,P|59:123|81:79,1,89.9999972534181,10|2,2:2|2:2,0:0:0:0:
165,105,69034,2,0,P|179:145|217:183,1,89.9999972534181,2|0,1:2|0:0,0:0:0:0:
304,161,69402,2,0,P|405:148|486:138,1,179.999994506836,2|2,2:2|1:2,0:0:0:0:
504,55,69954,1,2,1:2:0:0:
425,7,70138,5,10,2:2:0:0:
327,32,70322,1,0,1:1:0:0:
327,32,70506,2,0,P|280:24|232:15,1,89.9999972534181,0|8,1:1|2:2,0:0:0:0:
165,105,70874,5,4,1:2:0:0:
256,192,76764,12,0,79341,0:0:0:0:
256,192,79709,12,0,81181,0:0:0:0:
19,350,81549,5,2,1:2:0:0:
19,350,81733,1,2,2:2:0:0:
19,350,81917,6,0,P|94:338|169:328,1,150,10|2,2:2|2:2,0:0:0:0:
206,249,82469,1,10,2:2:0:0:
206,249,82653,6,0,P|250:254|318:335,1,150,4|0,1:1|0:0,0:0:0:0:
400,362,83206,1,2,1:2:0:0:
400,362,83390,2,0,P|433:310|465:297,1,75,10|0,2:2|0:0,0:0:0:0:
409,225,83758,2,0,P|371:224|328:194,1,75,0|2,1:1|2:2,0:0:0:0:
307,106,84126,6,0,P|261:170|163:157,1,180,2|0,2:2|0:0,0:0:0:0:
86,120,84862,5,2,2:2:0:0:
86,120,85046,1,2,2:2:0:0:
86,120,85230,2,0,L|79:78,2,37.5,2|2|2,2:2|2:2|2:2,0:0:0:0:
35,193,85598,6,0,P|112:202|170:161,1,150,2|0,1:2|0:0,0:0:0:0:
233,91,86150,1,2,2:2:0:0:
233,91,86334,2,0,P|272:99|312:107,1,75,10|0,2:2|0:0,0:0:0:0:
399,82,86703,6,0,P|390:158|339:206,1,150,0|2,1:1|2:2,0:0:0:0:
273,265,87255,1,2,1:2:0:0:
273,265,87439,2,0,B|326:271|312:312|379:316,1,120,0|2,1:1|2:2,0:0:0:0:
474,356,87991,2,0,P|483:314|493:277,2,75,2|2|2,2:2|2:2|2:2,0:0:0:0:
397,295,88543,6,0,B|319:303|336:234|264:238,1,150,2|0,1:2|0:0,0:0:0:0:
176,238,89095,1,2,2:2:0:0:
235,172,89279,2,0,P|258:201|265:238,1,75,10|0,2:2|0:0,0:0:0:0:
176,238,89647,2,0,P|152:264|115:275,1,75,0|2,1:1|2:2,0:0:0:0:
99,188,90015,6,0,P|92:151|75:116,1,75,2|0,2:2|1:1,0:0:0:0:
66,108,90292,1,2,2:2:0:0:
55,98,90384,2,0,P|123:96|174:37,1,150,2|8,1:2|2:2,0:0:0:0:
326,3,91120,2,0,L|365:10,2,37.5,2|2|2,2:2|2:2|2:2,0:0:0:0:
419,76,91488,5,2,1:2:0:0:
419,76,93144,5,2,1:2:0:0:
382,157,93328,1,0,1:1:0:0:
438,231,93512,1,2,1:2:0:0:
438,231,93696,2,0,P|419:271|415:304,1,75,10|0,2:2|1:1,0:0:0:0:
408,313,93973,1,0,0:0:0:0:
401,324,94065,2,0,P|362:316|322:308,1,75,0|10,1:1|2:2,0:0:0:0:
216,301,94433,6,0,P|171:306|138:310,1,75,4|2,1:1|2:2,0:0:0:0:
108,226,94801,2,0,P|114:187|120:149,1,75,2|2,2:2|1:2,0:0:0:0:
35,124,95169,2,0,P|29:161|23:198,2,75,10|2|2,2:2|2:2|1:2,0:0:0:0:
100,63,95721,1,2,2:2:0:0:
204,67,95905,5,2,2:2:0:0:
312,141,96181,1,2,2:2:0:0:
420,215,96457,1,2,2:2:0:0:
420,215,96641,6,0,P|406:163|421:106,1,112.5,10|0,2:2|0:0,0:0:0:0:
435,103,97009,2,0,L|478:86,2,37.5,2|2|2,2:2|2:2|2:2,0:0:0:0:
358,32,97377,6,0,P|322:46|286:59,1,75,2|0,1:2|0:0,0:0:0:0:
312,141,97746,2,0,P|307:181|302:218,1,75,2|2,2:2|1:2,0:0:0:0:
237,275,98114,2,0,P|196:269|154:262,2,75,10|0|2,2:2|0:0|1:2,0:0:0:0:
293,343,98666,1,2,2:2:0:0:
387,326,98850,5,2,2:2:0:0:
302,215,99126,1,2,2:2:0:0:
217,104,99402,1,2,2:2:0:0:
217,104,99586,6,0,P|178:100|137:96,1,75,10|0,2:2|1:1,0:0:0:0:
130,94,99862,1,0,0:0:0:0:
118,92,99954,1,0,0:0:0:0:
44,44,100138,1,10,2:2:0:0:
6,122,100322,5,2,1:2:0:0:
461,330,105476,6,0,P|417:323|382:317,1,75,10|0,2:2|3:3,0:0:0:0:
380,308,105752,1,0,3:3:0:0:
372,298,105844,2,0,P|300:309|265:315,1,75,2|0,3:2|1:1,0:0:0:0:
181,361,106212,6,0,B|143:353|138:315|142:315|139:271|99:263,1,134.999995880127,4|0,1:2|0:0,0:0:0:0:
81,255,106580,1,2,2:2:0:0:
39,174,106764,1,4,1:2:0:0:
84,95,106948,2,0,P|128:82|154:45,1,89.9999972534181,8|0,2:2|0:0,0:0:0:0:
228,111,107316,5,6,1:2:0:0:
228,111,107500,1,2,2:2:0:0:
315,71,107684,2,0,P|327:115|358:145,1,89.9999972534181,2|0,2:2|1:1,0:0:0:0:
416,71,108052,1,2,2:2:0:0:
416,71,108236,1,2,2:2:0:0:
486,137,108420,6,0,P|438:158|383:270,1,179.999994506836,14|2,2:2|2:2,0:0:0:0:
383,280,108880,1,2,2:2:0:0:
386,292,108973,1,2,2:2:0:0:
312,352,109157,6,0,P|271:336|239:300,1,89.9999972534181,2|0,1:2|0:0,0:0:0:0:
161,348,109525,2,0,P|116:351|74:371,1,89.9999972534181,2|0,2:2|1:1,0:0:0:0:
2,311,109893,1,10,2:2:0:0:
2,311,110077,1,2,2:2:0:0:
73,254,110261,2,0,P|147:296|242:302,1,179.999994506836,2|2,1:2|2:2,0:0:0:0:
404,199,110997,2,0,P|400:156|406:105,1,89.9999972534181,0|0,1:1|1:1,0:0:0:0:
308,126,111365,5,10,2:2:0:0:
241,189,111549,1,0,1:1:0:0:
235,201,111641,1,2,0:0:0:0:
231,214,111733,2,0,P|242:257|239:302,1,89.9999972534181,2|8,1:2|2:2,0:0:0:0:
321,351,112101,6,0,P|365:337|410:338,2,89.9999972534181,4|0|2,1:2|0:0|2:2,0:0:0:0:
238,302,112653,2,0,P|148:296|70:253,1,179.999994506836,4|0,1:2|0:0,0:0:0:0:
12,185,113206,5,6,1:2:0:0:
12,185,113390,1,2,2:2:0:0:
94,138,113574,2,0,P|99:91|89:48,1,89.9999972534181,2|0,2:2|1:1,0:0:0:0:
174,8,113942,1,2,2:2:0:0:
241,72,114126,1,2,2:2:0:0:
326,33,114310,5,14,2:2:0:0:
337,24,114402,2,0,P|392:19|469:46,1,134.999995880127,2|2,0:0|2:2,0:0:0:0:
475,55,114770,1,2,2:2:0:0:
480,67,114862,1,2,2:2:0:0:
428,152,115046,6,0,P|380:152|342:135,1,89.9999972534181,2|0,1:2|0:0,0:0:0:0:
257,181,115414,2,0,P|212:180|168:193,1,89.9999972534181,2|0,2:2|1:1,0:0:0:0:
94,138,115782,1,10,2:2:0:0:
94,138,115966,1,2,2:2:0:0:
2,161,116150,2,0,P|79:196|92:288,1,179.999994506836,2|2,1:2|2:2,0:0:0:0:
280,363,116887,6,0,P|324:357|372:351,1,89.9999972534181,2|2,1:2|1:2,0:0:0:0:
462,349,117255,2,0,B|450:302|450:302|463:284|466:265,1,89.9999972534181,10|0,2:2|1:1,0:0:0:0:
462,251,117531,1,0,0:0:0:0:
458,238,117623,2,0,P|467:193|476:146,1,89.9999972534181,2|8,1:2|2:2,0:0:0:0:
414,47,117991,6,0,B|393:61|382:80|382:80|249:102,1,179.999994506836,4|0,1:2|0:0,0:0:0:0:
186,33,118543,2,0,P|221:93|188:196,1,179.999994506836,4|0,1:2|0:0,0:0:0:0:
124,267,119095,6,0,B|155:207|233:200|278:246|278:246|295:292|343:303,1,269.999991760254,6|2,1:2|1:2,0:0:0:0:
376,218,119831,1,2,2:2:0:0:
376,218,120015,1,2,2:2:0:0:
333,309,120200,6,0,P|292:287|268:243,1,89.9999972534181,14|0,2:2|0:0,0:0:0:0:
190,193,120568,2,0,P|194:163|186:130,2,44.999998626709,2|2|2,2:2|2:2|2:2,0:0:0:0:
124,267,120936,6,0,P|156:169|105:16,1,269.999991760254,2|2,1:2|1:2,0:0:0:0:
19,62,121672,2,0,P|6:158|35:233,1,179.999994506836,8|2,2:2|1:2,0:0:0:0:
124,267,122224,6,0,B|155:207|233:200|278:246|278:246|295:292|343:303,1,269.999991760254,2|0,2:2|1:1,0:0:0:0:
376,218,122960,1,0,1:1:0:0:
467,214,123144,5,8,2:2:0:0:
461,107,123328,1,0,1:1:0:0:
461,107,123512,2,0,P|412:100|382:74,1,89.9999972534181,0|8,1:1|2:2,0:0:0:0:
457,12,123880,6,0,P|396:19|281:53,1,179.999994506836,4|2,1:2|2:2,0:0:0:0:
209,108,124433,1,4,1:2:0:0:
209,108,124617,2,0,P|211:156|228:197,1,89.9999972534181,10|0,2:2|0:0,0:0:0:0:
139,230,124985,2,0,P|132:186|110:147,1,89.9999972534181,6|0,1:2|0:0,0:0:0:0:
15,244,125353,5,2,2:2:0:0:
15,244,125537,1,0,1:1:0:0:
15,244,125721,2,0,B|76:250|57:299|127:311,1,134.999995880127,2|0,2:2|0:0,0:0:0:0:
136,320,126089,2,0,P|199:333|299:281,1,179.999994506836,14|2,2:2|2:2,0:0:0:0:
305,274,126549,1,2,2:2:0:0:
311,265,126641,1,2,2:2:0:0:
357,177,126825,6,0,P|344:248|392:340,1,179.999994506836,2|2,1:2|2:2,0:0:0:0:
472,282,127377,1,0,1:1:0:0:
472,282,127561,2,0,P|470:236|443:186,1,89.9999972534181,10|2,2:2|2:2,0:0:0:0:
415,110,127930,2,0,P|417:68|437:24,1,89.9999972534181,2|0,1:2|0:0,0:0:0:0:
344,7,128298,2,0,P|311:42|186:60,1,179.999994506836,2|2,2:2|1:2,0:0:0:0:
99,33,128850,1,2,1:2:0:0:
28,98,129034,5,10,2:2:0:0:
100,178,129218,1,0,1:1:0:0:
100,178,129402,2,0,P|146:173|186:187,1,89.9999972534181,0|8,1:1|2:2,0:0:0:0:
138,276,129770,6,0,B|179:266|214:284|210:294|242:310|283:297,1,150,4|0,1:2|0:0,0:0:0:0:
349,231,130322,1,4,1:2:0:0:
349,231,130506,2,0,P|352:189|345:157,1,75,0|0,0:0|0:0,0:0:0:0:
441,134,130874,2,0,P|433:190|451:280,1,150,4|0,1:2|0:0,0:0:0:0:
429,371,131426,1,0,1:1:0:0:
282,297,131795,1,0,3:3:0:0:
282,297,131979,6,0,P|242:304|205:298,1,75,0|0,1:1|0:0,0:0:0:0:
136,355,132347,2,0,P|96:348|59:354,1,75,0|0,3:3|3:3,0:0:0:0:
9,278,132715,6,0,P|20:213|5:130,1,150,4|0,1:2|0:0,0:0:0:0:
66,65,133267,2,0,B|140:72|123:21|206:26,1,150,4|0,1:2|0:0,0:0:0:0:
298,9,133819,2,0,P|258:49|245:210,1,225,4|0,1:2|3:3,0:0:0:0:
304,282,134555,6,0,P|341:288|373:308,1,75,0|0,1:1|1:1,0:0:0:0:
413,225,134923,2,0,P|450:219|482:199,2,75,0|0|0,1:1|1:1|1:1,0:0:0:0:
244,208,135660,6,0,B|196:204|186:246|189:248|178:297|124:290,1,150,4|0,1:2|0:0,0:0:0:0:
57,237,136212,1,4,1:2:0:0:
57,237,136396,2,0,P|59:197|55:163,1,75,0|0,0:0|0:0,0:0:0:0:
102,81,136764,2,0,P|145:83|244:48,1,150,4|0,1:2|0:0,0:0:0:0:
329,82,137316,1,0,1:1:0:0:
481,21,137684,5,0,3:3:0:0:
488,31,137776,1,0,3:3:0:0:
494,40,137868,2,0,P|508:82|495:186,1,150,0|0,3:3|0:0,0:0:0:0:
410,323,138604,6,0,P|451:334|478:355,2,75,4|0|0,1:2|3:3|3:3,0:0:0:0:
350,252,139157,2,0,P|316:266|205:258,1,150,4|0,1:2|3:3,0:0:0:0:
150,335,139709,2,0,P|170:303|134:131,1,225,4|0,1:2|0:0,0:0:0:0:
57,77,140445,2,0,P|93:64|119:37,1,75,0|0,1:1|1:1,0:0:0:0:
205,65,140813,6,0,P|224:97|257:120,2,75,8|0|0,2:2|1:1|1:1,0:0:0:0:
279,6,141365,1,8,2:2:0:0:
279,6,143758,6,0,P|262:74|269:153,1,150,4|2,0:1|2:2,0:0:0:0:
412,319,144494,6,0,B|343:305|349:355|277:337,1,134.999995880127,4|0,1:2|0:0,0:0:0:0:
264,329,144862,1,2,2:2:0:0:
166,356,145046,1,4,1:2:0:0:
79,302,145230,2,0,P|87:260|81:212,1,89.9999972534181,8|0,2:2|0:0,0:0:0:0:
114,126,145598,5,6,1:2:0:0:
114,126,145782,1,2,2:2:0:0:
187,184,145966,2,0,P|232:177|270:151,1,89.9999972534181,2|0,2:2|1:1,0:0:0:0:
340,94,146334,1,2,2:2:0:0:
340,94,146519,1,2,2:2:0:0:
419,146,146703,6,0,P|399:196|412:320,1,179.999994506836,14|2,2:2|2:2,0:0:0:0:
407,331,147163,1,2,2:2:0:0:
402,342,147255,1,2,2:2:0:0:
281,338,147439,6,0,P|235:332|199:309,1,89.9999972534181,2|0,1:2|0:0,0:0:0:0:
117,349,147807,2,0,P|69:351|30:366,1,89.9999972534181,2|0,2:2|1:1,0:0:0:0:
5,277,148175,1,10,2:2:0:0:
5,277,148359,1,2,2:2:0:0:
67,203,148543,2,0,B|116:221|143:172|134:170|162:115|219:132,1,179.999994506836,2|2,1:2|2:2,0:0:0:0:
380,62,149279,2,0,P|382:104|402:146,1,89.9999972534181,0|0,1:1|1:1,0:0:0:0:
365,228,149647,6,0,P|323:211|274:210,1,89.9999972534181,10|0,2:2|1:1,0:0:0:0:
273,201,149923,1,2,0:0:0:0:
267,193,150015,1,2,1:2:0:0:
291,100,150200,1,8,2:2:0:0:
222,34,150384,6,0,P|262:9|307:6,2,89.9999972534181,4|0|2,1:2|0:0|2:2,0:0:0:0:
291,100,150936,2,0,P|227:80|109:69,1,179.999994506836,4|0,1:2|0:0,0:0:0:0:
38,18,151488,5,6,1:2:0:0:
38,18,151672,1,2,2:2:0:0:
10,107,151856,1,2,2:2:0:0:
5,119,151948,2,0,P|21:166|15:252,1,134.999995880127,0|2,0:0|2:2,0:0:0:0:
72,324,152408,1,2,2:2:0:0:
142,262,152592,6,0,P|187:255|227:231,1,89.9999972534181,14|0,2:2|0:0,0:0:0:0:
305,291,152960,2,0,P|324:297|346:308,2,44.999998626709,2|2|2,2:2|2:2|2:2,0:0:0:0:
310,181,153328,6,0,P|321:129|302:1,1,179.999994506836,2|2,1:2|2:2,0:0:0:0:
402,13,153880,1,0,1:1:0:0:
402,13,154065,2,0,P|443:36|488:40,1,89.9999972534181,10|2,2:2|2:2,0:0:0:0:
472,134,154433,2,0,P|406:127|302:191,1,179.999994506836,2|2,1:2|2:2,0:0:0:0:
142,262,155169,6,0,P|149:217|142:170,1,89.9999972534181,2|2,1:2|1:2,0:0:0:0:
63,129,155537,1,10,2:2:0:0:
39,221,155721,1,0,1:1:0:0:
31,230,155813,1,0,0:0:0:0:
22,239,155905,2,0,P|15:283|22:327,1,89.9999972534181,2|8,1:2|2:2,0:0:0:0:
157,363,156273,6,0,P|241:345|337:352,1,179.999994506836,4|0,1:2|0:0,0:0:0:0:
429,354,156825,2,0,P|383:316|342:202,1,179.999994506836,4|0,1:2|0:0,0:0:0:0:
392,122,157377,6,0,P|337:163|142:173,1,269.999991760254,6|2,1:2|1:2,0:0:0:0:
54,140,158114,1,2,2:2:0:0:
54,140,158298,1,2,2:2:0:0:
142,163,158482,6,0,P|183:176|243:179,1,89.9999972534181,14|0,2:2|0:0,0:0:0:0:
336,146,158850,2,0,P|365:132|382:113,2,44.999998626709,2|2|2,2:2|2:2|2:2,0:0:0:0:
418,49,159218,6,0,B|372:114|414:183|454:144|500:225|462:291,1,269.999991760254,2|2,1:2|1:2,0:0:0:0:
498,373,159954,2,0,P|425:315|342:296,1,179.999994506836,8|2,2:2|1:2,0:0:0:0:
262,345,160506,6,0,P|327:299|367:102,1,269.999991760254,2|0,2:2|1:1,0:0:0:0:
330,43,161242,1,0,1:1:0:0:
231,53,161426,1,8,2:2:0:0:
137,74,161611,1,0,1:1:0:0:
137,74,161795,2,0,P|147:122|139:168,1,89.9999972534181,0|8,1:1|2:2,0:0:0:0:
110,278,162163,6,0,P|165:274|264:351,1,179.999994506836,4|2,1:2|2:2,0:0:0:0:
341,295,162715,1,4,1:2:0:0:
341,295,162899,2,0,P|361:252|364:210,1,89.9999972534181,10|0,2:2|0:0,0:0:0:0:
454,186,163267,2,0,P|441:139|443:97,1,89.9999972534181,6|0,1:2|0:0,0:0:0:0:
343,20,163635,5,2,2:2:0:0:
343,20,163819,1,0,1:1:0:0:
343,20,164003,2,0,B|277:11|278:56|213:43,1,134.999995880127,2|0,2:2|0:0,0:0:0:0:
203,48,164371,2,0,P|215:135|197:224,1,179.999994506836,14|2,2:2|2:2,0:0:0:0:
190,233,164831,1,2,2:2:0:0:
183,241,164923,1,2,2:2:0:0:
200,333,165107,6,0,P|177:283|64:247,1,179.999994506836,2|2,1:2|2:2,0:0:0:0:
11,169,165660,1,0,1:1:0:0:
11,169,165844,2,0,P|20:124|17:75,1,89.9999972534181,10|2,2:2|2:2,0:0:0:0:
117,65,166212,2,0,P|108:110|111:159,1,89.9999972534181,2|0,1:2|0:0,0:0:0:0:
64,246,166580,2,0,P|150:259|199:332,1,179.999994506836,2|2,2:2|1:2,0:0:0:0:
279,285,167132,1,2,1:2:0:0:
279,285,167316,6,0,P|325:277|361:249,1,89.9999972534181,10|0,2:2|1:1,0:0:0:0:
365,243,167592,1,0,0:0:0:0:
371,233,167684,1,0,1:1:0:0:
447,291,167868,5,8,2:2:0:0:
