osu file format v14

[General]
AudioFilename: audio.mp3
AudioLeadIn: 0
PreviewTime: 141932
Countdown: 0
SampleSet: Normal
StackLeniency: 0.7
Mode: 0
LetterboxInBreaks: 0
WidescreenStoryboard: 0

[Editor]
DistanceSpacing: 0.3
BeatDivisor: 4
GridSize: 4
TimelineZoom: 1.9

[Metadata]
Title:JoJo ~Sono Chi no Sadame~ Archetype MIX Ver.
TitleUnicode:ジョジョ~その血の運命~ Archetype MIX Ver.
Artist:TOMINAGA TOMMY HIROAKI
ArtistUnicode:富永TOMMY弘明
Creator:Delis
Version:Mirash's Insane
Source:ジョジョの奇妙な冒険
Tags:JOJO'S BIZARRE ADVENTURE no kimyou na bouken part 1 phantom blood opening jonathan joestar dio brando mirash toybot
BeatmapID:1545944
BeatmapSetID:714329

[Difficulty]
HPDrainRate:7
CircleSize:4
OverallDifficulty:8
ApproachRate:9
SliderMultiplier:3.09999990463257
SliderTickRate:1

[Events]
//Background and Video events
0,0,"bg.jpg",0,0
//Break Periods
2,93113,98889
2,167086,172861
//Storyboard Layer 0 (Background)
//Storyboard Layer 1 (Fail)
//Storyboard Layer 2 (Pass)
//Storyboard Layer 3 (Foreground)
//Storyboard Sound Samples

[TimingPoints]
859,410.958904109589,4,2,1,5,1,0
1680,-100,4,2,1,10,0,0
2502,-100,4,2,1,15,0,0
3324,-100,4,2,1,20,0,0
4146,-100,4,2,1,25,0,0
4968,-100,4,2,1,30,0,0
5790,-200,4,1,1,50,0,0
12365,-1000,4,2,1,45,0,0
12674,-1000,4,2,1,5,0,0
12879,-1000,4,2,1,45,0,0
13495,-1000,4,2,1,5,0,0
13701,-1000,4,2,1,45,0,0
14317,-1000,4,2,1,5,0,0
14523,-1000,4,2,1,45,0,0
15242,-100,4,2,1,45,0,0
15653,-100,4,1,1,50,0,0
16475,-200,4,1,1,50,0,0
63016,-200,4,1,1,45,0,0
64043,-200,4,1,1,50,0,0
66612,-200,4,1,1,55,0,0
67331,-100,4,1,1,55,0,0
68256,-100,4,1,2,60,0,1
85516,-100,4,1,1,60,0,0
90448,-1000,4,1,1,60,0,0
90550,-1000,4,1,1,5,0,0
92502,-1000,4,1,1,50,0,0
99489,-200,4,1,1,50,0,0
114283,-200,4,1,1,60,0,0
114420,-200,4,1,1,5,0,0
114557,-200,4,1,1,60,0,0
114694,-200,4,1,1,5,0,0
114831,-200,4,1,1,60,0,0
114968,-200,4,1,1,5,0,0
115105,-200,4,1,1,60,0,0
115242,-200,4,1,1,5,0,0
115379,-200,4,1,1,60,0,0
115516,-200,4,1,1,5,0,0
115653,-200,4,1,1,60,0,0
115859,-200,4,1,1,5,0,0
115927,-200,4,1,1,50,0,0
136989,-200,4,1,1,45,0,0
137605,-200,4,1,1,50,0,0
140379,-200,4,1,1,55,0,0
141817,-100,4,1,1,55,0,0
142228,-100,4,1,2,60,0,1
159489,-100,4,1,1,60,0,0
159591,-100,4,1,1,5,0,0
160311,-100,4,1,1,60,0,0
164420,-1000,4,1,1,50,0,0
164523,-1000,4,1,1,5,0,0
166372,-1000,4,1,1,50,0,0
173461,-200,4,1,1,50,0,0
183324,-200,4,1,1,55,0,0
189386,-200,4,1,1,50,0,0
189591,-200,4,1,1,45,0,0
189900,-200,4,1,1,55,0,0
194831,-100,4,1,2,60,0,1
209626,-83.3333333333333,4,1,2,60,0,1
210448,-83.3333333333333,4,1,1,70,0,0
211269,-100,4,1,2,70,0,1
225242,-100,4,1,1,70,0,1
226064,-100,4,1,2,70,0,1
228530,-100,4,1,2,70,0,0
229352,-100,4,1,2,60,0,0
233461,-357.142857142857,4,1,2,60,0,0
233564,-295.774647887324,4,1,2,5,0,0
239215,-420,4,1,2,60,0,0

[Colours]
Combo1 : 179,164,62
Combo2 : 221,96,13
Combo3 : 55,74,125
Combo4 : 81,60,123
Combo5 : 141,56,82
Combo6 : 255,6,6
Combo7 : 227,222,9
Combo8 : 147,147,149

[HitObjects]
256,192,859,12,0,5585,0:0:0:0:
399,275,5790,102,0,P|400:188|397:106,1,154.999995231629,4|0,0:0|0:0,0:0:0:0:
22,84,6612,2,0,P|23:124|24:183,1,77.4999976158143,8|0,0:0|2:0,0:0:0:0:
217,156,7023,2,0,P|215:96|215:57,1,77.4999976158143,0|0,0:0|0:0,0:0:0:0:
93,198,7434,1,2,0:0:0:0:
100,280,7639,1,2,0:0:0:0:
319,275,7845,1,0,0:0:0:0:
312,193,8050,1,0,2:0:0:0:
319,275,8256,6,0,B|232:276|255:239|147:242,2,154.999995231629,8|0|0,0:0|0:0|0:0,0:0:0:0:
396,220,9283,2,0,P|447:196|479:189,2,77.4999976158143,0|0|2,0:0|0:0|2:0,0:0:0:0:
179,333,9900,2,0,P|129:347|-4:349,1,154.999995231629,8|0,0:0|0:0,0:0:0:0:
239,285,10516,101,0,0:0:0:0:
324,310,10722,1,2,0:0:0:0:
409,336,10927,1,2,0:0:0:0:
306,154,11132,2,0,P|299:227|300:263,1,77.4999976158143,0|0,0:0|2:0,0:0:0:0:
512,157,11543,2,0,P|470:145|375:207,1,154.999995231629,8|4,0:0|0:2,0:0:0:0:
223,281,12160,5,0,2:0:0:0:
223,281,12365,2,0,L|23:255,1,201.499993801117,2|0,0:1|0:0,0:0:0:0:
239,310,15242,102,0,P|246:195|243:50,1,232.499992847443,4|0,3:0|0:0,0:0:0:0:
397,163,15653,21,4,0:0:0:0:
355,102,15858,1,0,0:0:0:0:
288,139,16064,1,0,0:0:0:0:
333,199,16269,1,0,0:0:0:0:
475,88,16475,2,0,P|484:139|465:254,1,154.999995231629,8|0,0:0|0:0,0:0:0:0:
177,94,17091,5,0,0:0:0:0:
154,94,17194,1,0,0:0:0:0:
132,93,17297,1,8,3:0:0:0:
111,93,17400,1,8,3:0:0:0:
93,92,17502,1,4,3:0:0:0:
153,177,17708,1,0,0:0:0:0:
182,170,17811,1,0,0:0:0:0:
212,166,17913,1,0,0:0:0:0:
117,256,18119,1,8,0:0:0:0:
195,317,18324,2,0,L|190:363,3,25.8333325386048,0|0|0|4,0:0|0:0|0:0|0:2,0:0:0:0:
416,47,18941,6,0,P|405:103|408:158,1,77.4999976158143,0|0,0:0|0:0,0:0:0:0:
465,177,19352,1,2,0:0:0:0:
320,318,19557,1,0,0:0:0:0:
393,349,19763,2,0,P|395:266|388:183,1,154.999995231629,8|0,0:0|0:0,0:0:0:0:
114,104,20379,1,2,0:3:0:0:
177,159,20585,6,0,P|178:212|178:258,1,77.4999976158143,2|2,0:0|0:0,0:0:0:0:
286,162,20995,2,0,P|283:103|283:67,1,77.4999976158143,2|0,0:0|0:0,0:0:0:0:
214,45,21406,1,8,0:0:0:0:
244,282,21612,1,8,0:3:0:0:
319,242,21817,2,0,P|304:294|361:376,1,154.999995231629,4|4,0:2|0:0,0:0:0:0:
213,352,22434,70,0,P|156:345|109:326,2,77.4999976158143,0|4|0,0:0|0:2|0:0,0:0:0:0:
396,226,23050,1,10,0:0:0:0:
346,171,23256,1,2,0:0:0:0:
484,199,23461,2,0,P|480:268|480:311,1,77.4999976158143,0|0,0:0|0:0,0:0:0:0:
271,50,23872,2,0,P|279:109|280:160,1,77.4999976158143,0|0,0:0|0:0,0:0:0:0:
94,323,24283,5,2,0:0:0:0:
36,271,24489,1,0,0:0:0:0:
24,285,24591,1,0,0:0:0:0:
10,300,24694,1,8,0:0:0:0:
160,178,24900,1,4,0:3:0:0:
108,241,25105,1,8,0:3:0:0:
108,241,25516,6,0,P|150:239|211:240,1,77.4999976158143,6|2,0:0|0:0,0:0:0:0:
368,341,25927,1,0,0:0:0:0:
248,186,26132,5,0,0:0:0:0:
175,160,26338,2,0,P|188:110|192:69,1,77.4999976158143,10|2,0:0|0:0,0:0:0:0:
321,21,26749,2,0,P|338:78|355:119,1,77.4999976158143,2|2,0:3|2:0,0:0:0:0:
257,323,27160,69,2,0:0:0:0:
276,251,27365,2,2,P|348:245|443:249,1,154.999995231629,2|0,0:0|0:0,1:1:0:0:
454,227,27982,2,0,P|452:269|454:318,1,77.4999976158143,8|0,0:0|0:0,0:0:0:0:
506,85,28393,2,0,P|504:131|493:177,1,77.4999976158143,2|2,3:0|3:0,0:0:0:0:
246,162,28804,5,2,0:0:0:0:
171,188,29009,1,2,0:0:0:0:
186,108,29215,1,0,0:0:0:0:
266,90,29420,1,0,0:0:0:0:
219,200,29626,5,10,0:0:0:0:
196,128,29831,1,2,0:0:0:0:
271,147,30037,1,4,1:2:0:0:
292,221,30242,1,0,0:0:0:0:
122,158,30448,5,2,0:0:0:0:
348,168,30653,1,2,0:0:0:0:
278,122,30859,69,2,3:3:0:0:
192,195,31064,1,0,0:0:0:0:
252,263,31269,5,10,0:0:0:0:
206,83,31475,1,2,0:0:0:0:
418,84,31680,2,0,P|409:125|401:182,1,77.4999976158143,2|8,0:2|0:3,0:0:0:0:
53,338,32091,5,6,0:0:0:0:
131,313,32297,2,2,P|134:253|130:138,1,154.999995231629,2|0,0:0|0:0,1:0:0:0:
214,334,32913,2,0,P|257:325|310:321,1,77.4999976158143,10|2,0:0|0:0,0:0:0:0:
79,97,33324,2,0,P|32:102|-5:109,1,77.4999976158143,2|0,3:0|0:0,0:0:0:0:
125,27,33735,2,2,P|187:35|296:41,1,154.999995231629,2|2,0:0|3:0,1:0:0:0:
350,3,34352,5,0,0:0:0:0:
385,328,34557,1,10,0:0:0:0:
411,256,34763,2,0,P|456:263|494:266,2,77.4999976158143,2|4|0,0:0|0:2|0:0,0:0:0:0:
241,367,35379,2,2,P|172:367|77:375,1,154.999995231629,2|0,0:0|0:0,1:0:0:0:
164,325,35995,1,0,0:0:0:0:
234,288,36201,1,10,0:0:0:0:
320,308,36406,1,2,0:0:0:0:
404,363,36612,1,0,0:0:0:0:
512,323,36817,1,0,0:0:0:0:
183,128,37023,70,0,B|171:165|171:165|176:224,1,77.4999976158143,2|2,0:0|0:0,0:0:0:0:
358,217,37434,2,0,B|370:180|370:180|365:121,1,77.4999976158143,0|0,0:0|0:0,0:0:0:0:
109,92,37845,1,10,0:0:0:0:
93,247,38050,1,2,0:0:0:0:
100,172,38256,5,8,0:0:0:0:
268,166,38461,1,8,0:0:0:0:
450,205,38667,2,0,P|432:264|406:372,2,154.999995231629,4|2|10,0:0|0:0|0:0,0:0:0:0:
511,156,39694,1,0,0:0:0:0:
320,300,39900,2,0,P|266:297|226:294,1,77.4999976158143,2|0,3:0|0:0,0:0:0:0:
76,245,40311,5,4,0:2:0:0:
67,239,40585,5,4,0:2:0:0:
89,240,40859,69,4,0:2:0:0:
91,257,41132,5,4,0:2:0:0:
65,266,41406,5,4,0:2:0:0:
68,227,41680,5,4,0:2:0:0:
115,236,41954,70,0,P|168:237|280:214,1,154.999995231629,4|4,0:0|0:3,0:0:0:0:
502,193,42776,1,8,0:0:0:0:
502,193,43187,5,4,0:3:0:0:
419,144,43393,1,2,0:2:0:0:
404,150,43495,1,2,0:2:0:0:
389,156,43598,1,2,0:2:0:0:
374,161,43701,1,2,0:2:0:0:
359,167,43804,1,2,0:2:0:0:
278,113,44009,1,2,0:2:0:0:
263,118,44112,1,2,0:2:0:0:
248,124,44215,1,2,0:2:0:0:
158,121,44420,1,8,0:0:0:0:
84,75,44626,2,0,L|53:88,3,25.8333325386048,0|0|0|8,0:0|0:0|0:0|0:0,0:0:0:0:
301,38,45037,5,8,0:0:0:0:
357,89,45242,2,0,P|360:126|354:196,1,77.4999976158143,4|4,0:2|0:2,0:0:0:0:
204,269,45653,2,0,P|201:232|207:162,1,77.4999976158143,4|0,0:3|0:0,0:0:0:0:
432,217,46064,2,0,P|384:241|354:255,1,77.4999976158143,8|2,0:0|0:2,0:0:0:0:
124,149,46475,2,0,P|170:123|205:106,1,77.4999976158143,2|2,3:0|0:2,0:0:0:0:
387,111,46886,5,2,0:2:0:0:
396,80,46989,1,2,0:2:0:0:
403,51,47091,1,4,0:2:0:0:
273,97,47297,1,0,0:0:0:0:
294,175,47502,1,2,0:0:0:0:
248,346,47708,1,8,0:0:0:0:
285,275,47913,2,0,L|266:234,3,25.8333325386048,0|0|0|8,0:0|0:0|0:0|0:0,0:0:0:0:
120,351,48324,69,0,0:0:0:0:
120,351,48530,2,0,P|116:289|119:178,1,154.999995231629,4|2,0:0|3:0,0:0:0:0:
158,269,49146,1,0,0:0:0:0:
294,101,49352,2,0,P|251:112|193:215,2,154.999995231629,8|2|4,0:0|3:0|0:2,0:0:0:0:
261,233,50379,2,0,P|306:252|358:258,1,77.4999976158143,0|2,0:0|3:3,0:0:0:0:
152,79,50790,5,2,0:0:0:0:
77,52,50995,2,0,P|76:94|84:153,1,77.4999976158143,10|2,0:0|0:0,0:0:0:0:
222,133,51406,2,0,P|227:81|228:48,1,77.4999976158143,2|2,3:0|0:0,0:0:0:0:
436,82,51817,5,4,0:2:0:0:
400,202,52023,1,0,0:0:0:0:
341,338,52228,2,0,P|291:323|176:328,1,154.999995231629,2|8,3:0|0:0,0:0:0:0:
426,346,52845,2,0,P|441:290|455:251,1,77.4999976158143,2|2,0:0|3:0,0:0:0:0:
465,267,53153,1,0,0:0:0:0:
468,247,53256,1,0,0:0:0:0:
445,238,53358,1,0,0:0:0:0:
459,213,53461,2,0,P|462:165|504:52,1,154.999995231629,4|2,0:2|3:3,0:0:0:0:
428,142,54078,1,0,0:0:0:0:
376,197,54283,2,0,P|334:173|295:169,1,77.4999976158143,8|8,0:0|0:0,0:0:0:0:
87,74,54694,5,2,3:3:0:0:
167,26,54900,1,8,0:3:0:0:
69,38,55105,2,0,P|66:120|71:210,1,154.999995231629,4|0,0:0|0:0,0:0:0:0:
292,110,55722,1,0,0:0:0:0:
112,256,55927,2,0,P|103:307|94:338,1,77.4999976158143,8|0,0:0|0:0,0:0:0:0:
234,238,56338,2,0,P|235:180|231:145,1,77.4999976158143,2|0,3:0|0:0,0:0:0:0:
206,308,56749,70,0,P|285:313|328:232,1,154.999995231629,4|2,0:2|3:0,0:0:0:0:
381,333,57365,1,0,0:0:0:0:
409,179,57571,2,0,P|405:239|405:293,1,77.4999976158143,10|10,0:0|0:0,0:0:0:0:
338,45,57982,2,0,P|338:107|340:150,1,77.4999976158143,8|4,0:3|0:3,0:0:0:0:
35,192,58393,5,4,0:0:0:0:
128,147,58598,1,0,0:0:0:0:
184,236,58804,1,8,0:0:0:0:
86,281,59009,1,0,0:0:0:0:
86,281,59112,1,0,0:0:0:0:
86,281,59215,1,8,0:0:0:0:
131,381,59420,1,8,0:0:0:0:
238,345,59626,1,0,0:0:0:0:
238,345,59728,1,0,0:0:0:0:
238,345,59831,1,0,0:0:0:0:
131,381,60037,5,4,0:2:0:0:
131,381,61680,5,4,0:0:0:0:
292,325,61886,1,0,0:0:0:0:
443,384,62091,1,0,0:0:0:0:
143,302,62297,1,0,0:0:0:0:
214,352,62502,2,0,P|217:268|212:181,1,154.999995231629,10|2,0:0|0:0,0:0:0:0:
420,67,63119,69,2,0:2:0:0:
423,80,63222,1,2,0:2:0:0:
426,92,63324,1,2,0:2:0:0:
431,105,63427,1,2,0:2:0:0:
434,117,63530,1,2,0:2:0:0:
312,263,63735,1,2,0:2:0:0:
315,239,63838,1,2,0:2:0:0:
318,216,63941,1,2,0:2:0:0:
375,168,64146,1,8,0:0:0:0:
144,7,64352,2,0,P|147:64|147:181,1,154.999995231629,4|8,0:2|0:3,0:0:0:0:
392,245,64968,5,4,0:0:0:0:
461,277,65174,2,0,P|464:239|469:182,1,77.4999976158143,0|4,0:0|0:3,0:0:0:0:
237,254,65585,1,0,0:0:0:0:
239,177,65790,2,0,P|200:178|131:279,1,154.999995231629,10|2,0:0|0:0,0:0:0:0:
359,60,66406,69,0,0:0:0:0:
370,88,66509,1,2,0:0:0:0:
380,113,66612,1,8,0:0:0:0:
390,138,66715,1,8,0:0:0:0:
282,89,66920,5,2,0:0:0:0:
244,86,67023,1,8,0:0:0:0:
210,83,67126,1,8,0:0:0:0:
307,162,67331,5,2,0:0:0:0:
286,187,67434,1,8,0:0:0:0:
269,213,67537,1,8,0:0:0:0:
252,241,67639,1,8,0:0:0:0:
240,267,67742,1,8,0:0:0:0:
240,267,67845,2,0,B|239:306|239:306|261:345,1,77.4999976158143,8|8,0:0|0:0,0:0:0:0:
353,321,68050,2,0,B|359:278|359:278|341:247,1,77.4999976158143,8|8,0:0|0:0,0:0:0:0:
68,158,68256,54,0,B|155:158|125:114|219:112,1,154.999995231629,4|8,0:0|0:0,0:0:0:0:
274,67,68564,1,0,0:0:0:0:
274,67,68667,2,0,P|290:112|285:157,1,77.4999976158143,2|2,0:0|0:0,0:0:0:0:
358,174,68872,2,0,P|391:144|437:124,1,77.4999976158143,8|0,0:0|0:0,0:0:0:0:
502,45,69078,2,0,P|426:56|332:26,1,154.999995231629,2|8,0:0|0:0,0:0:0:0:
48,32,69489,2,0,P|125:24|204:39,1,154.999995231629,2|8,0:0|0:0,0:0:0:0:
274,119,69797,5,0,0:0:0:0:
274,119,69900,2,0,L|275:220,1,77.4999976158143,2|0,0:0|0:0,0:0:0:0:
209,297,70105,2,0,P|187:250|188:206,1,77.4999976158143,8|0,0:0|0:0,0:0:0:0:
366,228,70311,2,0,P|357:265|330:308,1,77.4999976158143,2|2,0:0|0:0,0:0:0:0:
125,150,70516,2,0,P|163:146|202:150,1,77.4999976158143,8|0,0:0|0:0,0:0:0:0:
430,152,70722,2,0,P|367:147|330:153,1,77.4999976158143,2|0,0:0|0:0,0:0:0:0:
254,363,70927,102,0,P|271:250|270:50,1,309.999990463257,8|8,0:0|0:0,0:0:0:0:
232,130,71441,1,8,0:0:0:0:
210,145,71543,2,0,P|157:143|112:134,1,77.4999976158143,2|0,0:0|0:0,0:0:0:0:
350,151,71749,1,8,0:0:0:0:
368,167,71852,1,0,0:0:0:0:
385,185,71954,2,0,P|428:185|502:100,1,154.999995231629,2|8,0:0|0:0,0:0:0:0:
392,265,72365,5,4,0:2:0:0:
392,265,72571,101,8,0:0:0:0:
353,260,72674,1,8,0:0:0:0:
314,255,72776,1,8,0:0:0:0:
275,250,72879,1,8,0:0:0:0:
236,246,72982,1,8,0:0:0:0:
197,242,73085,1,8,0:0:0:0:
197,242,73187,2,0,L|114:235,1,77.4999976158143,4|0,0:0|0:0,0:0:0:0:
45,275,73393,2,0,L|87:340,1,77.4999976158143,8|0,0:0|0:0,0:0:0:0:
157,384,73598,2,0,L|209:315,1,77.4999976158143,2|2,0:0|0:0,0:0:0:0:
214,224,73804,6,0,L|124:218,1,77.4999976158143,8|0,0:0|0:0,0:0:0:0:
284,318,74009,2,0,L|371:322,1,77.4999976158143,2|0,0:0|0:0,0:0:0:0:
272,124,74215,102,0,L|186:94,1,77.4999976158143,8|0,0:0|0:0,0:0:0:0:
331,226,74420,2,0,L|414:252,1,77.4999976158143,2|2,0:0|0:0,0:0:0:0:
354,65,74626,2,0,L|345:156,1,77.4999976158143,8|0,0:0|0:0,0:0:0:0:
511,99,74831,2,0,B|461:98|461:98|424:66|424:66|355:61,1,154.999995231629,2|8,0:0|0:0,0:0:0:0:
50,149,75242,6,0,B|22:223|22:223|52:317,1,154.999995231629,2|8,0:0|0:0,0:0:0:0:
45,295,75550,1,0,0:0:0:0:
45,295,75653,2,0,P|85:287|147:279,1,77.4999976158143,2|0,0:0|0:0,0:0:0:0:
202,289,75859,1,8,0:0:0:0:
202,289,75961,1,0,0:0:0:0:
202,289,76064,2,0,P|194:328|188:372,1,77.4999976158143,2|2,0:0|0:0,0:0:0:0:
160,217,76269,101,8,0:0:0:0:
167,191,76372,1,0,0:0:0:0:
177,169,76475,2,0,P|226:174|260:182,1,77.4999976158143,2|0,0:0|0:0,0:0:0:0:
301,249,76680,2,0,P|391:236|402:231,1,77.4999976158143,8|0,0:0|0:0,0:0:0:0:
488,144,76886,2,0,P|401:140|327:175,1,154.999995231629,2|8,0:0|0:0,0:0:0:0:
422,366,77297,2,0,B|423:273|472:318|474:209,1,154.999995231629,2|8,0:0|0:0,0:0:0:0:
295,35,77708,2,0,B|209:61|209:61|146:29,1,154.999995231629,2|8,0:0|0:0,0:0:0:0:
80,7,78016,1,0,0:0:0:0:
20,85,78119,6,0,L|38:179,1,77.4999976158143,2|0,0:0|0:0,0:0:0:0:
109,179,78324,2,0,L|171:104,1,77.4999976158143,8|0,0:0|0:0,0:0:0:0:
6,155,78530,102,0,L|24:249,1,77.4999976158143,2|2,0:0|0:0,0:0:0:0:
91,251,78735,2,0,L|153:176,1,77.4999976158143,8|0,0:0|0:0,0:0:0:0:
288,143,78941,5,2,0:0:0:0:
288,143,79146,101,8,0:0:0:0:
281,181,79249,1,8,0:0:0:0:
274,219,79352,1,8,0:0:0:0:
268,257,79454,1,8,0:0:0:0:
262,295,79557,1,8,0:0:0:0:
256,333,79660,1,8,0:0:0:0:
256,333,79763,2,0,P|297:329|342:318,1,77.4999976158143,4|0,0:0|0:0,0:0:0:0:
412,283,79968,2,0,P|376:249|348:233,1,77.4999976158143,8|0,0:0|0:0,0:0:0:0:
205,153,80174,2,0,P|184:236|173:328,1,154.999995231629,0|8,0:0|0:0,0:0:0:0:
290,179,80585,6,0,P|289:106|281:25,1,154.999995231629,2|8,0:0|0:0,0:0:0:0:
326,81,80893,1,0,0:0:0:0:
343,98,80995,2,0,P|386:97|445:77,1,77.4999976158143,2|0,0:0|0:0,0:0:0:0:
204,56,81201,1,8,0:0:0:0:
186,69,81304,1,0,0:0:0:0:
173,80,81406,2,0,P|85:82|6:46,1,154.999995231629,2|8,0:0|0:0,0:0:0:0:
381,178,81817,102,0,P|373:266|369:357,1,154.999995231629,2|8,0:0|0:0,0:0:0:0:
442,382,82126,1,0,0:0:0:0:
442,382,82228,2,0,L|449:278,1,77.4999976158143,2|0,0:0|0:0,0:0:0:0:
293,288,82434,2,0,L|295:372,1,77.4999976158143,8|0,0:0|0:0,0:0:0:0:
456,226,82639,2,0,L|463:140,1,77.4999976158143,2|2,0:0|0:0,0:0:0:0:
291,113,82845,2,0,L|297:211,1,77.4999976158143,8|0,0:0|0:0,0:0:0:0:
152,359,83050,5,2,0:0:0:0:
80,336,83256,1,4,0:2:0:0:
10,315,83461,1,10,0:0:0:0:
10,315,83564,1,10,0:0:0:0:
10,315,83667,1,4,0:2:0:0:
344,378,83872,101,10,0:0:0:0:
416,355,84078,1,4,0:2:0:0:
486,334,84283,1,2,0:0:0:0:
486,334,84386,1,2,0:0:0:0:
486,334,84489,1,8,0:0:0:0:
154,257,84694,5,2,0:0:0:0:
154,257,84900,101,8,0:0:0:0:
162,219,85002,1,8,0:0:0:0:
162,180,85105,1,8,0:0:0:0:
158,141,85208,1,8,0:0:0:0:
134,110,85311,1,8,0:0:0:0:
104,84,85413,1,8,0:0:0:0:
102,45,85516,1,4,0:0:0:0:
102,45,86338,21,2,0:0:0:0:
178,56,86749,5,2,0:0:0:0:
254,68,87160,5,2,0:0:0:0:
330,80,87571,5,2,0:0:0:0:
410,339,87982,5,2,0:0:0:0:
334,328,88393,5,2,0:0:0:0:
258,316,88804,37,2,0:0:0:0:
182,304,89215,5,4,0:2:0:0:
256,195,89626,5,8,0:0:0:0:
256,195,89728,1,8,0:0:0:0:
494,196,89934,5,8,0:0:0:0:
488,218,90037,1,8,0:0:0:0:
481,239,90139,1,0,0:0:0:0:
475,259,90242,1,0,0:0:0:0:
169,218,90448,22,0,L|158:59,1,154.999995231629,4|8,0:0|0:3,0:0:0:0:
260,377,92913,37,4,0:0:0:0:
364,353,99489,21,6,0:0:0:0:
441,339,99694,2,0,P|442:283|432:171,1,154.999995231629,2|0,0:0|0:0,0:0:0:0:
228,81,100311,2,0,P|228:148|226:191,1,77.4999976158143,10|2,0:0|0:0,0:0:0:0:
342,244,100722,1,2,3:0:0:0:
343,152,100927,1,0,0:0:0:0:
341,59,101132,1,2,0:0:0:0:
133,142,101543,6,0,P|128:209|127:242,1,77.4999976158143,0|0,0:0|0:0,0:0:0:0:
231,303,101954,2,0,P|223:236|213:199,1,77.4999976158143,10|2,0:0|0:0,0:0:0:0:
57,248,102365,1,2,3:0:0:0:
35,341,102571,1,4,0:3:0:0:
120,315,102776,2,0,B|307:289|209:397|438:351,1,309.999990463257,2|10,0:0|0:0,0:0:0:0:
483,308,103804,1,2,0:0:0:0:
393,189,104009,2,0,P|410:247|417:283,1,77.4999976158143,4|0,0:2|0:0,0:0:0:0:
482,215,104420,5,2,0:0:0:0:
495,140,104626,1,2,0:0:0:0:
510,66,104831,1,2,3:0:0:0:
420,2,105037,5,0,0:0:0:0:
304,33,105242,69,2,0:0:0:0:
289,107,105447,1,2,0:0:0:0:
276,182,105653,1,2,0:2:0:0:
395,127,105858,5,8,0:3:0:0:
395,127,105961,1,8,0:3:0:0:
395,127,106064,1,6,0:0:0:0:
379,219,106269,1,2,0:0:0:0:
379,219,106680,5,0,0:0:0:0:
314,272,106886,2,0,P|256:255|224:249,1,77.4999976158143,10|2,0:0|0:0,0:0:0:0:
185,194,107297,2,0,P|113:209|85:228,1,77.4999976158143,2|4,3:0|0:3,0:0:0:0:
50,268,107708,2,0,P|22:195|42:100,1,154.999995231629,2|2,0:0|3:0,0:0:0:0:
72,16,108324,2,0,P|20:42|-13:52,2,77.4999976158143,0|10|2,0:0|0:0|0:0,0:0:0:0:
146,55,108941,1,8,3:0:0:0:
146,55,109146,1,0,0:0:0:0:
298,92,109352,6,0,P|241:99|196:94,1,77.4999976158143,2|2,0:0|0:0,0:0:0:0:
250,195,109763,2,0,P|285:236|306:279,1,77.4999976158143,2|2,3:0|3:0,0:0:0:0:
367,196,110174,2,0,P|382:144|406:103,1,77.4999976158143,10|2,0:0|0:0,0:0:0:0:
165,198,110585,1,2,0:2:0:0:
190,274,110790,1,0,0:0:0:0:
338,334,110995,69,2,0:0:0:0:
363,265,111201,1,2,0:0:0:0:
279,186,111406,1,2,3:0:0:0:
282,266,111612,1,0,0:0:0:0:
371,185,111817,1,10,0:0:0:0:
320,97,112023,1,2,0:0:0:0:
387,177,112228,2,0,P|398:224|398:275,1,77.4999976158143,8|0,0:0|0:0,0:0:0:0:
467,171,112639,6,0,P|472:107|498:8,2,154.999995231629,4|2|10,0:0|0:0|0:0,0:0:0:0:
479,246,113667,1,0,0:0:0:0:
282,273,113872,2,0,P|291:326|292:368,1,77.4999976158143,2|2,0:0|0:0,0:0:0:0:
78,344,114283,101,2,0:0:0:0:
61,346,114557,5,2,0:0:0:0:
55,329,114831,5,2,0:0:0:0:
87,321,115105,5,4,0:2:0:0:
99,358,115379,69,4,0:2:0:0:
53,357,115653,5,4,0:2:0:0:
50,311,115927,6,0,P|55:255|83:128,1,154.999995231629,4|8,0:0|3:0,0:0:0:0:
168,84,116543,1,0,0:0:0:0:
156,104,116646,1,0,0:0:0:0:
158,128,116749,1,10,0:0:0:0:
215,186,116954,1,2,0:0:0:0:
292,66,117160,1,0,0:0:0:0:
348,120,117365,1,2,0:2:0:0:
357,141,117468,1,2,0:2:0:0:
343,159,117571,1,2,0:2:0:0:
346,182,117674,1,2,0:2:0:0:
335,202,117776,1,2,0:2:0:0:
264,272,117982,1,2,0:2:0:0:
254,293,118085,1,0,0:0:0:0:
255,315,118187,1,2,0:2:0:0:
326,363,118393,1,8,0:0:0:0:
397,312,118598,6,0,L|423:325,3,19.3749994039536,0|0|0|0,0:0|0:0|0:0|0:0,0:0:0:0:
388,291,118804,2,0,L|398:237,2,38.7499988079071,8|0|0,0:0|0:0|0:0,0:0:0:0:
494,125,119215,70,0,P|470:161|433:199,1,77.4999976158143,4|4,0:2|0:2,0:0:0:0:
412,87,119626,2,0,P|354:82|246:61,1,154.999995231629,4|10,3:3|0:0,0:0:0:0:
200,7,120242,1,2,0:0:0:0:
177,170,120448,2,0,P|169:226|166:279,1,77.4999976158143,0|0,0:0|0:0,0:0:0:0:
271,186,120858,1,8,0:3:0:0:
263,168,120961,1,8,0:3:0:0:
255,150,121064,1,4,0:2:0:0:
100,130,121269,1,0,0:0:0:0:
77,205,121475,1,0,0:0:0:0:
140,323,121680,1,8,0:0:0:0:
162,319,121783,1,2,0:0:0:0:
182,316,121886,1,2,0:0:0:0:
203,313,121989,1,0,0:0:0:0:
220,311,122091,1,4,0:2:0:0:
281,272,122297,1,8,0:0:0:0:
416,348,122502,6,0,B|417:264|461:282|459:190,1,154.999995231629,4|2,0:0|3:0,0:0:0:0:
498,138,123119,1,0,0:0:0:0:
343,140,123324,2,0,P|367:181|375:215,1,77.4999976158143,8|0,0:0|0:0,0:0:0:0:
426,119,123735,2,0,P|413:42|492:1,1,154.999995231629,2|4,3:0|0:2,0:0:0:0:
332,18,124352,1,0,0:0:0:0:
246,16,124557,2,0,P|254:72|245:176,1,154.999995231629,2|10,3:0|0:0,0:0:0:0:
22,180,125174,2,0,B|4:216|4:216|16:279,1,77.4999976158143,2|2,0:0|3:0,0:0:0:0:
71,306,125585,1,4,0:3:0:0:
22,64,125790,6,0,B|94:32|94:32|187:63,2,154.999995231629,4|2|8,0:2|0:3|0:0,0:0:0:0:
233,103,126817,1,0,0:0:0:0:
233,103,127023,2,0,L|243:212,1,77.4999976158143,2|0,3:0|0:0,0:0:0:0:
217,205,127331,1,0,0:0:0:0:
243,213,127434,2,0,L|261:381,1,154.999995231629,4|2,0:2|3:3,0:0:0:0:
296,295,128050,1,0,0:0:0:0:
325,200,128256,1,8,0:0:0:0:
335,216,128358,1,0,0:0:0:0:
345,233,128461,1,8,0:0:0:0:
413,87,128667,1,8,0:3:0:0:
403,167,128872,1,8,0:3:0:0:
295,31,129078,6,0,P|314:114|313:198,2,154.999995231629,4|2|8,0:0|3:0|0:0,0:0:0:0:
426,252,130105,1,0,0:0:0:0:
499,221,130311,2,0,P|499:267|497:313,1,77.4999976158143,2|2,3:0|0:0,0:0:0:0:
229,346,130722,69,4,0:2:0:0:
195,271,130927,1,0,0:0:0:0:
223,193,131132,1,0,0:0:0:0:
40,257,131338,1,0,0:0:0:0:
52,284,131441,1,8,0:0:0:0:
67,309,131543,2,0,P|92:253|99:212,1,77.4999976158143,2|8,0:0|0:3,0:0:0:0:
59,156,131954,1,4,0:3:0:0:
193,87,132160,1,0,0:0:0:0:
113,76,132365,5,4,0:0:0:0:
147,150,132571,1,0,0:0:0:0:
254,244,132776,5,8,0:0:0:0:
240,167,132982,1,0,0:0:0:0:
329,61,133187,5,8,0:0:0:0:
317,139,133393,1,8,0:0:0:0:
374,206,133598,69,8,0:0:0:0:
415,203,133701,1,0,0:0:0:0:
433,235,133804,1,8,0:0:0:0:
480,232,133906,1,0,0:0:0:0:
497,260,134009,1,4,0:2:0:0:
421,352,135653,5,4,0:0:0:0:
306,337,135859,1,0,0:0:0:0:
192,318,136064,1,0,0:0:0:0:
237,90,136269,5,0,0:0:0:0:
161,84,136475,2,0,P|166:139|166:258,1,154.999995231629,10|2,0:0|0:0,0:0:0:0:
368,217,137091,1,2,0:2:0:0:
263,194,137297,1,2,0:2:0:0:
276,220,137400,1,2,0:2:0:0:
288,246,137502,1,2,0:2:0:0:
352,87,137708,1,2,0:2:0:0:
340,110,137811,1,0,0:0:0:0:
331,135,137913,1,2,0:2:0:0:
251,114,138119,5,8,0:0:0:0:
353,292,138324,2,0,P|419:295|513:246,1,154.999995231629,6|4,0:0|0:3,0:0:0:0:
211,283,138941,86,0,P|223:335|222:363,1,77.4999976158143,4|0,0:0|0:0,0:0:0:0:
292,380,139352,1,4,0:3:0:0:
26,268,139557,1,0,0:0:0:0:
103,297,139763,2,0,P|101:209|103:133,1,154.999995231629,10|2,0:0|0:0,0:0:0:0:
252,18,140379,85,0,0:0:0:0:
269,33,140482,1,0,0:0:0:0:
274,55,140585,1,8,0:0:0:0:
272,78,140687,1,8,0:0:0:0:
261,98,140790,1,2,0:0:0:0:
365,45,140995,1,8,0:0:0:0:
386,52,141098,1,8,0:0:0:0:
408,59,141201,1,2,0:0:0:0:
359,198,141406,5,8,0:0:0:0:
341,217,141509,1,8,0:0:0:0:
323,236,141612,1,8,0:0:0:0:
311,257,141715,1,8,0:0:0:0:
311,257,141817,2,0,P|281:261|228:293,1,77.4999976158143,8|8,0:0|0:0,0:0:0:0:
327,380,142023,2,0,P|360:344|371:317,1,77.4999976158143,8|8,0:0|0:0,0:0:0:0:
202,368,142228,54,0,P|153:298|183:209,1,154.999995231629,4|8,0:0|0:0,0:0:0:0:
236,199,142537,1,0,0:0:0:0:
236,199,142639,2,0,P|235:151|217:107,1,77.4999976158143,2|2,0:0|0:0,0:0:0:0:
95,122,142845,2,0,P|86:160|88:219,1,77.4999976158143,8|0,0:0|0:0,0:0:0:0:
162,57,143050,1,2,0:0:0:0:
202,49,143153,1,0,0:0:0:0:
240,42,143256,1,8,0:0:0:0:
281,34,143359,1,0,0:0:0:0:
281,34,143461,2,0,B|327:28|327:28|382:42|382:42|447:31,1,154.999995231629,2|8,0:0|0:0,0:0:0:0:
493,93,143769,5,0,0:0:0:0:
493,93,143872,2,0,P|493:136|480:194,1,77.4999976158143,2|0,0:0|0:0,0:0:0:0:
418,198,144078,2,0,P|418:254|438:315,1,77.4999976158143,8|0,0:0|0:0,0:0:0:0:
474,338,144283,2,0,P|389:354|317:327,1,154.999995231629,2|8,0:0|0:0,0:0:0:0:
137,214,144694,2,0,P|222:198|294:225,1,154.999995231629,2|8,0:0|0:0,0:0:0:0:
251,312,145002,101,0,0:0:0:0:
251,312,145105,1,2,0:0:0:0:
251,312,145208,1,2,0:0:0:0:
251,312,145311,1,8,0:0:0:0:
251,312,145413,1,0,0:0:0:0:
251,312,145516,2,0,P|175:357|99:354,1,154.999995231629,2|8,0:0|0:0,0:0:0:0:
51,307,145824,1,0,0:0:0:0:
51,307,145927,2,0,P|61:257|60:208,1,77.4999976158143,2|2,0:0|0:0,0:0:0:0:
9,167,146132,2,0,P|11:128|21:80,1,77.4999976158143,8|0,0:0|0:0,0:0:0:0:
166,39,146338,1,4,0:2:0:0:
166,39,146543,5,8,0:0:0:0:
175,79,146646,1,8,0:0:0:0:
186,119,146749,1,8,0:0:0:0:
198,160,146852,1,8,0:0:0:0:
210,198,146954,1,8,0:0:0:0:
228,238,147057,1,8,0:0:0:0:
228,238,147160,2,0,L|340:210,1,77.4999976158143,4|0,0:0|0:0,0:0:0:0:
384,246,147365,2,0,L|346:355,1,77.4999976158143,8|0,0:0|0:0,0:0:0:0:
296,379,147571,2,0,L|224:288,1,77.4999976158143,2|2,0:0|0:0,0:0:0:0:
234,210,147776,102,0,L|325:198,1,77.4999976158143,8|0,0:0|0:0,0:0:0:0:
407,269,147982,2,0,L|369:343,1,77.4999976158143,2|0,0:0|0:0,0:0:0:0:
262,384,148187,2,0,L|219:309,1,77.4999976158143,8|0,0:0|0:0,0:0:0:0:
118,274,148393,5,2,0:0:0:0:
106,244,148495,1,2,0:0:0:0:
96,215,148598,1,8,0:0:0:0:
86,187,148701,1,0,0:0:0:0:
75,157,148804,2,0,L|151:125,1,77.4999976158143,2|0,0:0|0:0,0:0:0:0:
208,51,149009,2,0,L|240:127,1,77.4999976158143,8|0,0:0|0:0,0:0:0:0:
336,173,149215,2,0,L|260:205,1,77.4999976158143,2|2,0:0|0:0,0:0:0:0:
205,278,149420,2,0,L|173:202,1,77.4999976158143,8|0,0:0|0:0,0:0:0:0:
313,92,149626,101,2,0:0:0:0:
332,96,149728,1,0,0:0:0:0:
349,101,149831,1,8,0:0:0:0:
364,106,149934,1,0,0:0:0:0:
379,111,150037,1,2,0:0:0:0:
311,331,150242,5,8,0:0:0:0:
321,318,150345,1,0,0:0:0:0:
330,307,150448,2,0,L|412:326,1,77.4999976158143,4|0,0:0|0:0,0:0:0:0:
290,235,150653,2,0,L|309:153,1,77.4999976158143,8|0,0:0|0:0,0:0:0:0:
238,296,150859,2,0,L|156:277,1,77.4999976158143,2|2,0:0|0:0,0:0:0:0:
396,307,151064,102,0,L|319:302,1,77.4999976158143,8|0,0:0|0:0,0:0:0:0:
287,151,151269,2,0,L|282:229,1,77.4999976158143,2|0,0:0|0:0,0:0:0:0:
153,299,151475,2,0,L|231:305,1,77.4999976158143,8|0,0:0|0:0,0:0:0:0:
277,369,151680,5,2,0:0:0:0:
363,237,151886,1,8,0:0:0:0:
205,231,152091,1,2,0:0:0:0:
433,372,152297,1,8,0:0:0:0:
465,273,152502,101,2,0:0:0:0:
461,247,152605,1,2,0:0:0:0:
456,225,152708,1,8,0:0:0:0:
452,198,152811,1,0,0:0:0:0:
449,171,152913,2,0,L|471:94,1,77.4999976158143,2|0,0:0|0:0,0:0:0:0:
364,172,153119,5,8,0:0:0:0:
332,164,153222,1,8,0:0:0:0:
303,157,153324,1,8,0:0:0:0:
273,150,153427,1,8,0:0:0:0:
245,142,153530,1,8,0:0:0:0:
217,134,153632,1,8,0:0:0:0:
218,135,153735,2,0,L|205:219,1,77.4999976158143,4|0,0:0|0:0,0:0:0:0:
132,272,153941,2,0,L|49:254,1,77.4999976158143,8|0,0:0|0:0,0:0:0:0:
0,177,154146,2,0,L|13:93,1,77.4999976158143,2|2,0:0|0:0,0:0:0:0:
90,36,154352,2,0,L|182:52,1,77.4999976158143,8|0,0:0|0:0,0:0:0:0:
270,71,154557,102,0,B|364:77|324:34|420:35,1,154.999995231629,2|8,0:0|0:0,0:0:0:0:
475,92,154865,1,0,0:0:0:0:
475,92,154968,2,0,P|466:142|465:201,1,77.4999976158143,2|2,0:0|0:0,0:0:0:0:
326,181,155174,1,8,0:0:0:0:
342,201,155276,1,0,0:0:0:0:
329,221,155379,2,0,P|329:267|351:386,1,154.999995231629,2|8,0:0|0:0,0:0:0:0:
231,248,155790,6,0,P|185:174|104:196,1,154.999995231629,2|8,0:0|0:0,0:0:0:0:
481,378,156201,102,0,B|507:308|507:308|481:232,1,154.999995231629,2|8,0:0|0:0,0:0:0:0:
168,319,156612,5,2,0:0:0:0:
145,332,156715,1,2,0:0:0:0:
125,347,156817,1,8,0:0:0:0:
106,363,156920,1,0,0:0:0:0:
106,363,157023,2,0,B|72:342|72:342|63:300,1,77.4999976158143,2|0,0:0|0:0,0:0:0:0:
128,252,157228,2,0,B|164:234|164:234|204:250,1,77.4999976158143,4|0,0:2|0:0,0:0:0:0:
242,320,157434,2,0,B|236:359|236:359|201:384,1,77.4999976158143,10|10,0:0|0:0,0:0:0:0:
277,247,157639,102,0,L|366:195,1,77.4999976158143,4|0,0:2|0:0,0:0:0:0:
347,110,157845,2,0,B|310:124|310:124|284:155,1,77.4999976158143,10|0,0:0|0:0,0:0:0:0:
355,293,158050,2,0,B|392:279|392:279|418:248,1,77.4999976158143,4|0,0:2|0:0,0:0:0:0:
475,124,158256,2,0,L|399:174,1,77.4999976158143,10|10,0:0|0:0,0:0:0:0:
213,202,158461,5,4,0:2:0:0:
187,188,158564,1,0,0:0:0:0:
160,172,158667,1,2,0:0:0:0:
28,45,158872,101,8,0:0:0:0:
77,54,158975,1,8,0:0:0:0:
122,64,159078,1,8,0:0:0:0:
171,76,159180,1,8,0:0:0:0:
222,90,159283,1,8,0:0:0:0:
272,102,159386,1,8,0:0:0:0:
321,115,159489,1,4,0:0:0:0:
321,115,160311,21,2,0:0:0:0:
249,143,160722,5,2,0:0:0:0:
243,220,161132,5,2,0:0:0:0:
287,283,161543,5,2,0:0:0:0:
364,282,161954,5,2,0:0:0:0:
406,217,162365,5,2,0:0:0:0:
388,141,162776,37,2,0:0:0:0:
326,198,163187,5,4,0:2:0:0:
211,306,163598,5,8,0:0:0:0:
211,306,163701,1,8,0:0:0:0:
115,232,163906,5,8,0:0:0:0:
121,263,164009,1,8,0:0:0:0:
126,290,164112,1,0,0:0:0:0:
133,318,164215,1,8,0:0:0:0:
52,118,164420,22,0,L|208:136,1,154.999995231629,4|0,0:0|0:0,0:0:0:0:
256,382,166886,37,4,0:0:0:0:
500,197,173461,22,0,P|479:254|459:352,1,154.999995231629,4|0,0:0|0:0,0:0:0:0:
385,365,174078,1,0,0:0:0:0:
350,185,174283,2,0,P|361:243|365:284,1,77.4999976158143,10|0,0:0|0:0,0:0:0:0:
255,349,174694,2,0,P|263:311|275:274,1,77.4999976158143,2|0,0:0|0:0,0:0:0:0:
264,179,175105,2,0,P|228:126|229:24,2,154.999995231629,2|2|10,0:0|0:0|0:0,0:0:0:0:
326,109,176132,1,0,0:0:0:0:
407,121,176338,2,0,P|449:143|478:191,1,77.4999976158143,2|0,0:0|0:0,0:0:0:0:
196,220,176749,6,0,B|109:215|131:264|41:256,2,154.999995231629,4|0|10,0:2|0:0|0:0,0:0:0:0:
246,278,177776,1,0,0:0:0:0:
246,278,177982,2,0,L|234:362,1,77.4999976158143,2|0,0:0|0:0,0:0:0:0:
305,381,178393,5,2,0:0:0:0:
377,358,178598,1,2,0:0:0:0:
461,377,178804,1,2,0:0:0:0:
383,344,179009,1,0,0:0:0:0:
456,298,179215,2,0,L|465:214,1,77.4999976158143,10|0,0:0|0:0,0:0:0:0:
395,175,179626,2,0,L|389:93,1,77.4999976158143,2|8,0:0|0:0,0:0:0:0:
369,79,179934,1,8,0:0:0:0:
348,60,180037,2,0,P|302:67|245:66,1,77.4999976158143,4|0,0:0|0:0,0:0:0:0:
191,46,180448,2,0,P|131:77|100:92,1,77.4999976158143,10|0,0:0|0:0,0:0:0:0:
36,195,180859,5,10,0:0:0:0:
135,173,181064,1,0,0:0:0:0:
199,256,181269,1,2,0:0:0:0:
100,275,181475,1,0,0:0:0:0:
246,165,181680,69,4,0:2:0:0:
350,191,181886,1,2,0:0:0:0:
342,212,181989,1,0,0:0:0:0:
336,231,182091,1,2,0:0:0:0:
271,279,182297,1,4,0:2:0:0:
443,276,182502,1,2,0:0:0:0:
440,258,182605,1,2,0:0:0:0:
436,239,182708,1,2,0:0:0:0:
490,108,182913,1,2,0:0:0:0:
431,160,183119,1,4,3:0:0:0:
283,107,183324,6,0,P|340:101|380:93,1,77.4999976158143,0|0,0:0|0:0,0:0:0:0:
227,39,183735,2,0,P|162:44|62:61,1,154.999995231629,2|10,0:0|0:0,0:0:0:0:
29,125,184352,1,0,0:0:0:0:
202,121,184557,2,0,P|184:176|180:215,1,77.4999976158143,2|2,0:0|0:2,0:0:0:0:
285,343,184968,5,4,0:2:0:0:
366,358,185174,1,0,0:0:0:0:
410,289,185379,1,2,0:0:0:0:
331,273,185585,1,0,0:0:0:0:
274,337,185790,5,10,0:0:0:0:
192,359,185995,1,0,0:0:0:0:
108,337,186201,1,2,0:0:0:0:
10,343,186406,1,0,0:0:0:0:
101,319,186612,70,0,P|111:269|116:217,1,77.4999976158143,4|0,0:2|0:0,0:0:0:0:
278,157,187023,2,0,P|272:98|272:66,1,77.4999976158143,2|2,0:0|0:0,0:0:0:0:
16,172,187434,2,0,P|86:167|192:152,1,154.999995231629,10|2,0:0|0:0,0:0:0:0:
220,208,188050,1,0,0:0:0:0:
431,45,188256,6,0,P|416:93|406:137,1,77.4999976158143,4|8,0:2|0:0,0:0:0:0:
445,346,188667,1,2,0:0:0:0:
330,324,188872,1,2,0:0:0:0:
345,250,189078,1,10,0:0:0:0:
466,275,189283,1,8,0:0:0:0:
221,215,189489,2,0,P|242:279|258:388,1,154.999995231629,10|4,0:0|0:2,0:0:0:0:
245,370,190311,5,0,0:0:0:0:
278,294,190516,1,0,0:0:0:0:
230,232,190722,1,0,0:0:0:0:
267,124,190927,1,0,0:0:0:0:
215,209,191132,1,8,0:0:0:0:
294,287,191338,1,0,0:0:0:0:
194,76,191543,85,8,0:0:0:0:
194,76,191749,1,8,0:0:0:0:
359,104,191954,1,8,0:0:0:0:
359,104,192160,1,8,0:0:0:0:
122,231,192365,1,8,0:0:0:0:
122,231,192468,1,8,0:0:0:0:
122,231,192571,1,8,0:0:0:0:
122,231,192674,1,8,0:0:0:0:
122,231,192776,1,8,0:0:0:0:
122,231,192879,1,8,0:0:0:0:
122,231,192982,1,8,0:0:0:0:
122,231,193085,1,8,0:0:0:0:
122,231,193187,1,4,0:2:0:0:
122,231,194626,53,0,0:0:0:0:
157,227,194728,1,0,0:0:0:0:
186,224,194831,2,0,L|179:323,1,77.4999976158143,12|0,0:0|0:0,0:0:0:0:
266,361,195037,2,0,L|273:280,1,77.4999976158143,8|0,0:0|0:0,0:0:0:0:
274,185,195242,5,2,0:0:0:0:
275,154,195345,1,2,0:0:0:0:
276,124,195448,1,8,0:0:0:0:
277,94,195550,1,0,0:0:0:0:
277,94,195653,2,0,L|335:38,1,77.4999976158143,2|0,0:0|0:0,0:0:0:0:
166,28,195859,2,0,L|186:113,1,77.4999976158143,8|0,0:0|0:0,0:0:0:0:
128,222,196064,2,0,L|92:68,1,154.999995231629,2|8,0:0|0:0,0:0:0:0:
92,71,196372,1,0,0:0:0:0:
92,71,196475,2,0,L|11:93,1,77.4999976158143,2|0,0:0|0:0,0:0:0:0:
21,181,196680,2,0,L|40:257,1,77.4999976158143,8|0,0:0|0:0,0:0:0:0:
27,346,196886,101,2,0:0:0:0:
62,339,196989,1,2,0:0:0:0:
96,333,197091,1,8,0:0:0:0:
126,327,197194,1,0,0:0:0:0:
156,321,197297,2,0,P|199:311|246:318,1,77.4999976158143,2|0,0:0|0:0,0:0:0:0:
349,350,197502,2,0,P|320:275|320:140,1,154.999995231629,8|2,0:0|0:0,0:0:0:0:
237,146,197811,5,2,0:0:0:0:
237,146,197913,2,0,P|222:181|215:229,1,77.4999976158143,8|0,0:0|0:0,0:0:0:0:
321,123,198119,2,0,P|397:144|409:223,2,154.999995231629,2|8|2,0:0|0:0|0:0,0:0:0:0:
100,32,198735,101,8,0:0:0:0:
106,70,198838,1,0,0:0:0:0:
112,114,198941,1,4,0:2:0:0:
117,151,199043,1,8,0:0:0:0:
124,188,199146,2,0,L|137:269,1,77.4999976158143,0|8,0:0|0:0,0:0:0:0:
245,318,199352,2,0,L|225:218,1,77.4999976158143,8|8,0:0|0:0,0:0:0:0:
296,161,199557,5,8,0:0:0:0:
325,138,199660,1,8,0:0:0:0:
358,129,199763,2,0,P|381:213|322:271,1,154.999995231629,4|8,0:0|0:0,0:0:0:0:
343,262,200071,1,0,0:0:0:0:
343,262,200174,2,0,L|378:345,1,77.4999976158143,2|2,0:0|0:0,0:0:0:0:
430,384,200379,2,0,L|466:309,1,77.4999976158143,8|0,0:0|0:0,0:0:0:0:
512,237,200585,2,0,L|424:244,1,77.4999976158143,2|0,0:0|0:0,0:0:0:0:
343,262,200790,2,0,L|263:264,1,77.4999976158143,8|0,0:0|0:0,0:0:0:0:
120,325,200995,101,2,0:0:0:0:
123,295,201098,1,2,0:0:0:0:
124,267,201201,1,8,0:0:0:0:
127,238,201304,1,0,0:0:0:0:
127,238,201406,2,0,L|87:163,1,77.4999976158143,2|0,0:0|0:0,0:0:0:0:
94,83,201612,2,0,L|196:101,1,77.4999976158143,8|0,0:0|0:0,0:0:0:0:
201,198,201817,2,0,P|277:151|378:130,1,154.999995231629,2|8,0:0|0:0,0:0:0:0:
339,133,202126,1,0,0:0:0:0:
339,133,202228,2,0,P|342:173|340:217,1,77.4999976158143,2|0,0:0|0:0,0:0:0:0:
276,257,202434,2,0,P|281:297|287:362,1,77.4999976158143,8|0,0:0|0:0,0:0:0:0:
419,372,202639,2,0,P|431:289|431:196,1,154.999995231629,2|8,0:0|0:0,0:0:0:0:
483,161,202948,1,0,0:0:0:0:
462,80,203050,6,0,B|387:56|387:56|293:76,1,154.999995231629,6|8,0:0|0:0,0:0:0:0:
239,35,203359,1,0,0:0:0:0:
239,35,203461,2,0,P|233:103|239:133,1,77.4999976158143,2|2,0:0|0:0,0:0:0:0:
165,162,203667,2,0,P|132:129|101:112,1,77.4999976158143,8|0,0:0|0:0,0:0:0:0:
233,193,203872,102,0,P|225:281|225:383,1,154.999995231629,2|8,0:0|0:0,0:0:0:0:
27,236,204283,2,0,P|30:142|26:64,1,154.999995231629,2|8,0:0|0:0,0:0:0:0:
228,358,204694,5,6,0:0:0:0:
242,351,204797,1,0,0:0:0:0:
273,342,204900,1,4,0:2:0:0:
305,356,205002,1,8,0:0:0:0:
346,364,205105,1,2,0:0:0:0:
393,346,205208,1,2,0:0:0:0:
408,302,205311,1,4,0:2:0:0:
275,66,205516,101,4,0:2:0:0:
316,78,205619,1,8,0:0:0:0:
341,111,205722,1,8,0:0:0:0:
346,156,205824,1,8,0:0:0:0:
328,191,205927,1,8,0:0:0:0:
292,213,206030,1,8,0:0:0:0:
246,209,206132,1,8,0:0:0:0:
217,175,206235,1,8,0:0:0:0:
217,175,206338,2,0,P|163:201|138:225,1,77.4999976158143,4|0,0:0|0:0,0:0:0:0:
62,152,206543,2,0,P|98:130|124:106,1,77.4999976158143,8|0,0:0|0:0,0:0:0:0:
251,44,206749,6,0,P|334:44|419:84,1,154.999995231629,2|8,0:0|0:0,0:0:0:0:
201,286,207160,2,0,P|118:286|33:246,1,154.999995231629,2|8,0:0|0:0,0:0:0:0:
248,351,207571,2,0,P|339:321|384:259,1,154.999995231629,2|8,0:0|0:0,0:0:0:0:
356,251,207879,1,0,0:0:0:0:
391,256,207982,2,0,P|423:228|469:206,1,77.4999976158143,2|0,0:0|0:0,0:0:0:0:
381,166,208187,2,0,P|399:139|414:96,1,77.4999976158143,8|8,0:0|0:0,0:0:0:0:
298,34,208393,2,0,P|300:84|305:143,1,77.4999976158143,2|2,0:0|0:0,0:0:0:0:
209,114,208598,2,0,P|216:177|214:221,1,77.4999976158143,8|8,0:0|0:0,0:0:0:0:
16,78,208804,102,0,P|75:85|126:176,1,154.999995231629,2|8,0:0|0:0,0:0:0:0:
126,159,209112,1,0,0:0:0:0:
126,159,209215,2,0,P|103:199|94:257,1,77.4999976158143,2|2,0:0|0:0,0:0:0:0:
162,327,209420,2,0,P|205:323|248:306,1,77.4999976158143,8|0,0:0|0:0,0:0:0:0:
331,121,209626,6,0,L|168:241,1,185.999988601685,4|8,0:0|0:0,0:0:0:0:
263,226,209934,1,8,0:0:0:0:
263,226,210037,2,0,L|336:305,1,92.9999943008425,10|10,0:0|0:0,0:0:0:0:
253,128,210242,2,0,L|186:53,1,92.9999943008425,4|8,0:2|0:0,0:0:0:0:
361,206,210448,5,4,0:2:0:0:
361,206,210756,5,4,0:2:0:0:
361,206,211064,69,4,0:2:0:0:
388,202,211167,1,0,0:0:0:0:
415,200,211269,2,0,P|431:283|379:353,1,154.999995231629,4|8,0:0|0:0,0:0:0:0:
317,327,211578,1,0,0:0:0:0:
317,327,211680,2,0,P|272:328|215:340,1,77.4999976158143,2|2,0:0|0:0,0:0:0:0:
164,307,211886,2,0,P|123:326|92:345,1,77.4999976158143,8|0,0:0|0:0,0:0:0:0:
12,290,212091,2,0,P|101:227|130:181,2,154.999995231629,2|8|2,0:0|0:0|0:0,0:0:0:0:
59,129,212708,5,8,0:0:0:0:
59,129,212811,1,0,0:0:0:0:
59,129,212913,2,0,P|110:103|140:98,1,77.4999976158143,2|0,0:0|0:0,0:0:0:0:
213,153,213119,2,0,P|212:198|199:248,1,77.4999976158143,8|0,0:0|0:0,0:0:0:0:
173,37,213324,2,0,L|270:47,1,77.4999976158143,2|2,0:0|0:0,0:0:0:0:
288,113,213530,2,0,L|386:117,1,77.4999976158143,8|0,0:0|0:0,0:0:0:0:
464,55,213735,102,0,P|427:216|426:232,1,154.999995231629,2|8,0:0|0:0,0:0:0:0:
386,276,214043,1,0,0:0:0:0:
386,276,214146,2,0,P|456:294|483:368,1,154.999995231629,2|8,0:0|0:0,0:0:0:0:
160,366,214557,6,0,B|161:274|206:306|202:181,1,154.999995231629,4|8,0:0|0:0,0:0:0:0:
261,147,214865,1,8,0:0:0:0:
261,147,214968,2,0,P|284:223|280:251,1,77.4999976158143,2|2,0:0|0:0,0:0:0:0:
307,363,215174,2,0,P|265:295|242:279,1,77.4999976158143,2|2,0:0|0:0,0:0:0:0:
81,230,215379,101,4,0:2:0:0:
83,206,215482,1,8,0:0:0:0:
86,182,215585,1,8,0:0:0:0:
89,159,215687,1,8,0:0:0:0:
93,136,215790,1,8,0:0:0:0:
96,113,215893,1,8,0:0:0:0:
100,90,215995,1,8,0:0:0:0:
111,69,216098,1,8,0:0:0:0:
111,69,216201,2,0,P|161:83|191:99,1,77.4999976158143,4|0,0:0|0:0,0:0:0:0:
212,169,216406,2,0,P|269:152|309:131,1,77.4999976158143,8|0,0:0|0:0,0:0:0:0:
326,76,216612,6,0,P|392:122|435:212,1,154.999995231629,2|8,0:0|0:0,0:0:0:0:
218,282,217023,2,0,P|289:242|380:247,1,154.999995231629,2|8,0:0|0:0,0:0:0:0:
435,267,217331,1,0,0:0:0:0:
443,279,217434,1,2,0:0:0:0:
450,293,217537,1,2,0:0:0:0:
453,308,217639,1,8,0:0:0:0:
454,324,217742,1,0,0:0:0:0:
453,339,217845,2,0,P|403:337|373:328,1,77.4999976158143,2|0,0:0|0:0,0:0:0:0:
299,343,218050,2,0,P|261:346|216:364,1,77.4999976158143,8|0,0:0|0:0,0:0:0:0:
107,380,218256,101,2,0:0:0:0:
79,365,218359,1,2,0:0:0:0:
68,335,218461,1,8,0:0:0:0:
75,304,218564,1,0,0:0:0:0:
99,285,218667,2,0,P|102:263|89:190,1,77.4999976158143,2|0,0:0|0:0,0:0:0:0:
34,162,218872,2,0,P|50:107|70:82,1,77.4999976158143,8|8,0:0|0:0,0:0:0:0:
136,46,219078,2,0,P|185:104|162:184,1,154.999995231629,2|8,0:0|0:0,0:0:0:0:
183,251,219386,1,8,0:0:0:0:
256,215,219489,6,0,L|361:231,1,77.4999976158143,4|0,0:0|0:0,0:0:0:0:
389,174,219694,2,0,L|477:185,1,77.4999976158143,8|8,0:0|0:0,0:0:0:0:
455,320,219900,2,0,L|273:295,1,154.999995231629,2|8,0:0|0:0,0:0:0:0:
238,349,220208,101,8,0:0:0:0:
238,349,220311,2,0,B|194:351|194:351|140:327,1,77.4999976158143,2|8,0:0|0:0,0:0:0:0:
59,352,220516,2,0,B|86:326|86:326|128:318,1,77.4999976158143,8|0,0:0|0:0,0:0:0:0:
158,224,220722,2,0,B|167:261|167:261|153:309,1,77.4999976158143,2|2,0:0|0:0,0:0:0:0:
63,254,220927,2,0,L|77:168,1,77.4999976158143,8|8,0:0|0:0,0:0:0:0:
150,136,221132,2,0,B|225:162|225:162|252:260,1,154.999995231629,4|8,0:0|0:0,0:0:0:0:
365,131,221543,2,0,B|290:105|290:105|263:7,1,154.999995231629,4|8,0:2|0:0,0:0:0:0:
167,52,221954,5,8,0:0:0:0:
203,81,222057,1,8,0:0:0:0:
234,110,222160,1,8,0:0:0:0:
268,144,222263,1,8,0:0:0:0:
302,176,222365,1,8,0:0:0:0:
332,210,222468,1,8,0:0:0:0:
332,210,222571,2,0,L|321:305,1,77.4999976158143,8|8,0:0|0:0,0:0:0:0:
449,113,222776,102,0,L|433:288,1,154.999995231629,4|8,0:0|0:0,0:0:0:0:
206,364,223187,2,0,L|222:262,1,77.4999976158143,2|2,0:0|0:0,0:0:0:0:
161,215,223393,2,0,L|90:255,1,77.4999976158143,8|0,0:0|0:0,0:0:0:0:
107,357,223598,2,0,P|21:307|20:210,1,154.999995231629,2|8,0:0|0:0,0:0:0:0:
43,98,224009,6,0,L|226:132,1,154.999995231629,2|8,0:0|0:0,0:0:0:0:
222,105,224317,1,8,0:0:0:0:
231,132,224420,2,0,L|321:152,1,77.4999976158143,4|0,0:0|0:0,0:0:0:0:
367,79,224626,2,0,L|384:165,1,77.4999976158143,8|8,0:0|0:0,0:0:0:0:
465,164,224831,2,0,L|424:251,1,77.4999976158143,2|2,0:0|0:0,0:0:0:0:
504,285,225037,2,0,L|429:327,1,77.4999976158143,8|8,0:0|0:0,0:0:0:0:
339,354,225242,101,10,0:0:0:0:
303,337,225345,1,0,0:0:0:0:
264,332,225448,1,10,0:0:0:0:
230,351,225550,1,0,0:0:0:0:
195,368,225653,1,10,0:0:0:0:
159,352,225756,1,0,0:0:0:0:
157,313,225859,1,10,0:0:0:0:
155,274,225961,1,10,0:0:0:0:
155,274,226064,2,0,P|132:242|91:215,1,77.4999976158143,4|0,0:0|0:0,0:0:0:0:
82,211,226269,2,0,L|176:202,1,77.4999976158143,8|8,0:0|0:0,0:0:0:0:
228,156,226475,5,2,0:0:0:0:
265,167,226578,1,8,0:0:0:0:
302,175,226680,1,8,0:0:0:0:
339,189,226783,1,0,0:0:0:0:
339,189,226886,2,0,P|337:248|341:291,1,77.4999976158143,4|0,0:0|0:0,0:0:0:0:
333,277,227091,2,0,L|421:269,1,77.4999976158143,8|8,0:0|0:0,0:0:0:0:
489,152,227297,101,2,0:0:0:0:
455,131,227400,1,8,0:0:0:0:
444,94,227502,1,8,0:0:0:0:
466,62,227605,1,0,0:0:0:0:
504,57,227708,1,4,0:0:0:0:
351,94,227913,5,8,0:0:0:0:
302,118,228016,1,8,0:0:0:0:
249,133,228119,1,8,0:0:0:0:
195,123,228222,1,8,0:0:0:0:
146,99,228324,1,8,0:0:0:0:
104,64,228427,1,10,0:0:0:0:
52,80,228530,1,6,0:0:0:0:
384,329,229352,21,2,0:0:0:0:
305,361,229763,5,2,0:0:0:0:
232,298,230174,101,2,0:0:0:0:
321,262,230585,5,2,0:0:0:0:
418,329,230995,69,2,0:0:0:0:
302,382,231406,101,2,0:0:0:0:
195,289,231817,5,2,0:0:0:0:
325,228,232228,101,4,0:2:0:0:
23,212,232639,5,8,0:0:0:0:
30,181,232742,1,8,0:0:0:0:
35,150,232845,1,8,0:0:0:0:
42,119,232948,1,8,0:0:0:0:
50,89,233050,1,8,0:0:0:0:
138,55,233256,101,8,0:0:0:0:
361,134,233461,6,2,B|352:10|352:10|260:86|260:86|137:55|137:55|181:167|181:167|114:271|114:271|235:266|235:266|315:361|315:361|346:243|346:243|461:197|461:197|360:133,1,1215.19997744995,4|4,0:0|0:0,0:0:0:0:
