osu file format v14

[General]
AudioFilename: audio.mp3
AudioLeadIn: 0
PreviewTime: 141932
Countdown: 0
SampleSet: Normal
StackLeniency: 0.7
Mode: 0
LetterboxInBreaks: 0
WidescreenStoryboard: 1

[Editor]
DistanceSpacing: 1
BeatDivisor: 4
GridSize: 4
TimelineZoom: 1.2

[Metadata]
Title:JoJo ~Sono Chi no Sadame~ Archetype MIX Ver.
TitleUnicode:ジョジョ~その血の運命~ Archetype MIX Ver.
Artist:TOMINAGA TOMMY HIROAKI
ArtistUnicode:富永TOMMY弘明
Creator:Delis
Version:Hard
Source:ジョジョの奇妙な冒険
Tags:JOJO'S BIZARRE ADVENTURE no kimyou na bouken part 1 phantom blood opening jonathan joestar dio brando mirash toybot
BeatmapID:1510448
BeatmapSetID:714329

[Difficulty]
HPDrainRate:5
CircleSize:4
OverallDifficulty:7
ApproachRate:8
SliderMultiplier:1.49999990463257
SliderTickRate:1

[Events]
//Background and Video events
0,0,"bg.jpg",0,0
//Break Periods
2,93113,98739
2,167086,172711
//Storyboard Layer 0 (Background)
//Storyboard Layer 1 (Fail)
//Storyboard Layer 2 (Pass)
//Storyboard Layer 3 (Foreground)
//Storyboard Sound Samples

[TimingPoints]
859,410.958904109589,4,2,1,5,1,0
1680,-100,4,2,1,10,0,0
2502,-100,4,2,1,15,0,0
3324,-100,4,2,1,20,0,0
4146,-100,4,2,1,25,0,0
4968,-100,4,2,1,30,0,0
5790,-100,4,1,1,50,0,0
12365,-133.333333333333,4,2,1,45,0,0
12674,-133.333333333333,4,2,1,5,0,0
12879,-133.333333333333,4,2,1,45,0,0
13495,-133.333333333333,4,2,1,5,0,0
13701,-133.333333333333,4,2,1,45,0,0
14317,-133.333333333333,4,2,1,5,0,0
14523,-133.333333333333,4,2,1,45,0,0
15242,-100,4,2,1,45,0,0
15653,-100,4,1,1,50,0,0
59215,-80,4,1,1,50,0,0
60858,-100,4,1,1,50,0,0
63016,-100,4,1,1,45,0,0
64043,-100,4,1,1,50,0,0
66612,-80,4,1,1,55,0,0
68256,-80,4,1,2,60,0,1
85516,-100,4,1,1,60,0,0
90550,-100,4,1,1,5,0,0
92502,-100,4,1,1,50,0,0
114283,-100,4,1,1,60,0,0
114420,-100,4,1,1,5,0,0
114557,-100,4,1,1,60,0,0
114694,-100,4,1,1,5,0,0
114831,-100,4,1,1,60,0,0
114968,-100,4,1,1,5,0,0
115105,-100,4,1,1,60,0,0
115242,-100,4,1,1,5,0,0
115379,-100,4,1,1,60,0,0
115516,-100,4,1,1,5,0,0
115653,-100,4,1,1,60,0,0
115859,-100,4,1,1,5,0,0
115927,-100,4,1,1,50,0,0
132365,-80,4,1,1,50,0,0
134831,-100,4,1,1,50,0,0
136989,-100,4,1,1,45,0,0
137605,-100,4,1,1,50,0,0
140379,-100,4,1,1,55,0,0
140585,-80,4,1,1,55,0,0
142228,-80,4,1,2,60,0,1
159489,-100,4,1,1,60,0,0
159591,-100,4,1,1,5,0,0
160311,-100,4,1,1,60,0,0
164420,-100,4,1,1,50,0,0
164523,-100,4,1,1,5,0,0
166372,-100,4,1,1,50,0,0
183324,-100,4,1,1,55,0,0
189386,-100,4,1,1,50,0,0
189591,-100,4,1,1,45,0,0
189900,-100,4,1,1,55,0,0
194831,-80,4,1,2,60,0,1
210448,-80,4,1,1,70,0,0
211269,-80,4,1,2,70,0,1
225242,-80,4,1,1,70,0,1
226064,-80,4,1,2,70,0,1
228530,-100,4,1,2,70,0,0
228632,-100,4,1,2,5,0,0
229352,-100,4,1,2,60,0,0
233564,-100,4,1,2,5,0,0
239215,-100,4,1,2,60,0,0

[Colours]
Combo1 : 179,164,62
Combo2 : 221,96,13
Combo3 : 55,74,125
Combo4 : 81,60,123
Combo5 : 141,56,82
Combo6 : 255,6,6
Combo7 : 227,222,9
Combo8 : 147,147,149

[HitObjects]
256,192,859,12,4,5790,0:0:0:0:
190,264,6612,102,0,L|348:241,1,149.999990463257,8|0,0:0|0:0,0:0:0:0:
418,225,7228,1,0,0:0:0:0:
418,225,7434,2,0,P|442:151|419:81,1,149.999990463257,2|0,0:0|0:0,0:0:0:0:
232,34,8256,2,0,P|208:108|231:178,1,149.999990463257,8|0,0:0|0:0,0:0:0:0:
329,319,9078,5,0,0:0:0:0:
329,319,9283,2,0,L|160:290,1,149.999990463257,0|2,0:0|2:0,0:0:0:0:
119,344,9900,2,0,P|131:264|66:200,1,149.999990463257,8|0,0:0|0:0,0:0:0:0:
30,160,10516,1,0,0:0:0:0:
30,160,10722,2,0,L|16:60,1,74.9999952316285,2|2,0:0|0:0,0:0:0:0:
103,107,11132,2,0,L|255:76,1,149.999990463257,0|8,0:0|0:0,0:0:0:0:
317,122,11749,1,0,0:0:0:0:
276,189,11954,2,0,P|224:191|179:176,1,74.9999952316285,4|0,0:2|2:0,0:0:0:0:
127,227,12365,102,0,P|165:276|44:323,3,224.999994277954,2|0|0|2,0:1|0:1|0:1|0:0,0:0:0:0:
253,292,15242,1,4,3:0:0:0:
213,105,15653,22,0,L|197:19,2,74.9999952316285,4|0|0,0:0|0:0|0:0,0:0:0:0:
213,105,16475,2,0,P|265:117|301:125,1,74.9999952316285,8|0,0:0|0:0,0:0:0:0:
360,96,16886,1,0,0:0:0:0:
344,176,17091,1,0,0:0:0:0:
420,152,17297,2,0,P|436:240|412:304,1,149.999990463257,8|0,3:0|0:0,0:0:0:0:
344,328,17913,1,0,0:0:0:0:
344,328,18119,2,0,L|152:340,1,149.999990463257,8|4,0:0|0:2,0:0:0:0:
12,192,18941,5,0,0:0:0:0:
12,192,19146,2,0,B|136:148|112:244|240:192,1,224.999985694886,0|8,0:0|0:0,0:0:0:0:
380,60,20174,2,0,L|432:132,1,74.9999952316285,0|2,0:0|0:3,0:0:0:0:
480,180,20585,1,2,0:0:0:0:
404,204,20790,2,0,P|360:272|380:340,1,149.999990463257,2|0,0:0|0:0,0:0:0:0:
304,364,21406,1,8,0:0:0:0:
304,364,21612,1,8,0:3:0:0:
256,304,21817,2,0,P|208:336|168:340,1,74.9999952316285,4|2,0:2|3:0,0:0:0:0:
108,312,22228,5,4,0:0:0:0:
108,312,22434,2,0,L|56:88,1,224.999985694886,0|10,0:0|0:0,0:0:0:0:
124,44,23256,1,2,0:0:0:0:
124,44,23461,2,0,L|144:128,1,74.9999952316285,0|0,0:0|0:0,0:0:0:0:
212,164,23872,1,0,0:0:0:0:
212,164,24078,2,0,P|272:120|212:20,1,149.999990463257,0|0,0:0|0:0,0:0:0:0:
188,28,24694,1,8,0:0:0:0:
116,68,24900,1,4,0:3:0:0:
132,148,25105,1,8,0:3:0:0:
336,112,25516,6,0,L|348:200,1,74.9999952316285,6|2,0:0|0:0,0:0:0:0:
346,186,26132,1,0,0:0:0:0:
288,248,26338,2,0,P|272:216|268:164,2,74.9999952316285,10|2|2,0:0|0:0|0:3,0:0:0:0:
352,288,26954,2,0,P|320:320|264:336,1,74.9999952316285,2|2,2:0|0:0,0:0:0:0:
84,280,27571,1,4,0:2:0:0:
148,324,27776,1,0,0:0:0:0:
208,272,27982,2,0,L|196:176,1,74.9999952316285,8|0,0:0|0:0,0:0:0:0:
176,48,28393,2,0,L|188:144,1,74.9999952316285,2|2,3:0|3:0,0:0:0:0:
268,140,28804,70,0,P|336:92|404:104,1,149.999990463257,2|0,0:0|0:0,0:0:0:0:
464,144,29420,1,0,0:0:0:0:
440,220,29626,2,0,P|372:268|304:256,1,149.999990463257,10|4,0:0|1:2,0:0:0:0:
88,212,30448,2,0,L|188:236,1,74.9999952316285,2|2,0:0|0:0,0:0:0:0:
160,116,30859,2,0,L|60:140,1,74.9999952316285,2|0,3:3|0:0,0:0:0:0:
232,176,31269,2,0,P|296:128|312:80,1,74.9999952316285,10|2,0:0|0:0,0:0:0:0:
308,60,31680,1,2,0:2:0:0:
376,116,31886,1,8,0:3:0:0:
344,196,32091,6,0,L|368:276,1,74.9999952316285,6|2,0:0|0:0,0:0:0:0:
365,267,32708,1,0,0:0:0:0:
384,344,32913,2,0,P|344:360|304:360,1,74.9999952316285,10|2,0:0|0:0,0:0:0:0:
216,300,33324,2,0,P|256:284|296:284,1,74.9999952316285,2|0,3:0|0:0,0:0:0:0:
192,376,33735,2,0,P|128:324|144:240,1,149.999990463257,2|2,0:0|3:0,0:0:0:0:
129,261,34352,1,0,0:0:0:0:
48,308,34557,2,0,L|32:212,1,74.9999952316285,10|2,0:0|0:0,0:0:0:0:
112,108,34968,2,0,L|96:196,1,74.9999952316285,4|0,0:2|0:0,0:0:0:0:
184,164,35379,6,0,P|252:96|368:112,1,149.999990463257,2|0,0:0|0:0,0:0:0:0:
360,140,35995,1,0,0:0:0:0:
436,112,36201,2,0,P|448:72|436:16,2,74.9999952316285,10|2|0,0:0|0:0|0:0,0:0:0:0:
464,188,36817,1,0,0:0:0:0:
396,232,37023,2,0,P|396:312|444:384,2,149.999990463257,2|0|10,0:0|0:0|0:0,0:0:0:0:
396,232,38050,1,2,0:0:0:0:
316,248,38256,2,0,L|224:264,1,74.9999952316285,8|8,0:0|0:0,0:0:0:0:
242,260,38667,6,0,P|272:188|252:112,2,149.999990463257,4|2|10,0:0|0:0|0:0,0:0:0:0:
168,232,39694,1,0,0:0:0:0:
176,312,39900,1,2,3:0:0:0:
100,284,40105,1,0,0:0:0:0:
242,260,40311,70,0,P|326:248|360:244,2,99.9999936421713,4|4|4,0:2|0:2|0:2,0:0:0:0:
270,124,41132,2,0,P|186:136|152:140,2,99.9999936421713,4|4|4,0:2|0:2|0:2,0:0:0:0:
408,160,41954,6,0,P|368:164|320:176,1,74.9999952316285,4|2,0:0|0:2,0:0:0:0:
276,232,42365,2,0,P|280:272|292:320,1,74.9999952316285,4|2,0:3|0:2,0:0:0:0:
200,288,42776,2,0,P|112:312|40:312,1,149.999990463257,8|4,0:0|0:3,0:0:0:0:
80,236,43393,1,2,0:2:0:0:
80,236,43495,1,2,0:2:0:0:
80,236,43598,2,0,L|52:64,1,149.999990463257,2|2,0:2|0:2,0:0:0:0:
124,48,44215,1,2,0:2:0:0:
192,96,44420,2,0,P|260:92|288:76,1,74.9999952316285,8|0,0:0|0:0,0:0:0:0:
352,72,44831,2,0,P|336:104|328:160,1,74.9999952316285,8|8,0:0|0:0,0:0:0:0:
336,224,45242,5,4,0:2:0:0:
336,224,45448,1,4,0:2:0:0:
336,224,45653,2,0,P|232:248|176:228,1,149.999990463257,4|8,0:3|0:0,0:0:0:0:
120,200,46269,1,2,0:2:0:0:
104,280,46475,2,0,L|184:320,1,74.9999952316285,2|2,3:0|0:2,0:0:0:0:
252,348,46886,2,0,P|156:352|88:376,1,149.999990463257,2|0,0:2|0:0,0:0:0:0:
36,328,47502,1,2,0:0:0:0:
32,248,47708,2,0,L|52:152,1,74.9999952316285,8|0,0:0|0:0,0:0:0:0:
40,96,48119,1,8,0:0:0:0:
116,132,48324,5,0,0:0:0:0:
116,132,48530,2,0,P|200:124|264:68,1,149.999990463257,4|2,0:0|3:0,0:0:0:0:
460,184,49352,2,0,P|380:192|316:144,1,149.999990463257,8|2,0:0|3:0,0:0:0:0:
200,336,50174,2,0,P|252:280|248:200,1,149.999990463257,4|2,0:2|3:3,0:0:0:0:
172,224,50790,1,2,0:0:0:0:
92,248,50995,2,0,L|108:336,1,74.9999952316285,10|2,0:0|0:0,0:0:0:0:
16,304,51406,2,0,L|0:216,1,74.9999952316285,2|2,3:0|0:0,0:0:0:0:
52,164,51817,69,4,0:2:0:0:
52,164,52023,1,0,0:0:0:0:
136,184,52228,1,2,3:0:0:0:
136,184,52434,1,2,3:0:0:0:
220,204,52639,2,0,P|260:140|236:72,1,149.999990463257,8|2,0:0|3:0,0:0:0:0:
156,48,53256,2,0,L|104:20,2,37.4999976158143,0|0|4,0:0|0:0|0:2,0:0:0:0:
176,128,53667,1,0,0:0:0:0:
124,192,53872,2,0,P|40:176|8:120,2,149.999990463257,2|8|2,3:3|0:0|3:3,0:0:0:0:
204,224,54900,1,8,0:3:0:0:
288,204,55105,6,0,L|444:216,1,149.999990463257,4|0,0:0|0:0,0:0:0:0:
288,76,55927,2,0,L|132:64,1,149.999990463257,8|2,0:0|3:0,0:0:0:0:
56,72,56543,1,0,0:0:0:0:
104,140,56749,2,0,P|104:188|96:228,1,74.9999952316285,4|0,0:2|0:0,0:0:0:0:
48,280,57160,1,2,3:0:0:0:
128,312,57365,1,0,0:0:0:0:
180,244,57571,2,0,L|260:228,1,74.9999952316285,10|10,0:0|0:0,0:0:0:0:
336,208,57982,2,0,L|320:288,1,74.9999952316285,8|4,0:3|0:3,0:0:0:0:
308,360,58393,5,4,0:0:0:0:
436,300,58598,1,0,0:0:0:0:
384,360,58804,5,8,0:0:0:0:
416,228,59009,1,0,0:0:0:0:
416,228,59112,1,0,0:0:0:0:
416,228,59215,2,0,L|400:116,1,93.7499940395356,8|8,0:0|0:0,0:0:0:0:
384,60,59626,2,0,P|352:76|328:80,4,46.8749970197678,0|0|0|0|4,0:0|0:0|0:0|0:0|0:2,0:0:0:0:
216,232,60858,70,0,P|212:184|220:148,1,74.9999952316285
296,152,61269,2,0,P|300:200|292:236,1,74.9999952316285,0|0,0:0|0:0,0:0:0:0:
260,300,61680,5,4,0:0:0:0:
260,300,61886,1,0,0:0:0:0:
260,300,62091,2,0,B|340:308|340:308|359:275|400:264,2,149.999990463257,0|10|2,0:0|0:0|0:0,0:0:0:0:
188,340,63119,1,2,0:2:0:0:
188,340,63222,1,2,0:2:0:0:
188,340,63324,2,0,L|92:328,1,74.9999952316285,2|2,0:2|0:2,0:0:0:0:
32,344,63735,2,0,P|44:268|16:200,1,149.999990463257,2|8,0:2|0:0,0:0:0:0:
84,152,64352,1,4,0:2:0:0:
84,152,64763,1,8,0:3:0:0:
164,184,64968,6,0,L|256:192,1,74.9999952316285,4|0,0:0|0:0,0:0:0:0:
316,164,65379,1,4,0:3:0:0:
316,164,65790,2,0,P|404:184|472:160,1,149.999990463257,10|2,0:0|0:0,0:0:0:0:
492,88,66406,1,0,0:0:0:0:
404,96,66612,85,8,0:0:0:0:
404,96,66715,1,8,0:0:0:0:
404,96,66817,1,2,0:0:0:0:
324,56,67023,1,8,0:0:0:0:
324,56,67126,1,8,0:0:0:0:
324,56,67228,1,2,0:0:0:0:
248,100,67434,2,0,L|192:84,3,46.8749970197678,8|8|8|8,0:0|0:0|0:0|0:0,0:0:0:0:
168,104,67845,2,0,L|112:88,3,46.8749970197678,8|8|8|8,0:0|0:0|0:0|0:0,0:0:0:0:
88,100,68256,54,0,P|80:148|96:204,1,93.7499940395356,4|8,0:0|0:0,0:0:0:0:
136,264,68667,1,2,0:0:0:0:
216,228,68872,1,8,0:0:0:0:
216,228,68975,1,0,0:0:0:0:
216,228,69078,2,0,L|328:248,2,93.7499940395356,2|8|2,0:0|0:0|0:0,0:0:0:0:
184,148,69694,6,0,L|232:124,1,46.8749970197678,8|0,0:0|0:0,0:0:0:0:
264,140,69900,2,0,P|312:144|360:112,1,93.7499940395356,2|8,0:0|0:0,0:0:0:0:
432,204,70311,2,0,P|384:200|336:232,1,93.7499940395356,2|8,0:0|0:0,0:0:0:0:
260,216,70722,1,2,0:0:0:0:
208,284,70927,2,0,P|152:232|184:116,1,187.499988079071,8|8,0:0|0:0,0:0:0:0:
64,168,71543,102,0,L|24:72,2,93.7499940395356,2|8|2,0:0|0:0|0:0,0:0:0:0:
52,188,72057,1,2,0:0:0:0:
40,208,72160,1,8,0:0:0:0:
96,272,72365,1,4,0:2:0:0:
52,348,72571,1,8,0:0:0:0:
52,348,72674,1,8,0:0:0:0:
52,348,72776,2,0,L|136:368,1,46.8749970197678,8|8,0:0|0:0,0:0:0:0:
168,340,72982,2,0,L|252:360,1,46.8749970197678,8|8,0:0|0:0,0:0:0:0:
292,336,73187,6,0,P|336:340|384:324,1,93.7499940395356,4|8,0:0|0:0,0:0:0:0:
440,264,73598,1,2,0:0:0:0:
368,216,73804,1,8,0:0:0:0:
448,160,74009,2,0,P|440:76|448:40,1,93.7499940395356,2|8,0:0|0:0,0:0:0:0:
312,32,74420,1,2,0:0:0:0:
312,32,74523,1,2,0:0:0:0:
312,32,74626,2,0,P|320:116|312:152,1,93.7499940395356,8|2,0:0|0:0,0:0:0:0:
256,184,75037,101,8,0:0:0:0:
172,168,75242,2,0,L|108:152,2,46.8749970197678,2|2|8,0:0|0:0|0:0,0:0:0:0:
256,268,75653,2,0,P|216:292|156:288,1,93.7499940395356,2|8,0:0|0:0,0:0:0:0:
108,236,76064,1,2,0:0:0:0:
44,304,76269,5,8,0:0:0:0:
44,304,76372,1,0,0:0:0:0:
44,304,76475,2,0,L|4:192,1,93.7499940395356,4|8,0:2|0:0,0:0:0:0:
44,140,76886,1,2,0:0:0:0:
132,128,77091,1,8,0:0:0:0:
192,192,77297,2,0,P|248:192|296:168,1,93.7499940395356,2|8,0:0|0:0,0:0:0:0:
344,116,77708,2,0,L|312:24,1,93.7499940395356,2|8,0:0|0:0,0:0:0:0:
448,56,78119,102,0,L|416:248,1,187.499988079071,2|2,0:0|0:0,0:0:0:0:
480,296,78735,1,8,0:0:0:0:
360,336,78941,2,0,P|344:280|344:224,1,93.7499940395356,2|8,0:0|0:0,0:0:0:0:
348,208,79249,1,8,0:0:0:0:
348,208,79352,2,0,L|332:144,2,46.8749970197678,8|8|8,0:0|0:0|0:0,0:0:0:0:
244,296,79763,6,0,L|136:280,1,93.7499940395356,4|8,0:0|0:0,0:0:0:0:
68,248,80174,1,0,0:0:0:0:
80,332,80379,1,8,0:0:0:0:
140,200,80585,2,0,P|148:152|124:96,1,93.7499940395356,2|8,0:0|0:0,0:0:0:0:
84,40,80995,1,2,0:0:0:0:
200,56,81201,101,8,0:0:0:0:
200,56,81304,1,0,0:0:0:0:
200,56,81406,2,0,L|300:72,1,93.7499940395356,2|8,0:0|0:0,0:0:0:0:
364,144,81817,2,0,L|264:160,1,93.7499940395356,2|8,0:0|0:0,0:0:0:0:
192,136,82228,2,0,L|176:236,1,93.7499940395356,2|8,0:0|0:0,0:0:0:0:
364,144,82639,2,0,L|380:44,1,93.7499940395356,2|8,0:0|0:0,0:0:0:0:
460,112,83050,6,0,L|444:232,1,93.7499940395356,2|4,0:0|0:2,0:0:0:0:
436,288,83461,1,10,0:0:0:0:
436,288,83564,1,10,0:0:0:0:
436,288,83667,1,4,0:2:0:0:
356,228,83872,2,0,L|340:348,1,93.7499940395356,10|4,0:0|0:2,0:0:0:0:
264,264,84283,1,2,0:0:0:0:
264,264,84386,1,2,0:0:0:0:
264,264,84489,1,4,0:2:0:0:
280,168,84694,101,2,0:0:0:0:
280,168,84900,2,0,L|220:184,1,46.8749970197678,8|8,0:0|0:0,0:0:0:0:
204,200,85105,2,0,L|144:172,4,46.8749970197678,8|8|8|8|4,0:0|0:0|0:0|0:0|0:0,0:0:0:0:
448,312,86338,21,2,0:0:0:0:
304,336,86749,1,2,0:0:0:0:
372,252,87160,5,2,0:0:0:0:
228,228,87571,1,2,0:0:0:0:
296,152,87982,5,2,0:0:0:0:
152,176,88393,1,2,0:0:0:0:
112,344,88804,5,2,0:0:0:0:
268,280,89215,1,4,0:2:0:0:
252,120,89626,6,0,L|224:24,1,74.9999952316285,8|0,0:0|0:0,0:0:0:0:
200,40,89934,1,8,0:0:0:0:
200,40,90037,2,0,P|160:52|112:52,1,74.9999952316285,8|0,0:0|0:0,0:0:0:0:
40,32,90448,1,4,0:0:0:0:
256,192,90653,12,4,92913,0:0:0:0:
232,312,99489,86,0,L|228:212,1,74.9999952316285,6|2,0:0|0:0,0:0:0:0:
229,237,100105,1,0,0:0:0:0:
152,192,100311,2,0,P|140:240|152:280,1,74.9999952316285,10|2,0:0|0:0,0:0:0:0:
76,308,100722,2,0,P|52:232|84:148,1,149.999990463257,2|2,3:0|0:0,0:0:0:0:
128,112,101338,1,2,0:0:0:0:
96,40,101543,2,0,L|28:80,1,74.9999952316285,0|0,0:0|0:0,0:0:0:0:
128,112,101954,2,0,L|256:32,1,149.999990463257,10|2,0:0|3:0,0:0:0:0:
252,120,102571,1,4,0:3:0:0:
316,176,102776,6,0,P|276:200|228:204,2,74.9999952316285,2|2|2,0:0|0:0|0:3,0:0:0:0:
336,96,103393,1,0,0:0:0:0:
396,152,103598,2,0,L|360:304,1,149.999990463257,10|4,0:0|0:2,0:0:0:0:
288,332,104215,1,0,0:0:0:0:
216,292,104420,1,2,0:0:0:0:
416,224,104831,1,2,3:0:0:0:
220,108,105242,2,0,P|228:148|232:196,1,74.9999952316285,2|2,0:0|0:0,0:0:0:0:
164,228,105653,1,2,0:2:0:0:
80,204,105858,5,8,0:3:0:0:
80,204,105961,1,8,0:3:0:0:
80,204,106064,2,0,P|72:248|76:284,1,74.9999952316285,6|2,0:0|0:0,0:0:0:0:
74,277,106680,1,0,0:0:0:0:
144,328,106886,2,0,P|180:324|224:320,1,74.9999952316285,10|2,0:0|0:0,0:0:0:0:
284,272,107297,2,0,L|452:292,1,149.999990463257,2|2,3:0|0:0,0:0:0:0:
304,84,108119,2,0,P|248:84|212:100,1,74.9999952316285,2|0,3:0|0:0,0:0:0:0:
168,140,108530,2,0,P|80:132|44:68,2,149.999990463257,10|8|2,0:0|3:0|0:0,0:0:0:0:
244,168,109557,5,2,0:0:0:0:
184,228,109763,2,0,L|208:312,1,74.9999952316285,2|2,3:0|3:0,0:0:0:0:
272,344,110174,1,10,0:0:0:0:
340,300,110379,1,2,0:0:0:0:
324,220,110585,2,0,P|352:168|448:160,1,149.999990463257,2|2,0:2|0:0,0:0:0:0:
444,72,111201,1,2,0:0:0:0:
360,80,111406,2,0,P|312:80|260:76,1,74.9999952316285,2|0,3:0|0:0,0:0:0:0:
208,56,111817,2,0,P|132:60|108:60,1,74.9999952316285,10|2,0:0|0:0,0:0:0:0:
56,36,112228,69,8,0:0:0:0:
80,112,112434,1,0,0:0:0:0:
24,172,112639,2,0,L|40:248,1,74.9999952316285,4|0,0:0|0:0,0:0:0:0:
120,300,113050,2,0,P|176:284|256:276,1,112.499992847443,2|0,0:0|2:0,0:0:0:0:
264,284,113461,1,10,0:0:0:0:
348,308,113667,2,0,L|324:156,1,149.999990463257,0|2,0:0|0:0,0:0:0:0:
360,80,114283,6,0,P|408:104|456:96,2,99.9999936421713,2|2|2,0:0|0:0|0:0,0:0:0:0:
272,96,115105,2,0,P|224:72|176:80,2,99.9999936421713,4|4|4,0:2|0:2|0:2,0:0:0:0:
220,228,115927,6,0,P|208:184|220:132,1,74.9999952316285,4|4,0:0|3:0,0:0:0:0:
292,180,116338,2,0,P|304:224|292:276,1,74.9999952316285,8|0,3:0|0:0,0:0:0:0:
236,308,116749,2,0,P|160:296|128:224,1,149.999990463257,10|0,0:0|0:0,0:0:0:0:
152,156,117365,1,2,0:2:0:0:
152,156,117468,1,2,0:2:0:0:
152,156,117571,2,0,L|136:116,2,37.4999976158143,2|2|2,0:2|0:2|0:2,0:0:0:0:
232,192,117982,2,0,B|268:180|324:192,1,74.9999952316285,2|2,0:2|0:2,0:0:0:0:
388,204,118393,2,0,P|416:144|372:72,1,149.999990463257,8|8,0:0|0:0,0:0:0:0:
296,52,119009,1,0,0:0:0:0:
232,108,119215,6,0,L|208:12,1,74.9999952316285,4|4,0:2|0:2,0:0:0:0:
148,100,119626,2,0,L|124:196,1,74.9999952316285,4|0,3:3|0:0,0:0:0:0:
44,168,120037,2,0,L|96:328,1,149.999990463257,10|0,0:0|0:0,0:0:0:0:
168,348,120653,1,0,0:0:0:0:
160,268,120858,2,0,P|164:224|156:176,1,74.9999952316285,8|4,0:3|0:2,0:0:0:0:
256,168,121269,2,0,P|240:240|268:332,1,149.999990463257,0|8,0:0|0:0,0:0:0:0:
340,332,121886,1,2,0:0:0:0:
396,232,122091,2,0,L|316:264,1,74.9999952316285,4|8,0:2|0:0,0:0:0:0:
352,160,122502,70,0,L|184:224,2,149.999990463257,4|2|8,0:0|3:0|0:0,0:0:0:0:
424,128,123530,1,0,0:0:0:0:
496,160,123735,1,2,3:0:0:0:
488,236,123941,1,0,0:0:0:0:
416,204,124146,2,0,P|408:252|488:324,1,149.999990463257,4|2,0:2|3:0,0:0:0:0:
471,321,124968,2,0,P|423:333|383:345,1,74.9999952316285,10|2,0:0|0:0,0:0:0:0:
320,364,125379,2,0,P|312:320|316:276,1,74.9999952316285,2|4,3:0|0:3,0:0:0:0:
328,212,125790,5,4,0:2:0:0:
404,252,125995,1,0,0:0:0:0:
328,212,126201,2,0,B|264:224|264:224|248:236|248:236|176:248,1,149.999990463257,2|8,0:3|0:0,0:0:0:0:
104,260,126817,1,0,0:0:0:0:
24,240,127023,2,0,P|24:288|40:320,1,74.9999952316285,2|0,3:0|0:0,0:0:0:0:
104,260,127434,2,0,P|116:188|72:120,1,149.999990463257,4|2,0:2|3:3,0:0:0:0:
78,124,128256,1,8,0:0:0:0:
172,124,128461,1,8,0:0:0:0:
244,68,128667,2,0,P|300:56|336:56,1,74.9999952316285,8|8,0:3|0:3,0:0:0:0:
392,88,129078,6,0,P|392:152|320:212,1,149.999990463257,4|2,0:0|3:0,0:0:0:0:
252,224,129694,1,0,0:0:0:0:
172,208,129900,2,0,P|172:272|244:332,1,149.999990463257,8|2,0:0|3:0,0:0:0:0:
104,316,130516,1,2,0:0:0:0:
104,316,130722,2,0,P|92:252|96:216,1,74.9999952316285,4|0,0:2|0:0,0:0:0:0:
104,164,131132,1,0,0:0:0:0:
80,88,131338,1,0,0:0:0:0:
80,88,131441,1,8,0:0:0:0:
80,88,131543,2,0,L|4:56,2,74.9999952316285,2|8|4,0:0|0:3|0:3,0:0:0:0:
312,160,132365,5,4,0:0:0:0:
312,160,132571,1,0,0:0:0:0:
368,224,132776,2,0,B|412:192|392:120,1,93.7499940395356,8|0,0:0|0:0,0:0:0:0:
280,72,133187,1,8,0:0:0:0:
280,72,133393,1,8,0:0:0:0:
280,72,133598,2,0,L|248:264,1,187.499988079071,8|4,0:0|0:2,0:0:0:0:
180,304,134831,70,0,L|172:204,1,74.9999952316285
96,232,135242,2,0,L|104:332,1,74.9999952316285,0|0,0:0|0:0,0:0:0:0:
228,368,135653,5,4,0:0:0:0:
228,368,135859,1,0,0:0:0:0:
228,368,136064,2,0,B|272:324|260:256|260:256|292:292,2,149.999990463257,0|10|2,0:0|0:0|0:0,0:0:0:0:
328,360,137091,1,2,0:2:0:0:
328,360,137194,1,2,0:2:0:0:
328,360,137297,2,0,L|420:344,1,74.9999952316285,2|2,0:2|0:2,0:0:0:0:
488,300,137708,2,0,P|416:272|340:284,1,149.999990463257,2|8,0:2|0:0,0:0:0:0:
292,164,138324,2,0,P|360:196|440:168,1,149.999990463257,6|4,0:0|0:3,0:0:0:0:
480,112,138941,6,0,L|472:36,1,74.9999952316285,4|0,0:0|0:0,0:0:0:0:
400,80,139352,2,0,P|344:88|308:88,1,74.9999952316285,4|0,0:3|0:0,0:0:0:0:
248,40,139763,2,0,L|92:68,1,149.999990463257,10|2,0:0|0:0,0:0:0:0:
48,136,140379,1,0,0:0:0:0:
128,168,140585,86,0,L|192:176,2,46.8749970197678,8|8|2,0:0|0:0|0:0,0:0:0:0:
56,216,140995,2,0,L|-4:232,2,46.8749970197678,8|8|2,0:0|0:0|0:0,0:0:0:0:
136,260,141406,1,8,0:0:0:0:
164,256,141509,1,8,0:0:0:0:
192,252,141612,1,8,0:0:0:0:
220,248,141715,1,8,0:0:0:0:
248,244,141817,2,0,L|260:184,3,46.8749970197678,8|8|8|8,0:0|0:0|0:0|0:0,0:0:0:0:
248,164,142228,54,0,L|364:180,1,93.7499940395356,4|8,0:0|0:0,0:0:0:0:
428,188,142639,2,0,L|448:252,2,46.8749970197678,2|2|8,0:0|0:0|0:0,0:0:0:0:
476,108,143050,1,2,0:0:0:0:
384,96,143256,1,8,0:0:0:0:
384,96,143359,1,0,0:0:0:0:
384,96,143461,2,0,P|336:96|284:92,1,93.7499940395356,2|8,0:0|0:0,0:0:0:0:
224,44,143872,5,2,0:0:0:0:
152,92,144078,1,8,0:0:0:0:
224,136,144283,1,2,0:0:0:0:
148,176,144489,1,8,0:0:0:0:
224,224,144694,1,2,0:0:0:0:
140,260,144900,2,0,P|68:216|80:120,1,187.499988079071,8|8,0:0|0:0,0:0:0:0:
104,36,145516,102,0,P|48:52|-4:60,1,93.7499940395356,2|8,0:0|0:0,0:0:0:0:
160,112,145927,2,0,P|216:96|268:88,1,93.7499940395356,2|8,0:0|0:0,0:0:0:0:
320,32,146338,1,4,0:2:0:0:
388,88,146543,2,0,L|444:76,1,46.8749970197678,8|8,0:0|0:0,0:0:0:0:
500,128,146749,2,0,L|516:56,3,46.8749970197678,8|8|8|8,0:0|0:0|0:0|0:0,0:0:0:0:
476,156,147160,6,0,P|480:212|480:260,1,93.7499940395356,4|8,0:0|0:0,0:0:0:0:
424,320,147571,1,2,0:0:0:0:
424,320,147776,1,8,0:0:0:0:
332,288,147982,2,0,P|280:292|224:308,1,93.7499940395356,2|8,0:0|0:0,0:0:0:0:
180,220,148393,2,0,P|232:216|288:200,1,93.7499940395356,2|8,0:0|0:0,0:0:0:0:
352,132,148804,102,0,P|252:112|208:40,1,187.499988079071,2|2,0:0|0:0,0:0:0:0:
112,32,149420,2,0,P|116:84|128:136,1,93.7499940395356,8|2,0:0|0:0,0:0:0:0:
176,192,149831,1,8,0:0:0:0:
108,256,150037,1,2,0:0:0:0:
192,300,150242,5,8,0:0:0:0:
192,300,150345,1,0,0:0:0:0:
192,300,150448,2,0,P|248:284|320:280,2,93.7499940395356,4|8|2,0:2|0:0|0:0,0:0:0:0:
112,348,151064,1,8,0:0:0:0:
32,296,151269,2,0,P|20:240|16:176,1,93.7499940395356,2|8,0:0|0:0,0:0:0:0:
164,128,151680,2,0,P|176:184|180:248,1,93.7499940395356,2|8,0:0|0:0,0:0:0:0:
116,280,152091,101,2,0:0:0:0:
116,280,152297,1,8,0:0:0:0:
212,308,152502,2,0,P|268:296|296:264,1,93.7499940395356,2|8,0:0|0:0,0:0:0:0:
332,192,152913,2,0,L|356:132,1,46.8749970197678,2|0,0:0|0:0,0:0:0:0:
436,164,153119,2,0,L|428:84,1,46.8749970197678,8|8,0:0|0:0,0:0:0:0:
424,44,153324,1,8,0:0:0:0:
424,44,153427,1,8,0:0:0:0:
424,44,153530,1,8,0:0:0:0:
316,68,153735,6,0,P|276:88|220:88,1,93.7499940395356,4|8,0:0|0:0,0:0:0:0:
139,111,154146,2,0,P|179:91|235:91,1,93.7499940395356,2|8,0:0|0:0,0:0:0:0:
304,160,154557,2,0,B|248:184|200:168|200:168|224:264,1,187.499988079071,2|2,0:0|0:0,0:0:0:0:
128,232,155174,101,8,0:0:0:0:
128,232,155276,1,0,0:0:0:0:
128,232,155379,2,0,P|80:220|12:216,1,93.7499940395356,2|8,0:0|0:0,0:0:0:0:
72,312,155790,2,0,P|168:336|264:324,1,187.499988079071,2|2,0:0|0:0,0:0:0:0:
344,296,156406,1,8,0:0:0:0:
344,296,156612,2,0,P|340:239|340:184,1,93.7499940395356,2|8,0:0|0:0,0:0:0:0:
368,112,157023,6,0,L|256:132,1,93.7499940395356,2|4,0:0|0:2,0:0:0:0:
204,80,157434,1,10,0:0:0:0:
204,80,157537,1,10,0:0:0:0:
204,80,157639,1,4,0:2:0:0:
144,144,157845,2,0,L|32:124,1,93.7499940395356,10|4,0:0|0:2,0:0:0:0:
84,212,158256,1,10,0:0:0:0:
84,212,158359,1,10,0:0:0:0:
84,212,158461,1,4,0:2:0:0:
168,248,158667,102,0,P|256:244|280:236,1,93.7499940395356,2|8,0:0|0:0,0:0:0:0:
284,224,158975,1,8,0:0:0:0:
300,200,159078,2,0,L|308:128,4,46.8749970197678,8|8|8|8|4,0:0|0:0|0:0|0:0|0:0,0:0:0:0:
444,292,160311,53,2,0:0:0:0:
400,100,160722,1,2,0:0:0:0:
208,148,161132,1,2,0:0:0:0:
252,340,161543,1,2,0:0:0:0:
464,184,161954,5,2,0:0:0:0:
297,79,162365,1,2,0:0:0:0:
195,249,162775,1,2,0:0:0:0:
362,353,163186,1,4,0:2:0:0:
296,224,163598,6,0,L|380:196,1,74.9999952316285,8|0,0:0|0:0,0:0:0:0:
392,192,163906,1,8,0:0:0:0:
392,192,164009,2,0,P|436:180|468:168,1,74.9999952316285,8|8,0:0|0:0,0:0:0:0:
496,92,164420,1,4,0:0:0:0:
256,192,164626,12,4,166886,0:0:0:0:
316,264,173461,6,0,L|220:280,1,74.9999952316285,4|0,0:0|0:0,0:0:0:0:
156,292,173872,1,0,0:0:0:0:
156,292,174283,2,0,P|92:248|8:256,2,149.999990463257,10|2|2,0:0|0:0|0:0,0:0:0:0:
176,200,175311,1,2,0:0:0:0:
176,200,175516,2,0,L|160:96,1,74.9999952316285,2|0,0:0|0:0,0:0:0:0:
244,88,175927,2,0,L|268:252,1,149.999990463257,10|2,0:0|0:0,0:0:0:0:
265,236,176543,1,0,0:0:0:0:
376,320,176749,70,0,P|404:264|376:172,1,149.999990463257,4|0,0:2|0:0,0:0:0:0:
344,112,177365,1,0,0:0:0:0:
344,112,177571,2,0,P|396:108|424:104,1,74.9999952316285,10|0,0:0|0:0,0:0:0:0:
296,40,177982,2,0,P|248:44|208:48,1,74.9999952316285,2|0,0:0|0:0,0:0:0:0:
140,56,178393,1,2,0:0:0:0:
180,128,178598,1,2,0:0:0:0:
128,196,178804,2,0,P|124:248|124:292,1,74.9999952316285,2|0,0:0|0:0,0:0:0:0:
80,336,179215,1,10,0:0:0:0:
164,352,179420,1,0,0:0:0:0:
228,292,179626,1,2,0:0:0:0:
316,312,179831,5,8,0:0:0:0:
316,312,179934,1,8,0:0:0:0:
316,312,180037,2,0,P|320:252|316:208,1,74.9999952316285,4|0,0:0|0:0,0:0:0:0:
408,280,180448,2,0,P|404:340|408:384,1,74.9999952316285,10|0,0:0|0:0,0:0:0:0:
484,324,180859,1,10,0:0:0:0:
480,244,181064,2,0,P|476:172|480:76,1,149.999990463257,0|0,0:0|0:0,0:0:0:0:
396,120,181680,2,0,L|296:108,1,74.9999952316285,4|2,0:2|0:0,0:0:0:0:
252,72,182091,1,2,0:0:0:0:
252,72,182297,2,0,P|188:88|156:144,2,112.499992847443,4|2|2,0:2|0:0|0:0,0:0:0:0:
308,180,183119,1,4,3:0:0:0:
236,224,183324,6,0,P|232:176|236:136,1,74.9999952316285,0|0,0:0|0:0,0:0:0:0:
152,192,183735,2,0,P|111:195|64:192,1,74.9999952316285,2|0,0:0|0:0,0:0:0:0:
32,124,184146,1,10,0:0:0:0:
28,328,184557,1,2,0:0:0:0:
28,328,184763,1,2,0:2:0:0:
112,320,184968,2,0,P|200:316|268:320,2,149.999990463257,4|2|10,0:2|0:0|0:0,0:0:0:0:
144,240,185995,1,0,0:0:0:0:
144,240,186201,2,0,P|144:196|140:144,1,74.9999952316285,2|0,0:0|0:0,0:0:0:0:
136,80,186612,5,4,0:2:0:0:
328,124,187023,2,0,P|404:112|440:24,2,149.999990463257,2|10|2,0:0|0:0|0:0,0:0:0:0:
288,48,188050,1,0,0:0:0:0:
248,120,188256,1,4,0:2:0:0:
176,84,188461,2,0,P|174:128|176:176,1,74.9999952316285,8|2,0:0|0:0,0:0:0:0:
312,312,189078,1,10,0:0:0:0:
336,232,189283,1,8,0:0:0:0:
252,248,189489,1,10,0:0:0:0:
472,320,189900,70,0,P|504:256|476:176,1,149.999990463257,4|0,0:2|0:0,0:0:0:0:
356,56,190722,1,0,0:0:0:0:
184,92,191132,1,8,0:0:0:0:
272,296,191543,5,8,0:0:0:0:
292,212,191749,1,8,0:0:0:0:
272,296,191954,1,8,0:0:0:0:
204,240,192160,1,8,0:0:0:0:
272,296,192365,2,0,L|324:284,3,37.4999976158143,8|8|8|8,0:0|0:0|0:0|0:0,0:0:0:0:
336,272,192776,2,0,L|388:260,3,37.4999976158143,8|8|8|8,0:0|0:0|0:0|0:0,0:0:0:0:
400,248,193187,1,4,0:2:0:0:
256,192,193290,12,4,194420,3:0:0:0:
208,352,194831,37,12,0:0:0:0:
296,324,195037,1,8,0:0:0:0:
220,268,195242,1,2,0:0:0:0:
300,236,195448,1,8,0:0:0:0:
300,236,195550,1,0,0:0:0:0:
300,236,195653,2,0,P|296:192|300:132,1,93.7499940395356,2|8,0:0|0:0,0:0:0:0:
264,68,196064,6,0,L|316:52,3,46.8749970197678,2|2|8|0,0:0|0:0|0:0|0:0,0:0:0:0:
236,96,196475,2,0,P|188:92|128:76,1,93.7499940395356,2|8,0:0|0:0,0:0:0:0:
80,140,196886,1,2,0:0:0:0:
148,196,197091,1,8,0:0:0:0:
148,196,197194,1,0,0:0:0:0:
148,196,197297,1,2,0:0:0:0:
16,216,197502,2,0,P|-12:144|60:64,1,187.499988079071,8|8,0:0|0:0,0:0:0:0:
176,116,198119,102,0,L|276:100,1,93.7499940395356,2|8,0:0|0:0,0:0:0:0:
352,88,198530,1,2,0:0:0:0:
352,88,198632,1,2,0:0:0:0:
352,88,198735,1,8,0:0:0:0:
432,128,198941,1,4,0:2:0:0:
384,208,199146,1,0,0:0:0:0:
384,208,199249,1,8,0:0:0:0:
384,208,199352,2,0,L|396:284,1,46.8749970197678,8|8,0:0|0:0,0:0:0:0:
328,308,199557,2,0,L|340:384,1,46.8749970197678,8|8,0:0|0:0,0:0:0:0:
248,348,199763,6,0,P|240:292|236:244,1,93.7499940395356,4|8,0:0|0:0,0:0:0:0:
228,168,200174,1,2,0:0:0:0:
312,212,200379,1,8,0:0:0:0:
304,120,200585,2,0,P|296:76|292:16,1,93.7499940395356,2|8,0:0|0:0,0:0:0:0:
176,96,200995,2,0,P|124:104|68:108,1,93.7499940395356,2|8,0:0|0:0,0:0:0:0:
72,240,201406,102,0,P|164:192|248:248,1,187.499988079071,2|2,0:0|0:0,0:0:0:0:
272,300,202023,1,8,0:0:0:0:
320,220,202228,1,2,0:0:0:0:
232,225,202434,2,0,P|176:225|124:221,1,93.7499940395356,8|2,0:0|0:0,0:0:0:0:
60,336,202845,5,8,0:0:0:0:
60,336,202948,1,0,0:0:0:0:
60,336,203050,2,0,P|50:288|36:232,1,93.7499940395356,4|8,0:2|0:0,0:0:0:0:
64,156,203461,2,0,P|52:111|40:52,1,93.7499940395356,2|8,0:0|0:0,0:0:0:0:
160,140,203872,2,0,P|208:132|264:116,1,93.7499940395356,2|8,0:0|0:0,0:0:0:0:
328,200,204283,2,0,P|280:208|224:224,1,93.7499940395356,2|8,0:0|0:0,0:0:0:0:
152,224,204694,101,6,0:0:0:0:
244,296,204900,1,4,0:2:0:0:
132,336,205105,2,0,P|76:328|36:288,1,93.7499940395356,2|4,0:0|0:2,0:0:0:0:
20,220,205516,1,4,0:2:0:0:
32,192,205619,1,8,0:0:0:0:
44,164,205722,1,8,0:0:0:0:
52,136,205824,1,8,0:0:0:0:
64,108,205927,2,0,L|48:40,3,46.8749970197678,8|8|8|8,0:0|0:0|0:0|0:0,0:0:0:0:
96,108,206338,6,0,P|152:104|196:104,1,93.7499940395356,4|8,0:0|0:0,0:0:0:0:
272,88,206749,1,2,0:0:0:0:
356,108,206954,1,8,0:0:0:0:
440,84,207160,2,0,P|432:160|448:276,1,187.499988079071,2|2,0:0|0:0,0:0:0:0:
372,328,207776,101,8,0:0:0:0:
372,328,207879,1,0,0:0:0:0:
372,328,207982,2,0,P|352:264|352:212,1,93.7499940395356,2|8,0:0|0:0,0:0:0:0:
360,64,208393,2,0,P|364:120|352:180,1,93.7499940395356,2|8,0:0|0:0,0:0:0:0:
276,196,208804,5,2,0:0:0:0:
240,280,209009,1,8,0:0:0:0:
156,244,209215,1,2,0:0:0:0:
184,156,209420,1,8,0:0:0:0:
276,196,209626,2,0,L|388:180,1,93.7499940395356,4|8,0:0|0:0,0:0:0:0:
456,168,210037,2,0,L|508:160,2,46.8749970197678,10|10|4,0:0|0:0|0:2,0:0:0:0:
396,104,210448,37,4,0:2:0:0:
356,288,210756,1,4,0:2:0:0:
200,172,211064,1,4,0:2:0:0:
280,204,211269,54,0,P|324:208|376:192,1,93.7499940395356,4|8,0:0|0:0,0:0:0:0:
424,128,211680,1,2,0:0:0:0:
456,208,211886,1,8,0:0:0:0:
504,136,212091,2,0,L|512:40,2,93.7499940395356,2|8|2,0:0|0:0|0:0,0:0:0:0:
492,276,212708,5,8,0:0:0:0:
492,276,212811,1,0,0:0:0:0:
492,276,212913,2,0,P|448:304|388:300,1,93.7499940395356,2|8,0:0|0:0,0:0:0:0:
336,268,213324,1,2,0:0:0:0:
256,256,213530,1,8,0:0:0:0:
176,276,213735,1,2,0:0:0:0:
104,316,213941,2,0,P|64:264|92:144,1,187.499988079071,8|8,0:0|0:0,0:0:0:0:
116,56,214557,102,0,P|68:80|8:76,1,93.7499940395356,4|8,0:0|0:0,0:0:0:0:
168,132,214968,2,0,P|216:108|276:112,1,93.7499940395356,2|8,0:0|0:0,0:0:0:0:
336,140,215379,1,4,0:2:0:0:
280,212,215585,1,8,0:0:0:0:
292,236,215687,1,8,0:0:0:0:
304,260,215790,1,8,0:0:0:0:
316,284,215893,1,8,0:0:0:0:
328,308,215995,2,0,L|312:380,2,46.8749970197678,8|8|4,0:0|0:0|0:0,0:0:0:0:
356,208,216406,5,8,0:0:0:0:
432,256,216612,2,0,P|440:208|432:152,1,93.7499940395356,2|8,0:0|0:0,0:0:0:0:
360,120,217023,1,2,0:0:0:0:
360,120,217228,1,8,0:0:0:0:
284,160,217434,2,0,P|276:208|284:264,1,93.7499940395356,2|8,0:0|0:0,0:0:0:0:
192,204,217845,102,0,B|80:232|112:156|0:184,1,187.499988079071,2|2,0:0|0:0,0:0:0:0:
20,260,218461,1,8,0:0:0:0:
100,144,218667,2,0,P|100:96|104:32,1,93.7499940395356,2|8,0:0|0:0,0:0:0:0:
180,96,219078,1,2,0:0:0:0:
24,104,219283,5,8,0:0:0:0:
24,104,219386,1,8,0:0:0:0:
24,104,219489,2,0,P|24:156|20:216,1,93.7499940395356,4|8,0:0|0:0,0:0:0:0:
112,252,219900,1,2,0:0:0:0:
112,168,220105,1,8,0:0:0:0:
200,204,220311,2,0,P|196:276|176:316,1,93.7499940395356,2|8,0:0|0:0,0:0:0:0:
180,380,220722,2,0,P|251:352|303:348,1,93.7499940395356,2|8,0:0|0:0,0:0:0:0:
344,336,221132,101,4,0:0:0:0:
436,356,221338,1,8,0:0:0:0:
428,264,221543,2,0,L|436:212,2,46.8749970197678,4|2|8,0:2|0:0|0:0,0:0:0:0:
336,244,221954,1,8,0:0:0:0:
300,160,222160,1,8,0:0:0:0:
300,160,222263,1,8,0:0:0:0:
300,160,222365,2,0,L|276:96,3,46.8749970197678,8|8|8|8,0:0|0:0|0:0|0:0,0:0:0:0:
272,192,222776,6,0,P|212:176|152:184,2,93.7499940395356,4|8|2,0:0|0:0|0:0,0:0:0:0:
336,252,223393,1,8,0:0:0:0:
404,200,223598,2,0,P|472:184|504:80,1,187.499988079071,2|2,0:0|0:0,0:0:0:0:
412,32,224215,101,8,0:0:0:0:
412,32,224317,1,8,0:0:0:0:
412,32,224420,2,0,P|408:92|412:144,1,93.7499940395356,4|8,0:0|0:0,0:0:0:0:
312,192,224831,2,0,P|316:132|312:80,1,93.7499940395356,2|8,0:0|0:0,0:0:0:0:
409,125,225242,2,0,L|513:133,1,93.7499940395356,10|10,0:0|0:0,0:0:0:0:
314,98,225653,2,0,L|210:90,1,93.7499940395356,10|10,0:0|0:0,0:0:0:0:
144,44,226064,6,0,P|132:92|148:152,1,93.7499940395356,4|8,0:0|0:0,0:0:0:0:
204,196,226475,1,2,0:0:0:0:
204,196,226578,1,8,0:0:0:0:
204,196,226680,1,8,0:0:0:0:
116,228,226886,2,0,P|128:276|112:336,1,93.7499940395356,4|8,0:0|0:0,0:0:0:0:
200,352,227297,1,2,0:0:0:0:
200,352,227400,1,8,0:0:0:0:
200,352,227502,1,8,0:0:0:0:
280,308,227708,101,4,0:0:0:0:
364,328,227913,2,0,L|416:340,1,46.8749970197678,8|8,0:0|0:0,0:0:0:0:
436,328,228119,2,0,L|488:340,1,46.8749970197678,8|8,0:0|0:0,0:0:0:0:
508,352,228324,2,0,L|496:284,2,46.8749970197678,8|10|6,0:0|0:0|0:0,0:0:0:0:
192,88,229352,37,2,0:0:0:0:
324,308,229763,1,2,0:0:0:0:
320,88,230174,5,2,0:0:0:0:
196,308,230585,1,2,0:0:0:0:
212,160,230995,69,2,0:0:0:0:
292,240,231406,1,2,0:0:0:0:
364,172,231817,101,2,0:0:0:0:
144,208,232228,1,4,0:2:0:0:
244,300,232639,6,0,L|348:292,1,74.9999952316285,8|8,0:0|0:0,0:0:0:0:
318,294,232948,1,8,0:0:0:0:
318,294,233050,2,0,P|308:252|312:204,1,74.9999952316285,8|8,0:0|0:0,0:0:0:0:
392,244,233461,1,4,0:0:0:0:
256,192,233667,12,4,239215,0:0:0:0:
