osu file format v14

[General]
AudioFilename: audio.mp3
AudioLeadIn: 0
PreviewTime:68050
Countdown: 0
SampleSet: Normal
StackLeniency: 0.7
Mode: 1
LetterboxInBreaks: 0
WidescreenStoryboard: 1

[Editor]
DistanceSpacing: 1.4
BeatDivisor: 4
GridSize: 32
TimelineZoom: 1.2

[Metadata]
Title:JoJo ~Sono Chi no Sadame~ Archetype MIX Ver. (Cut Ver.)
TitleUnicode:ジョジョ~その血の運命~ Archetype MIX Ver. (Cut Ver.)
Artist:TOMINAGA TOMMY HIROAKI
ArtistUnicode:富永TOMMY弘明
Creator:Hivie
Version:Kantan
Source:ジョジョの奇妙な冒険
Tags:radar ulqui japanese rock j-rock jrock anime JOJO'S BIZARRE ADVENTURE no kimyou na bouken part 1 p1 jojos phantom blood opening version jonathan joestar dio brando
BeatmapID:3147805
BeatmapSetID:1536015

[Difficulty]
HPDrainRate:8
CircleSize:2
OverallDifficulty:3
ApproachRate:9
SliderMultiplier:1.4
SliderTickRate:1

[Events]
//Background and Video events
0,0,"bg.jpg",0,100
//Break Periods
2,12365,14642
//Storyboard Layer 0 (Background)
//Storyboard Layer 1 (Fail)
//Storyboard Layer 2 (Pass)
//Storyboard Layer 3 (Foreground)
//Storyboard Layer 4 (Overlay)
//Storyboard Sound Samples

[TimingPoints]
859,410.958904109589,4,1,0,100,1,0
859,-100,4,1,0,100,0,0
66612,-100,4,1,0,100,0,0
66715,-100,4,1,0,100,0,0
66817,-100,4,1,0,100,0,0
66920,-100,4,1,0,100,0,0
67023,-100,4,1,0,100,0,0
67228,-100,4,1,0,100,0,0
67434,-100,4,1,0,100,0,0
67537,-100,4,1,0,100,0,0
67639,-100,4,1,0,100,0,0
67742,-100,4,1,0,100,0,0
67845,-100,4,1,0,100,0,0
67948,-100,4,1,0,100,0,0
68050,-100,4,1,0,100,0,0
68256,-100,4,1,0,100,0,1
83872,-100,4,1,0,100,0,0
84694,-100,4,1,0,100,0,1
102776,-100,4,1,0,100,0,0
106013,-100,4,1,0,100,0,0

[Colours]
Combo1 : 179,164,62
Combo2 : 221,96,13
Combo3 : 55,74,125
Combo4 : 81,60,123
Combo5 : 141,56,82
Combo6 : 255,6,6
Combo7 : 227,222,9
Combo8 : 147,147,149

[HitObjects]
256,96,5790,5,4,0:0:0:0:
256,192,6612,1,8,0:0:0:0:
256,192,7434,1,0,0:0:0:0:
256,192,7845,1,0,0:0:0:0:
256,192,8256,1,8,0:0:0:0:
256,192,9078,1,0,0:0:0:0:
256,192,9900,1,8,0:0:0:0:
256,192,10722,1,0,0:0:0:0:
256,192,11132,1,8,0:0:0:0:
256,192,11543,1,8,0:0:0:0:
256,192,15242,5,0,0:0:0:0:
256,96,15653,1,12,0:0:0:0:
256,192,16475,5,8,0:0:0:0:
256,192,17297,1,0,0:0:0:0:
256,192,17708,1,0,0:0:0:0:
256,192,18119,1,8,0:0:0:0:
256,96,18941,1,4,0:0:0:0:
256,192,19763,1,8,0:0:0:0:
256,192,20585,1,0,0:0:0:0:
256,192,20995,1,0,0:0:0:0:
256,192,21406,1,8,0:0:0:0:
256,96,22228,1,4,0:0:0:0:
256,192,23050,1,8,0:0:0:0:
256,192,23872,1,0,0:0:0:0:
256,192,24283,1,8,0:0:0:0:
256,192,24694,1,0,0:0:0:0:
256,96,25516,1,12,0:0:0:0:
256,192,26749,1,0,0:0:0:0:
256,192,27160,1,8,0:0:0:0:
256,192,27982,1,0,0:0:0:0:
256,192,28393,1,0,0:0:0:0:
256,192,28804,1,8,0:0:0:0:
256,192,29626,1,0,0:0:0:0:
256,192,30448,1,8,0:0:0:0:
256,192,31269,1,8,0:0:0:0:
256,96,32091,1,12,0:0:0:0:
256,192,33324,1,0,0:0:0:0:
256,192,33735,1,8,0:0:0:0:
256,192,34557,1,8,0:0:0:0:
256,192,34968,1,8,0:0:0:0:
256,192,35379,1,0,0:0:0:0:
256,192,36201,1,0,0:0:0:0:
256,192,37023,1,8,0:0:0:0:
256,192,37845,1,0,0:0:0:0:
256,192,38256,1,8,0:0:0:0:
256,96,38667,1,4,0:0:0:0:
256,96,40311,1,12,0:0:0:0:
256,96,41132,1,12,0:0:0:0:
256,96,41954,1,4,0:0:0:0:
256,192,42776,1,8,0:0:0:0:
256,192,43598,1,8,0:0:0:0:
256,192,44009,1,0,0:0:0:0:
256,192,44420,1,8,0:0:0:0:
256,192,45242,1,0,0:0:0:0:
256,192,45653,1,8,0:0:0:0:
256,192,46064,1,8,0:0:0:0:
256,192,46886,1,0,0:0:0:0:
256,192,47708,1,8,0:0:0:0:
256,192,48119,1,8,0:0:0:0:
256,96,48530,1,4,0:0:0:0:
256,192,49763,1,0,0:0:0:0:
256,192,50174,1,8,0:0:0:0:
256,192,50995,1,8,0:0:0:0:
256,192,51406,1,0,0:0:0:0:
256,192,51817,1,8,0:0:0:0:
256,192,52639,1,8,0:0:0:0:
256,192,53461,1,0,0:0:0:0:
256,192,53872,1,8,0:0:0:0:
256,96,55105,1,12,0:0:0:0:
256,192,55927,1,8,0:0:0:0:
256,192,56749,1,0,0:0:0:0:
256,192,57571,1,8,0:0:0:0:
256,192,57982,1,0,0:0:0:0:
256,96,58393,1,12,0:0:0:0:
256,192,59215,1,0,0:0:0:0:
256,192,59626,1,0,0:0:0:0:
256,96,60037,1,12,0:0:0:0:
256,96,61680,1,4,0:0:0:0:
256,192,62502,1,8,0:0:0:0:
256,192,63324,1,0,0:0:0:0:
256,192,63735,1,0,0:0:0:0:
256,96,64352,1,12,0:0:0:0:
256,96,64968,1,4,0:0:0:0:
256,192,65790,1,8,0:0:0:0:
227,172,66612,5,8,0:0:0:0:
227,172,67023,1,0,0:0:0:0:
227,172,67434,1,8,0:0:0:0:
227,172,67845,1,8,0:0:0:0:
227,172,68256,1,4,0:0:0:0:
227,172,69078,1,8,0:0:0:0:
227,172,69900,1,0,0:0:0:0:
227,172,70311,1,0,0:0:0:0:
218,163,70722,1,8,0:0:0:0:
239,178,71543,1,0,0:0:0:0:
241,186,72776,1,0,0:0:0:0:
241,186,73187,1,8,0:0:0:0:
241,186,74009,1,8,0:0:0:0:
264,185,74831,1,0,0:0:0:0:
266,188,75242,1,8,0:0:0:0:
264,187,75653,1,8,0:0:0:0:
258,202,76475,1,8,0:0:0:0:
258,202,77297,1,0,0:0:0:0:
261,195,78119,1,8,0:0:0:0:
264,200,78530,1,0,0:0:0:0:
261,195,78941,1,8,0:0:0:0:
261,195,79352,1,0,0:0:0:0:
261,195,79763,1,8,0:0:0:0:
274,202,80585,1,0,0:0:0:0:
270,202,81406,1,8,0:0:0:0:
274,202,82228,1,0,0:0:0:0:
278,190,82639,1,0,0:0:0:0:
274,203,83050,1,8,0:0:0:0:
227,172,84694,1,4,0:0:0:0:
227,172,85516,1,8,0:0:0:0:
227,172,86338,1,0,0:0:0:0:
227,172,86749,1,8,0:0:0:0:
218,163,87160,1,0,0:0:0:0:
256,192,87571,1,8,0:0:0:0:
239,178,87982,1,0,0:0:0:0:
241,186,89215,1,0,0:0:0:0:
241,186,89626,1,8,0:0:0:0:
241,186,90448,1,8,0:0:0:0:
264,185,91269,1,0,0:0:0:0:
266,188,91680,1,8,0:0:0:0:
264,187,92091,1,8,0:0:0:0:
258,202,92913,1,0,0:0:0:0:
258,202,93735,1,0,0:0:0:0:
261,195,94557,1,8,0:0:0:0:
264,200,94968,1,0,0:0:0:0:
261,195,95379,1,8,0:0:0:0:
261,195,95790,1,0,0:0:0:0:
261,195,96201,1,8,0:0:0:0:
274,202,97023,1,0,0:0:0:0:
270,202,97845,1,8,0:0:0:0:
278,190,99078,1,0,0:0:0:0:
274,203,99489,5,8,0:0:0:0:
279,190,100311,1,0,0:0:0:0:
278,190,101132,1,0,0:0:0:0:
278,190,101543,1,8,0:0:0:0:
206,117,101954,1,4,0:0:0:0:
256,96,102776,1,12,0:0:0:0:
256,96,103598,1,4,0:0:0:0:
256,96,104420,1,4,0:0:0:0:
256,96,105242,1,12,0:0:0:0:
256,192,106064,1,8,0:0:0:0:
256,192,106475,1,0,0:0:0:0:
256,96,106886,1,12,0:0:0:0:
256,192,107297,12,0,111406,0:0:0:0:
256,96,112639,5,12,0:0:0:0:
256,192,113461,1,8,0:0:0:0:
256,192,114283,1,0,0:0:0:0:
256,192,114694,1,0,0:0:0:0:
256,192,115105,1,8,0:0:0:0:
256,192,115927,1,0,0:0:0:0:
256,192,116749,1,8,0:0:0:0:
256,192,117571,1,0,0:0:0:0:
256,192,117982,1,0,0:0:0:0:
256,192,118393,1,8,0:0:0:0:
256,192,118804,1,0,0:0:0:0:
256,96,119215,5,12,0:0:0:0:
256,192,120858,1,0,0:0:0:0:
256,192,121269,1,0,0:0:0:0:
256,192,121680,1,8,0:0:0:0:
256,96,122502,1,4,0:0:0:0:
256,96,123324,1,4,0:0:0:0:
256,96,124146,1,4,0:0:0:0:
256,192,124557,1,8,0:0:0:0:
256,192,124968,1,8,0:0:0:0:
256,192,125379,1,8,0:0:0:0:
256,96,125790,1,4,0:0:0:0:
