osu file format v14

[General]
AudioFilename: audio.mp3
AudioLeadIn: 2000
PreviewTime: 52640
Countdown: 0
SampleSet: Normal
StackLeniency: 0.3
Mode: 0
LetterboxInBreaks: 0
WidescreenStoryboard: 0

[Editor]
Bookmarks: 215516
DistanceSpacing: 0.9
BeatDivisor: 4
GridSize: 4
TimelineZoom: 1

[Metadata]
Title:FINE!! (Cut Ver.)
TitleUnicode:FINE!! (Cut Ver.)
Artist:TOMATO GUMMY feat. Shirakami Fubuki
ArtistUnicode:トマト組 feat. 白上フブキ
Creator:Frey
Version:Normal
Source:
Tags:j pop j-pop ShirakamiFINE!! アシノ Ashino 青時 Seiji C97 Comiket 97 hololive cut version vtb vtuber virtual youtuber Japanese バーチャルユーチューバー cover ホロライブ electronic
BeatmapID:2692600
BeatmapSetID:1298047

[Difficulty]
HPDrainRate:4
CircleSize:3.5
OverallDifficulty:4
ApproachRate:5
SliderMultiplier:1.1
SliderTickRate:1

[Events]
//Background and Video events
0,0,"77115862_p0.jpg",0,0
//Break Periods
2,80605,84722
//Storyboard Layer 0 (Background)
//Storyboard Layer 1 (Fail)
//Storyboard Layer 2 (Pass)
//Storyboard Layer 3 (Foreground)
//Storyboard Layer 4 (Overlay)
//Storyboard Sound Samples

[TimingPoints]
405,344.827586206897,4,2,0,50,1,0
5922,-100,4,1,1,55,0,0
52818,-100,4,1,1,60,0,1
74887,-100,4,1,1,55,0,0
85922,-100,4,2,0,55,0,0
105232,-100,4,1,1,55,0,0
113508,-100,4,1,1,60,0,1
135577,-100,4,1,1,55,0,0

[Colours]
Combo1 : 0,213,106
Combo2 : 255,128,128
Combo3 : 74,165,255
Combo4 : 255,255,111

[HitObjects]
204,284,405,6,0,P|149:274|88:232,2,110,0|0|2,0:0|0:0|0:0,0:0:0:0:
308,284,1439,1,2,0:0:0:0:
308,284,1611,2,0,L|328:176,1,110
337,125,2129,1,2,0:0:0:0:
356,24,2473,1,0,0:0:0:0:
256,48,2818,1,2,0:0:0:0:
156,68,3163,6,0,L|176:176,1,110,0|2,0:0|0:0,0:0:0:0:
196,272,3853,2,0,P|152:304|92:308,1,110
48,296,4370,1,2,0:0:0:0:
80,96,5060,1,0,0:0:0:0:
80,96,5232,1,2,0:0:0:0:
276,40,5922,6,0,P|336:40|388:68,1,110,4|8,0:0|0:0,0:0:0:0:
448,136,6611,2,0,L|442:261,1,110,0|8,0:0|0:0,0:0:0:0:
440,348,7301,1,0,0:0:0:0:
348,380,7646,1,8,0:0:0:0:
276,312,7991,2,0,L|204:296,1,55
172,288,8336,1,8,0:0:0:0:
80,320,8680,6,0,P|24:288|8:244,1,110,0|8,0:0|0:0,0:0:0:0:
32,148,9370,2,0,L|139:123,1,110,0|8,0:0|0:0,0:0:0:0:
236,104,10060,1,2,0:2:0:0:
288,188,10405,1,8,0:0:0:0:
224,264,10749,2,0,L|149:281,1,55
120,288,11094,1,8,0:0:0:0:
23,254,11439,6,0,P|15:199|31:147,1,110,0|8,0:0|0:0,0:0:0:0:
104,80,12129,2,0,P|158:72|210:88,1,110,0|8,0:0|0:0,0:0:0:0:
278,161,12818,1,0,0:0:0:0:
268,264,13163,1,8,0:0:0:0:
348,324,13508,2,0,P|384:312|420:292,1,55
440,272,13853,1,8,0:0:0:0:
488,184,14198,6,0,L|500:72,1,110,0|8,0:0|0:0,0:0:0:0:
416,24,14887,2,0,P|360:20|308:56,1,110,0|8,0:0|0:0,0:0:0:0:
256,128,15577,1,0,0:0:0:0:
197,46,15922,1,8,0:0:0:0:
96,24,16267,2,0,L|80:100,1,55
76,128,16611,1,8,0:0:0:0:
7,199,16956,6,0,P|54:225|108:222,1,110,0|8,0:0|0:0,0:0:0:0:
204,192,17646,2,0,P|258:188|305:214,1,110,0|8,0:0|0:0,0:0:0:0:
344,248,18163,1,0,0:0:0:0:
380,284,18336,2,0,L|488:260,1,110,0|8,0:0|0:0,0:0:0:0:
500,160,19025,2,0,L|508:92,2,55,0|0|8,0:0|0:0|0:0,0:0:0:0:
400,148,19715,6,0,P|336:124|308:88,1,110,0|8,0:0|0:0,0:0:0:0:
256,8,20405,2,0,P|192:32|164:68,1,110,0|8,0:0|0:0,0:0:0:0:
140,104,20922,1,0,0:0:0:0:
116,148,21094,2,0,L|132:264,1,110,0|8,0:0|0:0,0:0:0:0:
96,352,21784,2,0,P|70:342|53:321,2,55,0|0|8,0:0|0:0|0:0,0:0:0:0:
192,332,22473,6,0,P|276:332|304:340,1,110,0|8,0:0|0:0,0:0:0:0:
348,252,23163,2,0,P|402:255|456:245,1,110,0|8,0:0|0:0,0:0:0:0:
492,212,23680,1,0,0:0:0:0:
508,164,23853,2,0,L|496:32,1,110,0|8,0:0|0:0,0:0:0:0:
412,8,24542,1,0,0:0:0:0:
312,16,24887,2,0,L|296:84,1,55,8|0,0:0|0:0,0:0:0:0:
288,120,25232,6,0,L|178:129,1,110,0|8,0:0|0:0,0:0:0:0:
88,88,25922,2,0,L|100:34,2,55,0|0|8,0:0|0:0|0:0,0:0:0:0:
64,188,26611,2,0,P|64:240|100:292,1,110,0|8,0:0|0:0,0:0:0:0:
184,328,27301,2,0,L|244:336,2,55,0|0|8,0:0|0:0|0:0,0:0:0:0:
196,228,27991,6,0,L|316:244,1,110,2|8,0:2|0:0,0:0:0:0:
380,312,28680,2,0,P|440:300|472:260,1,110,2|8,0:2|0:0,0:0:0:0:
484,216,29198,1,0,0:0:0:0:
496,168,29370,2,0,L|386:153,1,110,2|8,0:2|0:0,0:0:0:0:
308,92,30060,2,0,L|296:28,2,55,2|0|8,0:2|0:0|0:0,0:0:0:0:
256,176,30749,6,0,L|279:295,1,110,2|8,0:2|0:0,0:0:0:0:
188,328,31439,2,0,L|167:219,1,110,0|8,0:0|0:0,0:0:0:0:
120,200,31956,1,0,0:0:0:0:
72,180,32129,2,0,P|64:128|88:72,1,110,2|8,0:2|0:0,0:0:0:0:
160,12,32818,2,0,L|224:4,2,55,2|0|8,0:2|0:0|0:0,0:0:0:0:
180,108,33508,6,0,L|292:124,1,110,2|8,0:2|0:0,0:0:0:0:
364,56,34198,1,2,0:2:0:0:
460,40,34542,2,0,L|472:120,1,55,8|0,0:0|0:0,0:0:0:0:
476,144,34887,2,0,L|496:268,1,110,2|8,0:2|0:0,0:0:0:0:
392,236,35577,2,0,P|348:244|296:288,1,110,2|8,0:2|0:0,0:0:0:0:
256,376,36267,6,0,P|211:345|195:293,1,110,2|8,0:2|0:0,0:0:0:0:
208,192,36956,2,0,L|216:124,2,55,0|0|8,0:0|0:0|0:0,0:0:0:0:
116,228,37646,2,0,L|6:213,1,110,2|8,0:2|0:0,0:0:0:0:
47,123,38336,2,0,L|116:132,2,55,0|0|8,0:0|0:0|0:0,0:0:0:0:
7,31,39025,6,0,P|57:11|111:15,1,110,2|8,0:2|0:0,0:0:0:0:
192,76,39715,2,0,P|212:126|207:180,1,110,0|8,0:0|0:0,0:0:0:0:
176,220,40232,1,0,0:0:0:0:
140,256,40405,2,0,P|139:310|163:359,1,110,0|8,0:0|0:0,0:0:0:0:
256,320,41094,2,0,L|256:260,2,55,0|0|8,0:0|0:0|0:0,0:0:0:0:
348,359,41784,6,0,P|372:310|372:256,1,110,4|2,0:2|0:2,0:0:0:0:
306,179,42473,2,0,P|354:156|408:163,1,110
488,224,43163,2,0,L|512:116,1,110,2|2,0:2|0:2,0:0:0:0:
460,32,43853,2,0,L|348:48,1,110
304,56,44370,1,0,0:0:0:0:
256,64,44542,6,0,L|232:172,1,110,2|2,0:2|0:2,0:0:0:0:
136,200,45232,2,0,P|76:184|32:128,2,110,0|0|2,0:0|0:0|0:2,0:0:0:0:
212,268,46267,5,4,0:0:0:0:
308,240,46611,1,4,0:0:0:0:
336,336,46956,1,4,0:0:0:0:
240,364,47301,6,0,L|120:348,1,110,4|2,0:0|0:2,0:0:0:0:
52,292,47991,2,0,P|32:240|40:184,1,110,0|2,0:0|0:2,0:0:0:0:
88,100,48680,1,2,0:2:0:0:
188,92,49025,1,2,0:2:0:0:
256,164,49370,1,2,0:2:0:0:
356,156,49715,1,2,0:2:0:0:
424,228,50060,6,0,L|428:288,1,55,2|0,0:2|0:0,0:0:0:0:
432,332,50405,1,2,0:2:0:0:
344,380,50749,2,0,P|300:368|280:352,1,55,2|0,0:2|0:0,0:0:0:0:
256,328,51094,1,2,0:2:0:0:
256,228,51439,2,0,P|204:144|152:268,1,275,0|0,0:0|0:0,0:0:0:0:
164,292,52473,1,8,0:0:0:0:
256,328,52818,5,4,0:0:0:0:
348,292,53163,1,8,0:0:0:0:
388,200,53508,1,0,0:0:0:0:
388,200,53680,1,2,0:2:0:0:
488,188,54025,2,0,L|498:297,1,110,2|0,0:2|0:0,0:0:0:0:
504,348,54542,1,8,0:0:0:0:
404,360,54887,1,2,0:2:0:0:
304,372,55232,1,8,0:0:0:0:
316,272,55577,6,0,P|264:251|196:260,1,110,2|8,0:2|0:0,0:0:0:0:
120,296,56267,1,2,0:2:0:0:
120,296,56439,1,0,0:0:0:0:
28,256,56784,2,0,L|4:144,1,110,2|0,0:2|0:0,0:0:0:0:
44,116,57301,2,0,P|92:108|148:132,1,110,8|2,0:0|0:2,0:0:0:0:
204,216,57991,1,8,0:0:0:0:
308,216,58336,5,2,0:2:0:0:
364,132,58680,1,8,0:0:0:0:
308,48,59025,1,0,0:0:0:0:
308,48,59198,1,2,0:2:0:0:
204,48,59542,2,0,L|192:164,1,110,2|0,0:2|0:0,0:0:0:0:
188,208,60060,2,0,P|264:220|304:248,1,110,8|2,0:0|0:2,0:0:0:0:
360,312,60749,1,8,0:0:0:0:
456,336,61094,5,2,0:2:0:0:
512,252,61439,1,8,0:0:0:0:
448,176,61784,1,0,0:0:0:0:
448,176,61956,1,2,0:2:0:0:
356,212,62301,2,0,P|332:144|324:104,1,110,2|0,0:2|0:0,0:0:0:0:
344,60,62818,2,0,P|384:32|452:40,1,110,8|0,0:0|0:0,0:0:0:0:
508,112,63508,1,8,0:0:0:0:
456,200,63853,5,4,0:0:0:0:
356,212,64198,1,8,0:0:0:0:
288,140,64542,1,0,0:0:0:0:
288,140,64715,1,2,0:2:0:0:
188,152,65060,2,0,L|64:168,1,110,2|0,0:2|0:0,0:0:0:0:
36,192,65577,2,0,P|12:152|16:80,1,110,8|2,0:0|0:2,0:0:0:0:
68,8,66267,1,8,0:0:0:0:
168,20,66611,5,2,0:2:0:0:
208,112,66956,1,8,0:0:0:0:
148,192,67301,2,0,L|136:301,1,110,2|8,0:2|0:0,0:0:0:0:
176,332,67818,2,0,P|236:352|296:340,1,110
328,328,68336,1,8,0:0:0:0:
340,228,68680,1,2,0:2:0:0:
432,264,69025,1,8,0:0:0:0:
508,200,69370,6,8,L|488:76,1,110,4|8,0:0|0:0,0:0:0:0:
412,28,70060,2,0,P|357:22|305:39,1,110,2|8,0:2|0:0,0:0:0:0:
268,72,70577,2,0,P|213:77|161:60,1,110,2|0,0:2|0:0,0:0:0:0:
120,32,71094,1,12,0:0:0:0:
24,60,71439,1,4,0:0:0:0:
0,156,71784,1,8,0:0:0:0:
72,224,72129,6,0,L|200:236,1,110,4|8,0:0|0:0,0:0:0:0:
256,304,72818,2,0,P|328:292|360:252,1,110,2|8,0:2|0:0,0:0:0:0:
356,216,73336,2,0,L|345:106,1,110,2|0,0:2|0:0,0:0:0:0:
340,55,73853,1,12,0:0:0:0:
438,45,74198,1,4,0:0:0:0:
448,143,74542,1,8,0:0:0:0:
457,240,74887,6,0,P|432:288|385:315,1,110,6|8,0:2|0:0,0:0:0:0:
286,291,75577,2,0,P|256:246|256:192,1,110,2|8,0:2|0:0,0:0:0:0:
328,120,76267,2,0,L|304:8,1,110,2|8,0:2|0:0,0:0:0:0:
207,12,76956,2,0,L|184:120,1,110,2|8,0:2|0:0,0:0:0:0:
88,144,77646,5,2,0:2:0:0:
68,244,77991,1,8,0:0:0:0:
144,308,78336,1,2,0:2:0:0:
240,280,78680,1,8,0:0:0:0:
260,184,79025,2,0,L|272:124,1,55,2|0,0:2|0:0,0:0:0:0:
282,81,79370,1,8,0:0:0:0:
364,136,79715,2,0,L|424:148,1,55,2|0,0:2|0:0,0:0:0:0:
468,156,80060,2,0,P|488:128|500:96,1,55,8|0,0:0|0:0,0:0:0:0:
504,60,80405,5,4,0:0:0:0:
352,280,85922,6,0,B|392:240|392:160|376:128|344:108|328:56|328:56|300:100|256:116|256:116|212:100|184:56|184:56|168:108|136:128|120:160|120:240|144:280|184:320|184:320|228:328,1,770,2|2,3:2|0:0,0:0:0:0:
324,368,88680,2,0,B|396:380|396:380|496:288|504:144|428:48,1,440,2|2,2:0|0:0,0:0:0:0:
344,100,90405,5,2,0:0:0:0:
256,148,90749,1,2,0:0:0:0:
168,100,91094,1,2,0:0:0:0:
84,48,91439,2,0,L|60:284,1,220,2|2,0:0|0:0,0:0:0:0:
236,364,92818,2,0,P|328:360|400:248,1,220,2|2,0:0|0:0,0:0:0:0:
448,76,94198,6,0,B|352:32|336:116|232:72,1,220,2|2,0:0|0:0,0:0:0:0:
44,36,95577,2,0,L|68:148,1,110,2|2,0:0|0:0,0:0:0:0:
0,215,96267,2,0,P|47:242|101:237,1,110,2|2,0:0|0:0,0:0:0:0:
184,180,96956,6,0,P|268:168|380:240,1,220,2|2,0:0|0:0,0:0:0:0:
512,376,98336,2,0,L|496:152,1,220,2|2,0:0|0:0,0:0:0:0:
380,0,99715,2,0,P|268:20|156:12,1,220,2|2,0:0|0:0,0:0:0:0:
20,156,101094,6,0,P|132:136|244:144,1,220,2|2,0:0|0:0,0:0:0:0:
384,268,102473,2,0,L|368:384,1,110,0|2,0:0|0:0,0:0:0:0:
268,380,103163,2,0,L|152:364,1,110,0|2,0:0|0:0,0:0:0:0:
64,332,103853,2,0,P|40:280|40:220,1,110,0|2,0:0|0:0,0:0:0:0:
68,136,104542,1,2,0:0:0:0:
168,124,104887,1,2,0:0:0:0:
224,204,105232,6,0,L|212:332,1,110,4|2,0:2|0:2,0:0:0:0:
300,364,105922,2,0,P|348:356|392:308,1,110,0|0,0:0|0:0,0:0:0:0:
428,220,106611,2,0,L|417:110,1,110,2|2,0:2|0:2,0:0:0:0:
332,56,107301,2,0,P|272:52|224:68,1,110
184,96,107818,1,2,0:2:0:0:
156,136,107991,6,0,L|145:245,1,110,2|2,0:2|0:2,0:0:0:0:
88,328,108680,2,0,P|54:285|46:231,2,110,0|0|2,0:0|0:0|0:2,0:0:0:0:
186,334,109715,5,4,0:0:0:0:
244,252,110060,1,4,0:0:0:0:
344,260,110405,1,4,0:0:0:0:
391,348,110749,6,0,P|432:312|444:259,1,110,4|2,0:0|0:2,0:0:0:0:
452,160,111439,1,0,0:0:0:0:
364,108,111784,1,2,0:2:0:0:
264,96,112129,2,0,L|272:8,2,82.5,2|2|2,0:2|0:2|0:2,0:0:0:0:
260,144,112818,1,8,0:0:0:0:
252,244,113163,2,0,L|245:322,1,55,2|2,0:2|0:2,0:0:0:0:
244,348,113508,5,4,0:0:0:0:
152,384,113853,1,8,0:0:0:0:
68,328,114198,1,0,0:0:0:0:
68,328,114370,1,2,0:2:0:0:
76,228,114715,2,0,P|70:175|44:120,1,110,2|0,0:2|0:0,0:0:0:0:
12,88,115232,1,8,0:0:0:0:
64,4,115577,1,2,0:2:0:0:
160,24,115922,1,8,0:0:0:0:
172,124,116267,6,0,P|224:108|292:112,1,110,2|8,0:2|0:0,0:0:0:0:
372,140,116956,1,0,0:0:0:0:
372,140,117129,1,2,0:2:0:0:
352,236,117473,2,0,P|300:252|232:248,1,110,2|0,0:2|0:0,0:0:0:0:
196,240,117991,2,0,L|176:348,1,110,8|2,0:0|0:2,0:0:0:0:
272,364,118680,1,8,0:0:0:0:
368,380,119025,5,2,0:2:0:0:
430,305,119370,1,8,0:0:0:0:
492,230,119715,1,0,0:0:0:0:
492,230,119887,1,2,0:2:0:0:
396,214,120232,2,0,P|360:192|332:128,1,110,2|0,0:2|0:0,0:0:0:0:
336,84,120749,2,0,L|448:56,1,110,8|2,0:0|0:2,0:0:0:0:
508,134,121439,1,8,0:0:0:0:
492,230,121784,5,2,0:2:0:0:
396,214,122129,1,8,0:0:0:0:
380,310,122473,1,0,0:0:0:0:
380,310,122646,1,2,0:2:0:0:
284,294,122991,2,0,L|264:180,1,110,2|0,0:2|0:0,0:0:0:0:
256,136,123508,2,0,P|192:128|144:104,1,110,8|0,0:0|0:0,0:0:0:0:
60,68,124198,1,8,0:0:0:0:
0,148,124542,5,4,0:0:0:0:
52,232,124887,1,8,0:0:0:0:
148,208,125232,1,0,0:0:0:0:
148,208,125405,1,2,0:2:0:0:
151,108,125749,2,0,P|188:88|256:80,1,110,2|0,0:2|0:0,0:0:0:0:
300,104,126267,2,0,P|320:141|328:209,1,110,8|2,0:0|0:2,0:0:0:0:
288,300,126956,1,8,0:0:0:0:
204,356,127301,5,2,0:2:0:0:
104,340,127646,1,8,0:0:0:0:
32,272,127991,2,0,L|16:152,1,110,2|8,0:2|0:0,0:0:0:0:
12,112,128508,2,0,P|64:92|120:96,1,110,0|0,0:0|0:0,0:0:0:0:
160,120,129025,1,8,0:0:0:0:
256,104,129370,1,2,0:2:0:0:
256,200,129715,1,8,0:0:0:0:
352,184,130060,6,0,L|378:77,1,110,4|8,0:0|0:0,0:0:0:0:
472,104,130749,2,0,L|445:210,1,110,2|8,0:2|0:0,0:0:0:0:
432,259,131267,2,0,P|388:291|334:293,1,110,2|0,0:2|0:0,0:0:0:0:
284,280,131784,1,12,0:0:0:0:
256,184,132129,1,4,0:0:0:0:
228,88,132473,1,8,0:0:0:0:
136,124,132818,6,0,P|68:144|12:152,1,110,4|8,0:0|0:0,0:0:0:0:
8,248,133508,2,0,P|36:288|108:300,1,110,2|8,0:2|0:0,0:0:0:0:
140,288,134025,2,0,P|208:268|264:260,1,110,2|0,0:2|0:0,0:0:0:0:
296,256,134542,1,12,0:0:0:0:
364,184,134887,1,4,0:0:0:0:
456,220,135232,1,8,0:0:0:0:
448,320,135577,6,0,P|400:344|328:336,1,110,6|8,0:2|0:0,0:0:0:0:
296,256,136267,2,0,L|276:128,1,110,2|8,0:2|0:0,0:0:0:0:
204,80,136956,2,0,P|149:78|100:102,1,110,2|8,0:2|0:0,0:0:0:0:
52,188,137646,2,0,L|68:296,1,110,2|8,0:2|0:0,0:0:0:0:
136,364,138336,5,2,0:2:0:0:
232,348,138680,1,8,0:0:0:0:
272,256,139025,1,2,0:2:0:0:
204,184,139370,1,8,0:0:0:0:
108,200,139715,2,0,L|84:132,1,55,2|0,0:2|0:0,0:0:0:0:
72,100,140060,1,8,0:0:0:0:
133,18,140405,2,0,P|158:25|188:28,1,55,2|0,0:2|0:0,0:0:0:0:
237,40,140749,2,0,L|256:92,1,55,8|0,0:0|0:0,0:0:0:0:
