osu file format v14

[General]
AudioFilename: audio.mp3
AudioLeadIn: 2000
PreviewTime: 52640
Countdown: 0
SampleSet: Normal
StackLeniency: 0.3
Mode: 0
LetterboxInBreaks: 0
WidescreenStoryboard: 0

[Editor]
Bookmarks: 215516
DistanceSpacing: 1
BeatDivisor: 4
GridSize: 4
TimelineZoom: 1

[Metadata]
Title:FINE!! (Cut Ver.)
TitleUnicode:FINE!! (Cut Ver.)
Artist:TOMATO GUMMY feat. Shirakami Fubuki
ArtistUnicode:トマト組 feat. 白上フブキ
Creator:Frey
Version:Insane
Source:
Tags:j pop j-pop ShirakamiFINE!! アシノ Ashino 青時 Seiji C97 Comiket 97 hololive cut version vtb vtuber virtual youtuber Japanese バーチャルユーチューバー cover ホロライブ electronic
BeatmapID:2692598
BeatmapSetID:1298047

[Difficulty]
HPDrainRate:5.5
CircleSize:4
OverallDifficulty:7
ApproachRate:9
SliderMultiplier:1.7
SliderTickRate:1

[Events]
//Background and Video events
0,0,"77115862_p0.jpg",0,0
//Break Periods
2,80604,85322
//Storyboard Layer 0 (Background)
//Storyboard Layer 1 (Fail)
//Storyboard Layer 2 (Pass)
//Storyboard Layer 3 (Foreground)
//Storyboard Layer 4 (Overlay)
//Storyboard Sound Samples

[TimingPoints]
405,344.827586206897,4,2,0,50,1,0
405,-125,4,2,0,50,0,0
5922,-100,4,1,1,55,0,0
41784,-125,4,1,1,55,0,0
46267,-100,4,1,1,55,0,0
52818,-100,4,1,1,60,0,1
74887,-100,4,1,1,55,0,0
85922,-125,4,2,0,55,0,0
105232,-125,4,1,1,55,0,0
109715,-100,4,1,1,55,0,0
113508,-100,4,1,1,60,0,1
135577,-100,4,1,1,55,0,0

[Colours]
Combo1 : 0,213,106
Combo2 : 255,128,128
Combo3 : 74,165,255
Combo4 : 255,255,111

[HitObjects]
140,248,405,6,0,P|88:200|88:112,2,136,0|0|2,0:0|0:0|0:0,0:0:0:0:
372,248,1439,1,2,0:0:0:0:
372,248,1611,1,0,0:0:0:0:
256,96,1956,5,0,0:0:0:0:
256,96,2042,1,0,0:0:0:0:
256,96,2129,2,0,L|256:164,1,68,2|0,0:0|0:0,0:0:0:0:
316,32,2473,2,0,P|256:4|192:36,1,136,0|2,0:0|0:0,0:0:0:0:
128,128,2991,1,0,0:0:0:0:
128,128,3077,1,0,0:0:0:0:
128,128,3163,6,0,L|112:220,1,68,0|0,0:0|0:0,0:0:0:0:
168,276,3508,1,2,0:0:0:0:
256,312,3680,1,0,0:0:0:0:
395,194,3853,2,0,L|384:128,1,68,0|0,0:0|0:0,0:0:0:0:
368,32,4198,1,0,0:0:0:0:
256,96,4370,1,2,0:0:0:0:
256,368,5060,1,0,0:0:0:0:
256,368,5232,2,0,P|296:308|256:192,1,204,2|0,0:0|0:0,0:0:0:0:
68,106,5922,6,0,P|110:100|152:92,1,85,4|0,0:0|0:0,0:0:0:0:
256,192,6267,2,0,P|213:197|172:205,1,85,8|0,0:0|0:0,0:0:0:0:
88,224,6611,1,0,0:0:0:0:
53,363,6784,1,0,0:0:0:0:
4,204,6956,1,8,0:0:0:0:
116,304,7129,2,0,P|176:300|212:272,1,85,0|0,0:0|0:0,0:0:0:0:
256,192,7473,5,0,0:0:0:0:
144,180,7646,1,8,0:0:0:0:
196,288,7818,1,0,0:0:0:0:
316,288,7991,1,0,0:0:0:0:
368,180,8163,1,0,0:0:0:0:
368,180,8249,1,0,0:0:0:0:
368,180,8336,2,0,L|380:92,1,85,8|0,0:0|0:0,0:0:0:0:
256,24,8680,6,0,P|196:36|160:36,1,85,0|0,0:0|0:0,0:0:0:0:
12,147,9025,2,0,P|54:150|96:160,1,85,8|0,0:0|0:0,0:0:0:0:
168,204,9370,1,0,0:0:0:0:
324,172,9542,1,0,0:0:0:0:
172,120,9715,1,8,0:0:0:0:
116,272,9887,1,0,0:0:0:0:
268,324,10060,5,2,0:2:0:0:
286,314,10146,1,0,0:0:0:0:
307,308,10232,1,0,0:0:0:0:
328,305,10318,1,0,0:0:0:0:
349,306,10404,1,8,0:0:0:0:
428,348,10577,1,0,0:0:0:0:
492,288,10749,2,0,L|502:203,1,85
438,75,11094,2,0,L|428:160,1,85,8|0,0:0|0:0,0:0:0:0:
374,229,11439,6,0,P|332:228|292:216,1,85,0|0,0:0|0:0,0:0:0:0:
137,154,11784,2,0,P|179:155|220:168,1,85,8|0,0:0|0:0,0:0:0:0:
296,132,12129,1,0,0:0:0:0:
284,300,12301,1,0,0:0:0:0:
228,84,12473,1,8,0:0:0:0:
216,252,12646,2,0,L|116:268,1,85,0|0,0:0|0:0,0:0:0:0:
0,168,12991,5,0,0:0:0:0:
120,180,13163,1,8,0:0:0:0:
48,280,13336,1,0,0:0:0:0:
0,168,13508,1,0,0:0:0:0:
72,68,13680,1,0,0:0:0:0:
72,68,13767,1,0,0:0:0:0:
72,68,13853,2,0,P|100:56|168:52,1,85,8|0,0:0|0:0,0:0:0:0:
284,80,14198,6,0,L|304:204,1,85,0|0,0:0|0:0,0:0:0:0:
228,304,14542,2,0,L|208:180,1,85,8|0,0:0|0:0,0:0:0:0:
200,136,14887,1,0,0:0:0:0:
312,248,15060,1,0,0:0:0:0:
380,104,15232,1,8,0:0:0:0:
200,136,15405,1,0,0:0:0:0:
312,248,15577,6,0,P|352:264|394:263,1,85,0|0,0:0|0:0,0:0:0:0:
380,104,15922,1,8,0:0:0:0:
296,120,16094,1,0,0:0:0:0:
296,120,16180,1,0,0:0:0:0:
296,120,16267,1,0,0:0:0:0:
216,264,16439,1,0,0:0:0:0:
216,264,16525,1,0,0:0:0:0:
216,264,16611,2,0,L|132:247,1,85,8|0,0:0|0:0,0:0:0:0:
15,164,16956,6,0,P|3:244|62:300,1,170,0|8,0:0|0:0,0:0:0:0:
148,164,17473,1,0,0:0:0:0:
148,164,17646,2,0,P|224:152|332:132,1,170,0|8,0:0|0:0,0:0:0:0:
400,116,18163,1,0,0:0:0:0:
468,64,18336,6,0,P|434:38|392:32,1,85,0|0,0:0|0:0,0:0:0:0:
315,135,18680,2,0,L|331:235,1,85,8|0,0:0|0:0,0:0:0:0:
352,340,19025,1,0,0:0:0:0:
408,264,19198,1,0,0:0:0:0:
272,292,19370,2,0,P|235:279|180:232,1,85,8|0,0:0|0:0,0:0:0:0:
236,104,19715,6,0,P|302:55|388:88,1,170,0|8,0:0|0:0,0:0:0:0:
492,208,20232,1,0,0:0:0:0:
492,208,20405,2,0,L|464:388,1,170,0|8,0:0|0:0,0:0:0:0:
344,360,20922,1,0,0:0:0:0:
304,284,21094,6,0,P|296:236|312:184,1,85,0|0,0:0|0:0,0:0:0:0:
208,100,21439,2,0,P|216:148|200:200,1,85,8|0,0:0|0:0,0:0:0:0:
156,252,21784,1,0,0:0:0:0:
156,252,21870,1,0,0:0:0:0:
156,252,21956,1,0,0:0:0:0:
48,132,22129,1,8,0:0:0:0:
256,16,22473,6,0,L|440:36,1,170,0|8,0:0|0:0,0:0:0:0:
512,172,22991,1,0,0:0:0:0:
512,172,23163,2,0,L|342:153,1,170,0|8,0:0|0:0,0:0:0:0:
256,144,23680,1,0,0:0:0:0:
168,136,23853,6,0,L|184:248,1,85,0|0,0:0|0:0,0:0:0:0:
320,320,24198,2,0,L|332:235,1,85,8|0,0:0|0:0,0:0:0:0:
352,67,24542,2,0,P|292:64|264:52,1,85,0|0,0:0|0:0,0:0:0:0:
432,32,24887,1,8,0:0:0:0:
424,120,25060,1,0,0:0:0:0:
332,235,25232,6,0,L|156:212,1,170,0|8,0:0|0:0,0:0:0:0:
88,252,25749,1,0,0:0:0:0:
12,292,25922,2,0,P|3:250|12:209,1,85,0|0,0:0|0:0,0:0:0:0:
80,80,26267,2,0,L|88:180,1,85,8|0,0:0|0:0,0:0:0:0:
170,297,26611,6,0,L|163:212,1,85,0|0,0:0|0:0,0:0:0:0:
256,136,26956,1,8,0:0:0:0:
256,136,27129,1,0,0:0:0:0:
348,212,27301,1,0,0:0:0:0:
348,212,27387,1,8,0:0:0:0:
348,212,27473,1,0,0:0:0:0:
256,372,27646,1,8,0:0:0:0:
44,260,27991,6,0,L|28:72,1,170,2|8,0:2|0:0,0:0:0:0:
168,16,28508,1,0,0:0:0:0:
168,16,28680,2,0,P|252:4|336:44,1,170,2|8,0:2|0:0,0:0:0:0:
380,108,29198,1,0,0:0:0:0:
416,28,29370,6,0,L|504:44,1,85,2|0,0:2|0:0,0:0:0:0:
427,203,29715,2,0,L|343:187,1,85,8|0,0:0|0:0,0:0:0:0:
256,172,30060,1,2,0:2:0:0:
200,268,30232,1,0,0:0:0:0:
301,349,30405,2,0,P|316:309|312:268,1,85,8|0,0:0|0:0,0:0:0:0:
172,188,30749,6,0,L|4:168,1,170,2|8,0:2|0:0,0:0:0:0:
68,328,31267,1,0,0:0:0:0:
68,328,31439,2,0,P|140:364|224:344,1,170,0|8,0:0|0:0,0:0:0:0:
288,288,31956,1,0,0:0:0:0:
193,175,32129,6,0,L|204:260,1,85,2|0,0:2|0:0,0:0:0:0:
318,208,32473,2,0,L|308:124,1,85,8|0,0:0|0:0,0:0:0:0:
292,4,32818,1,2,0:2:0:0:
292,4,32905,1,0,0:0:0:0:
292,4,32991,1,0,0:0:0:0:
176,56,33163,1,8,0:0:0:0:
96,284,33508,6,0,P|181:281|256:320,1,170,2|8,0:2|0:0,0:0:0:0:
400,376,34025,1,0,0:0:0:0:
400,376,34198,2,0,P|452:320|424:208,1,170,2|8,0:2|0:0,0:0:0:0:
392,164,34715,1,0,0:0:0:0:
256,192,34887,6,0,P|240:144|244:96,1,85,2|0,0:2|0:0,0:0:0:0:
328,4,35232,2,0,L|411:22,1,85,8|0,0:0|0:0,0:0:0:0:
475,145,35577,2,0,L|391:163,1,85,2|0,0:2|0:0,0:0:0:0:
256,192,35922,2,0,P|240:240|244:288,1,85,8|0,0:0|0:0,0:0:0:0:
136,384,36267,6,0,L|100:208,1,170,2|8,0:2|0:0,0:0:0:0:
20,236,36784,1,0,0:0:0:0:
37,152,36956,2,0,L|54:68,1,85,0|0,0:0|0:0,0:0:0:0:
182,198,37301,2,0,L|199:114,1,85,8|0,0:0|0:0,0:0:0:0:
312,269,37646,6,0,P|364:256|396:216,1,85,2|0,0:2|0:0,0:0:0:0:
424,156,37991,1,8,0:0:0:0:
424,156,38163,1,0,0:0:0:0:
284,112,38336,1,0,0:0:0:0:
284,112,38422,1,8,0:0:0:0:
284,112,38508,1,0,0:0:0:0:
228,271,38680,2,0,P|240:316|280:348,1,85,8|0,0:0|0:0,0:0:0:0:
416,384,39025,6,0,P|423:341|436:288,1,85,2|0,0:2|0:0,0:0:0:0:
512,180,39370,1,8,0:0:0:0:
476,104,39542,1,0,0:0:0:0:
356,116,39715,1,0,0:0:0:0:
332,232,39887,1,0,0:0:0:0:
432,300,40060,2,0,P|473:292|507:267,1,85,8|0,0:0|0:0,0:0:0:0:
424,180,40405,5,0,0:0:0:0:
280,156,40577,1,0,0:0:0:0:
256,300,40749,2,0,L|247:356,2,56.6666666666667,8|0|0,0:0|0:0|0:0,0:0:0:0:
184,212,41094,1,0,0:0:0:0:
184,212,41180,2,0,P|112:216|76:244,1,85,8|0,0:0|0:0,0:0:0:0:
36,276,41439,1,8,0:0:0:0:
120,384,41611,1,8,0:0:0:0:
120,384,41698,5,8,0:0:0:0:
120,384,41784,1,4,0:2:0:0:
268,216,42129,2,0,L|256:100,1,102,2|2,0:2|0:2,0:0:0:0:
247,40,42473,2,0,P|214:38|181:30,1,68,0|2,0:0|0:2,0:0:0:0:
116,104,42818,2,0,P|164:108|208:124,1,68,0|2,0:0|0:2,0:0:0:0:
324,48,43163,5,2,0:2:0:0:
192,232,43508,2,0,L|84:244,1,102,2|2,0:2|0:2,0:0:0:0:
28,288,43853,2,0,L|20:360,1,68,0|2,0:0|0:2,0:0:0:0:
120,384,44198,2,0,L|127:316,1,68,0|0,0:0|0:0,0:0:0:0:
144,160,44542,5,2,0:2:0:0:
368,128,44887,2,0,P|391:171|383:221,1,102,2|2,0:2|0:2,0:0:0:0:
316,184,45232,2,0,L|240:172,1,68,0|2,0:0|0:2,0:0:0:0:
312,76,45577,2,0,P|340:57|373:52,1,68,0|2,0:0|0:2,0:0:0:0:
499,147,45922,1,2,0:2:0:0:
364,343,46267,6,0,P|321:342|281:329,1,85,4|0,0:0|0:0,0:0:0:0:
172,236,46611,2,0,L|152:128,1,85,4|0,0:0|0:0,0:0:0:0:
340,236,46956,2,0,L|360:128,1,85,4|0,0:0|0:0,0:0:0:0:
256,56,47301,5,4,0:0:0:0:
172,36,47473,1,0,0:0:0:0:
96,76,47646,2,0,L|80:159,1,85,2|0,0:2|0:0,0:0:0:0:
172,236,47991,1,0,0:0:0:0:
256,208,48163,1,0,0:0:0:0:
340,236,48336,2,0,P|348:280|336:320,1,85,2|0,0:2|0:0,0:0:0:0:
212,384,48680,6,0,L|108:364,1,85,2|0,0:2|0:0,0:0:0:0:
88,220,49025,1,2,0:2:0:0:
172,236,49198,1,0,0:0:0:0:
340,236,49370,1,2,0:2:0:0:
424,220,49542,1,0,0:0:0:0:
463,71,49715,2,0,L|379:87,1,85,2|0,0:2|0:0,0:0:0:0:
256,68,50060,6,0,L|244:15,3,42.5,2|0|0|0,0:2|0:0|0:0|0:0,0:0:0:0:
146,108,50405,2,0,L|137:67,3,42.5,2|0|0|0,0:2|0:0|0:0|0:0,0:0:0:0:
96,212,50749,1,2,0:2:0:0:
100,232,50835,1,0,0:0:0:0:
105,253,50921,1,0,0:0:0:0:
109,274,51007,1,0,0:0:0:0:
114,295,51093,1,2,0:2:0:0:
118,315,51180,1,0,0:0:0:0:
124,337,51267,2,0,L|164:352,1,42.5,0|0,0:0|0:0,0:0:0:0:
256,308,51439,6,0,B|348:204|256:68|256:68|188:168|220:236,1,425,0|0,0:0|0:0,0:0:0:0:
348,352,52473,1,8,0:0:0:0:
468,148,52818,6,0,L|352:168,1,85,4|0,0:0|0:0,0:0:0:0:
256,68,53163,2,0,L|339:53,1,85,8|0,0:0|0:0,0:0:0:0:
472,28,53508,1,0,0:0:0:0:
468,148,53680,1,2,0:2:0:0:
339,52,53853,1,8,0:0:0:0:
256,188,54025,2,0,P|176:140|172:60,1,170,2|0,0:2|0:0,0:0:0:0:
348,144,54542,6,0,L|332:236,1,85,8|0,0:0|0:0,0:0:0:0:
228,356,54887,2,0,L|242:272,1,85,2|0,0:2|0:0,0:0:0:0:
356,312,55232,2,0,P|392:291|416:256,1,85,8|0,0:0|0:0,0:0:0:0:
432,172,55577,5,2,0:2:0:0:
384,64,55749,1,0,0:0:0:0:
268,88,55922,2,0,P|220:80|168:60,1,85,8|0,0:0|0:0,0:0:0:0:
21,136,56267,2,0,P|63:142|104:156,1,85,2|0,0:2|0:0,0:0:0:0:
212,204,56611,1,8,0:0:0:0:
129,289,56784,2,0,P|47:287|0:220,1,170,2|0,0:2|0:0,0:0:0:0:
40,53,57301,6,0,L|21:136,1,85,8|0,0:0|0:0,0:0:0:0:
129,289,57646,2,0,L|148:206,1,85,2|0,0:2|0:0,0:0:0:0:
256,72,57991,2,0,L|356:60,1,85,8|0,0:0|0:0,0:0:0:0:
491,139,58336,6,0,P|449:136|409:148,1,85,2|0,0:2|0:0,0:0:0:0:
319,263,58680,2,0,P|287:237|272:198,1,85,8|0,0:0|0:0,0:0:0:0:
400,232,59025,1,0,0:0:0:0:
376,364,59198,1,2,0:2:0:0:
248,330,59370,1,8,0:0:0:0:
272,196,59542,2,0,L|308:2,1,170,2|0,0:2|0:0,0:0:0:0:
184,4,60060,6,0,P|120:8|84:24,1,85,8|0,0:0|0:0,0:0:0:0:
0,124,60405,2,0,P|41:136|84:136,1,85,2|0,0:2|0:0,0:0:0:0:
196,272,60749,2,0,L|176:162,1,85,8|0,0:0|0:0,0:0:0:0:
164,104,61094,5,2,0:2:0:0:
264,172,61267,1,0,0:0:0:0:
196,272,61439,2,0,P|153:275|114:291,1,85,8|0,0:0|0:0,0:0:0:0:
52,352,61784,1,0,0:0:0:0:
32,268,61956,1,2,0:2:0:0:
108,156,62129,1,8,0:0:0:0:
236,196,62301,2,0,P|316:216|392:172,1,170,2|0,0:2|0:0,0:0:0:0:
508,148,62818,6,0,L|497:232,1,85,8|0,0:0|0:0,0:0:0:0:
336,328,63163,1,0,0:0:0:0:
336,328,63249,1,8,0:0:0:0:
336,328,63336,1,0,0:0:0:0:
404,276,63508,1,8,0:0:0:0:
416,360,63680,1,0,0:0:0:0:
256,296,63853,6,0,L|156:256,1,85,4|0,0:0|0:0,0:0:0:0:
256,88,64198,2,0,L|356:128,1,85,8|0,0:0|0:0,0:0:0:0:
256,192,64542,1,0,0:0:0:0:
178,119,64715,1,2,0:2:0:0:
324,36,64887,1,8,0:0:0:0:
364,200,65060,2,0,P|436:164|460:72,1,170,2|0,0:2|0:0,0:0:0:0:
324,36,65577,6,0,P|283:52|240:56,1,85,8|0,0:0|0:0,0:0:0:0:
132,116,65922,2,0,L|148:199,1,85,2|0,0:2|0:0,0:0:0:0:
347,283,66267,2,0,L|364:200,1,85,8|0,0:0|0:0,0:0:0:0:
380,116,66611,5,2,0:2:0:0:
280,184,66784,1,0,0:0:0:0:
347,283,66956,2,0,P|419:299|455:319,1,85,8|0,0:0|0:0,0:0:0:0:
504,209,67301,2,0,P|512:125|480:48,1,170,2|8,0:2|0:0,0:0:0:0:
372,0,67818,1,0,0:0:0:0:
292,88,67991,6,0,L|308:192,1,85,2|0,0:2|0:0,0:0:0:0:
220,296,68336,2,0,L|204:192,1,85,8|0,0:0|0:0,0:0:0:0:
108,140,68680,2,0,P|148:124|192:127,1,85,2|0,0:2|0:0,0:0:0:0:
404,244,69025,2,0,P|363:259|319:256,1,85,8|0,0:0|0:0,0:0:0:0:
140,352,69370,6,0,L|124:248,1,85,4|0,0:0|0:0,0:0:0:0:
108,140,69715,2,8,L|8:120,1,85,8|0,0:0|0:0,0:0:0:0:
89,21,70060,2,0,L|256:56,1,170,2|8,0:2|0:0,0:0:0:0:
376,80,70577,2,0,P|400:132|344:228,1,170,2|0,0:2|0:0,0:0:0:0:
212,284,71094,6,0,L|201:199,1,85,12|0,0:0|0:0,0:0:0:0:
255,55,71439,1,4,0:0:0:0:
328,8,71611,1,0,0:0:0:0:
376,80,71784,1,8,0:0:0:0:
397,82,71870,1,0,0:0:0:0:
418,80,71956,1,0,0:0:0:0:
438,74,72042,1,0,0:0:0:0:
457,64,72129,6,0,L|468:149,1,85,4|0,0:0|0:0,0:0:0:0:
440,292,72473,2,0,P|404:269|385:232,1,85,8|0,0:0|0:0,0:0:0:0:
312,136,72818,2,0,L|144:160,1,170,2|8,0:2|0:0,0:0:0:0:
35,104,73336,2,0,P|16:183|63:251,1,170,2|0,0:2|0:0,0:0:0:0:
244,228,73853,5,12,0:0:0:0:
143,160,74025,1,4,0:0:0:0:
64,251,74198,2,0,L|76:343,1,85,4|0,0:0|0:0,0:0:0:0:
220,384,74542,1,8,0:0:0:0:
236,370,74628,1,0,0:0:0:0:
248,352,74714,1,0,0:0:0:0:
255,332,74800,1,0,0:0:0:0:
256,311,74887,6,0,L|245:226,1,85,6|0,0:2|0:0,0:0:0:0:
300,64,75232,1,8,0:0:0:0:
380,96,75405,1,0,0:0:0:0:
312,148,75577,1,2,0:2:0:0:
232,116,75749,1,0,0:0:0:0:
232,116,75836,1,0,0:0:0:0:
232,116,75922,2,0,P|148:128|128:136,1,85,8|0,0:0|0:0,0:0:0:0:
36,172,76267,6,0,L|20:280,1,85,2|0,0:2|0:0,0:0:0:0:
128,364,76611,1,8,0:0:0:0:
141,280,76784,1,0,0:0:0:0:
224,258,76956,1,2,0:2:0:0:
272,332,77129,1,0,0:0:0:0:
272,332,77215,1,0,0:0:0:0:
272,332,77301,2,0,P|314:345|376:344,1,85,8|0,0:0|0:0,0:0:0:0:
472,324,77646,6,0,P|485:281|484:220,1,85,2|0,0:2|0:0,0:0:0:0:
432,96,77991,1,8,0:0:0:0:
348,116,78163,1,0,0:0:0:0:
264,136,78336,1,2,0:2:0:0:
324,200,78508,1,0,0:0:0:0:
324,200,78594,1,0,0:0:0:0:
324,200,78680,2,0,P|367:202|404:184,1,85,8|0,0:0|0:0,0:0:0:0:
288,52,79025,6,0,L|216:40,3,42.5,2|0|0|0,0:2|0:0|0:0|0:0,0:0:0:0:
180,136,79370,2,0,L|108:124,3,42.5,8|0|0|0,0:0|0:0|0:0|0:0,0:0:0:0:
40,71,79715,1,2,0:2:0:0:
30,90,79801,1,0,0:0:0:0:
24,111,79887,1,0,0:0:0:0:
22,132,79973,1,0,0:0:0:0:
25,153,80059,1,8,0:0:0:0:
31,173,80146,1,0,0:0:0:0:
42,192,80232,1,0,0:0:0:0:
55,208,80318,1,0,0:0:0:0:
72,221,80404,5,4,0:0:0:0:
44,256,85922,6,0,B|-8:164|56:32|56:32|168:56|192:132|192:132|256:112|320:132|320:132|344:56|456:32|456:32|520:164|468:256,1,952,2|2,3:2|0:0,0:0:0:0:
321,359,88680,6,0,B|288:374|256:354|256:354|224:374|191:359,1,136,2|2,2:0|0:0,0:0:0:0:
44,256,89370,1,2,0:0:0:0:
44,256,89542,2,0,L|56:100,1,136,2|2,0:0|0:0,0:0:0:0:
123,38,90060,2,0,L|191:43,1,68,2|0,0:0|0:0,0:0:0:0:
280,43,90405,6,0,P|274:77|255:105,1,68,2|0,0:0|0:0,0:0:0:0:
316,165,90749,2,0,P|288:184|256:192,1,68,2|0,0:0|0:0,0:0:0:0:
256,280,91094,2,0,P|222:273|194:254,1,68,2|0,0:0|0:0,0:0:0:0:
85,204,91439,6,0,P|72:269|101:329,1,136,2|0,0:0|0:0,0:0:0:0:
176,376,91956,1,0,0:0:0:0:
264,368,92129,2,0,L|424:352,1,136,2|0,0:0|0:0,0:0:0:0:
452,284,92646,1,0,0:0:0:0:
480,168,92818,6,0,P|413:167|360:208,1,136,2|0,0:0|0:0,0:0:0:0:
320,288,93336,1,0,0:0:0:0:
256,228,93508,2,0,L|240:132,1,68,2|0,0:0|0:0,0:0:0:0:
188,92,93853,2,0,P|151:93|116:84,1,68,0|0,0:0|0:0,0:0:0:0:
12,32,94198,6,0,L|36:196,1,136,2|0,0:0|0:0,0:0:0:0:
44,252,94715,1,0,0:0:0:0:
57,338,94887,2,0,P|128:348|184:316,1,136,2|0,0:0|0:0,0:0:0:0:
240,252,95405,1,0,0:0:0:0:
272,132,95577,6,0,L|292:56,1,68,2|0,0:0|0:0,0:0:0:0:
196,176,95922,2,0,L|120:156,1,68,2|0,0:0|0:0,0:0:0:0:
240,252,96267,2,0,L|224:316,2,45.3333333333333,2|0|0,0:0|0:0|0:0,0:0:0:0:
316,208,96611,2,0,L|380:224,2,45.3333333333333,2|0|0,0:0|0:0|0:0,0:0:0:0:
484,164,96956,6,0,L|352:129,1,136,2|0,0:0|0:0,0:0:0:0:
308,52,97473,1,0,0:0:0:0:
220,64,97646,2,0,P|208:128|248:196,1,136,2|0,0:0|0:0,0:0:0:0:
304,248,98163,1,0,0:0:0:0:
256,356,98336,6,0,L|176:364,1,68,2|0,0:0|0:0,0:0:0:0:
101,371,98680,2,0,P|43:339|24:275,1,136,0|2,0:0|0:0,0:0:0:0:
44,188,99198,1,0,0:0:0:0:
64,99,99370,2,0,P|95:113|118:137,1,68,0|0,0:0|0:0,0:0:0:0:
204,220,99715,6,0,L|240:68,1,136,2|0,0:0|0:0,0:0:0:0:
256,0,100232,1,0,0:0:0:0:
320,60,100405,2,0,P|380:52|400:40,1,68,2|0,0:0|0:0,0:0:0:0:
464,4,100749,2,0,L|484:88,1,68,0|0,0:0|0:0,0:0:0:0:
508,184,101094,6,0,P|448:192|428:204,1,68,2|0,0:0|0:0,0:0:0:0:
380,260,101439,2,0,P|304:264|256:232,1,136,0|2,0:0|0:0,0:0:0:0:
204,160,101956,1,0,0:0:0:0:
168,240,102129,2,0,L|180:320,1,68,0|0,0:0|0:0,0:0:0:0:
84,380,102473,5,0,0:0:0:0:
16,324,102646,1,0,0:0:0:0:
20,236,102818,2,0,P|72:220|100:200,1,68,2|0,0:0|0:0,0:0:0:0:
148,152,103163,1,0,0:0:0:0:
168,240,103336,1,0,0:0:0:0:
232,180,103508,2,0,L|256:116,1,68,2|0,0:0|0:0,0:0:0:0:
288,32,103853,5,0,0:0:0:0:
376,24,104025,1,0,0:0:0:0:
424,100,104198,2,0,P|432:156|424:188,1,68,2|0,0:0|0:0,0:0:0:0:
404,252,104542,2,0,L|468:264,2,45.3333333333333,2|0|0,0:0|0:0|0:0,0:0:0:0:
322,289,104887,2,0,L|256:276,1,68,2|0,0:0|0:0,0:0:0:0:
256,108,105232,5,4,0:2:0:0:
32,80,105577,2,0,L|45:181,1,102,2|2,0:2|0:2,0:0:0:0:
55,256,105922,2,0,P|112:264|140:280,1,68,0|2,0:0|0:2,0:0:0:0:
143,363,106267,2,0,P|177:361|209:350,1,68,0|2,0:0|0:2,0:0:0:0:
304,216,106611,5,2,0:2:0:0:
208,16,106956,2,0,L|87:42,1,102,2|2,0:2|0:2,0:0:0:0:
56,92,107301,2,0,P|84:109|118:112,1,68,0|2,0:0|0:2,0:0:0:0:
188,195,107646,2,0,P|213:173|224:142,1,68,0|2,0:0|0:2,0:0:0:0:
312,0,107991,5,2,0:2:0:0:
468,164,108336,2,0,L|455:265,1,102,2|2,0:2|0:2,0:0:0:0:
444,340,108680,2,0,L|368:352,1,68,0|2,0:0|0:2,0:0:0:0:
292,252,109025,2,0,L|359:241,1,68,0|2,0:0|0:2,0:0:0:0:
256,372,109370,1,2,0:2:0:0:
88,204,109715,6,0,P|88:156|108:116,1,85,4|0,0:0|0:0,0:0:0:0:
256,40,110060,2,0,L|256:125,1,85,4|0,0:0|0:0,0:0:0:0:
423,203,110405,2,0,P|425:161|409:122,1,85,4|0,0:0|0:0,0:0:0:0:
344,244,110749,5,4,0:0:0:0:
419,291,110922,1,0,0:0:0:0:
340,332,111094,2,0,L|256:316,1,85,2|0,0:2|0:0,0:0:0:0:
256,192,111439,1,0,0:0:0:0:
256,104,111611,1,0,0:0:0:0:
180,64,111784,2,0,L|152:156,1,85,2|0,0:2|0:0,0:0:0:0:
120,260,112129,5,2,0:2:0:0:
256,376,112387,5,2,0:2:0:0:
392,260,112646,5,2,0:2:0:0:
256,144,112818,5,8,0:0:0:0:
130,344,113163,1,2,0:2:0:0:
127,323,113249,1,2,0:2:0:0:
125,302,113335,1,2,0:2:0:0:
122,281,113421,1,2,0:2:0:0:
120,260,113508,6,0,L|110:172,1,85,4|0,0:0|0:0,0:0:0:0:
28,44,113853,2,0,L|37:128,1,85,8|0,0:0|0:0,0:0:0:0:
120,260,114198,1,0,0:0:0:0:
256,192,114370,1,2,0:2:0:0:
144,96,114542,1,8,0:0:0:0:
51,212,114715,2,0,P|44:293|108:343,1,170,2|0,0:2|0:0,0:0:0:0:
252,368,115232,6,0,L|280:268,1,85,8|0,0:0|0:0,0:0:0:0:
212,180,115577,2,0,P|170:186|136:211,1,85,2|0,0:2|0:0,0:0:0:0:
300,204,115922,2,0,P|364:184|388:152,1,85,8|0,0:0|0:2,0:0:0:0:
416,96,116267,5,2,0:2:0:0:
492,192,116439,1,0,0:0:0:0:
416,288,116611,2,0,L|332:304,1,85,8|0,0:0|0:0,0:0:0:0:
192,376,116956,2,0,L|176:292,1,85,0|2,0:0|0:2,0:0:0:0:
152,176,117301,1,8,0:0:0:0:
48,115,117473,2,0,P|23:194|68:263,1,170,2|0,0:2|0:0,0:0:0:0:
236,203,117991,6,0,P|240:162|222:124,1,85,8|0,0:0|0:0,0:0:0:0:
131,3,118336,2,0,L|144:88,1,85,2|0,0:2|0:0,0:0:0:0:
368,88,118680,2,0,L|380:3,1,85,8|0,0:0|0:0,0:0:0:0:
356,176,119025,6,0,P|398:177|438:189,1,85,2|0,0:2|0:0,0:0:0:0:
338,293,119370,2,0,P|296:292|256:280,1,85,8|0,0:0|0:0,0:0:0:0:
172,192,119715,1,0,0:0:0:0:
256,108,119887,1,2,0:2:0:0:
255,279,120060,1,8,0:0:0:0:
88,256,120232,2,0,P|44:188|56:104,1,170,2|0,0:2|0:0,0:0:0:0:
156,0,120749,6,0,L|163:84,1,85,8|0,0:0|0:0,0:0:0:0:
180,228,121094,2,0,P|244:212|276:184,1,85,2|0,0:2|0:0,0:0:0:0:
349,84,121439,2,0,P|390:89|427:110,1,85,8|0,0:0|0:2,0:0:0:0:
476,184,121784,5,2,0:2:0:0:
472,300,121956,1,0,0:0:0:0:
356,328,122129,2,0,L|336:232,1,85,8|0,0:0|0:0,0:0:0:0:
320,160,122473,1,0,0:0:0:0:
256,220,122646,1,2,0:2:0:0:
156,312,122818,1,8,0:0:0:0:
128,180,122991,2,0,L|88:-8,1,170,2|0,0:2|0:0,0:0:0:0:
8,132,123508,6,0,P|20:180|56:212,1,85,8|0,0:0|0:0,0:0:0:0:
192,240,123853,1,0,0:0:0:0:
192,240,123939,1,8,0:0:0:0:
192,240,124025,1,0,0:0:0:0:
212,156,124198,1,8,0:0:0:0:
128,180,124370,1,0,0:0:0:0:
174,342,124542,6,0,L|256:320,1,85,4|0,0:0|0:0,0:0:0:0:
384,180,124887,2,0,L|302:202,1,85,8|0,0:0|0:0,0:0:0:0:
412,280,125232,1,0,0:0:0:0:
466,157,125405,1,2,0:2:0:0:
356,80,125577,1,8,0:0:0:0:
301,202,125749,2,0,P|220:184|172:96,1,170,2|0,0:2|0:0,0:0:0:0:
304,16,126267,6,0,P|336:0|385:2,1,85,8|0,0:0|0:0,0:0:0:0:
500,72,126611,2,0,L|464:180,1,85,2|0,0:2|0:0,0:0:0:0:
327,282,126956,2,0,L|300:201,1,85,8|0,0:0|0:2,0:0:0:0:
272,120,127301,5,2,0:2:0:0:
216,228,127473,1,0,0:0:0:0:
327,282,127646,2,0,P|376:272|420:240,1,85,8|0,0:0|0:0,0:0:0:0:
492,361,127991,2,0,L|512:192,1,170,2|8,0:2|0:0,0:2:0:0:
440,96,128508,1,0,0:0:0:0:
335,151,128680,6,0,P|294:143|255:126,1,85,2|0,0:2|0:0,0:0:0:0:
176,232,129025,2,0,P|228:244|272:268,1,85,8|0,0:0|0:0,0:0:0:0:
356,320,129370,2,0,L|344:212,1,85,2|0,0:2|0:0,0:0:0:0:
156,64,129715,2,0,L|168:172,1,85,8|0,0:0|0:0,0:0:0:0:
83,300,130060,6,0,P|46:280|24:244,1,85,4|0,0:0|0:0,0:0:0:0:
179,279,130405,2,0,P|181:322|163:360,1,85,8|0,0:0|0:0,0:0:0:0:
24,244,130749,2,0,L|52:72,1,170,2|8,0:2|0:0,0:0:0:0:
148,4,131267,2,0,P|228:4|300:68,1,170,2|0,0:2|0:0,0:0:0:0:
336,208,131784,6,0,L|428:196,1,85,12|0,0:0|0:0,0:0:0:0:
368,324,132129,1,4,0:0:0:0:
283,334,132301,1,0,0:0:0:0:
220,276,132473,1,8,0:0:0:0:
217,254,132559,1,0,0:0:0:0:
214,233,132645,1,0,0:0:0:0:
211,212,132731,1,0,0:0:0:0:
209,191,132818,6,0,L|198:106,1,85,4|0,0:0|0:0,0:0:0:0:
303,22,133163,2,0,L|313:106,1,85,8|0,0:0|0:0,0:0:0:0:
332,224,133508,2,0,P|416:212|500:260,1,170,2|8,0:2|0:0,0:0:0:0:
413,345,134025,2,0,P|330:357|256:320,1,170,2|0,0:2|0:0,0:0:0:0:
152,180,134542,5,12,0:0:0:0:
256,120,134715,1,4,0:0:0:0:
360,180,134887,2,0,L|344:280,1,85,4|0,0:0|0:0,0:0:0:0:
179,346,135232,1,8,0:0:0:0:
157,347,135318,1,0,0:0:0:0:
136,345,135404,1,0,0:0:0:0:
116,339,135490,1,0,0:0:0:0:
97,330,135577,6,0,L|83:246,1,85,6|0,0:2|0:0,0:0:0:0:
32,108,135922,1,8,0:0:0:0:
112,76,136094,1,0,0:0:0:0:
180,128,136267,1,2,0:2:0:0:
163,214,136439,1,0,0:0:0:0:
163,214,136525,1,0,0:0:0:0:
163,214,136611,2,0,L|264:240,1,85,8|0,0:0|0:0,0:0:0:0:
349,170,136956,6,0,L|248:144,1,85,2|0,0:2|0:0,0:0:0:0:
224,320,137301,1,8,0:0:0:0:
288,380,137473,1,0,0:0:0:0:
308,296,137646,1,2,0:2:0:0:
372,356,137818,1,0,0:0:0:0:
372,356,137905,1,0,0:0:0:0:
372,356,137991,2,0,P|436:348|472:328,1,85,8|0,0:0|0:0,0:0:0:0:
512,192,138336,6,0,L|488:80,1,85,2|0,0:2|0:0,0:0:0:0:
376,0,138680,1,8,0:0:0:0:
358,84,138853,1,0,0:0:0:0:
292,28,139025,1,2,0:2:0:0:
274,112,139198,1,0,0:0:0:0:
274,112,139284,1,0,0:0:0:0:
274,112,139370,2,0,P|224:111|180:96,1,85,8|0,0:0|0:0,0:0:0:0:
40,160,139715,6,0,L|52:220,3,42.5,2|0|0|0,0:2|0:0|0:0|0:0,0:0:0:0:
72,308,140060,2,0,L|84:368,3,42.5,8|0|0|0,0:0|0:0|0:0|0:0,0:0:0:0:
152,236,140405,1,2,0:2:0:0:
171,227,140491,1,0,0:0:0:0:
192,223,140577,1,0,0:0:0:0:
213,222,140663,1,0,0:0:0:0:
234,226,140749,1,8,0:0:0:0:
254,233,140836,1,0,0:0:0:0:
272,244,140922,2,0,L|292:188,1,42.5,0|0,0:0|0:0,0:0:0:0:
