osu file format v14

[General]
AudioFilename: audio.mp3
AudioLeadIn: 2000
PreviewTime: 52640
Countdown: 0
SampleSet: Normal
StackLeniency: 0.3
Mode: 0
LetterboxInBreaks: 0
WidescreenStoryboard: 0

[Editor]
Bookmarks: 215516
DistanceSpacing: 1.2
BeatDivisor: 4
GridSize: 4
TimelineZoom: 1

[Metadata]
Title:FINE!! (Cut Ver.)
TitleUnicode:FINE!! (Cut Ver.)
Artist:TOMATO GUMMY feat. Shirakami Fubuki
ArtistUnicode:トマト組 feat. 白上フブキ
Creator:Frey
Version:Hard
Source:
Tags:j pop j-pop ShirakamiFINE!! アシノ Ashino 青時 Seiji C97 Comiket 97 hololive cut version vtb vtuber virtual youtuber Japanese バーチャルユーチューバー cover ホロライブ electronic
BeatmapID:2692597
BeatmapSetID:1298047

[Difficulty]
HPDrainRate:5
CircleSize:4
OverallDifficulty:6
ApproachRate:7.5
SliderMultiplier:1.4
SliderTickRate:1

[Events]
//Background and Video events
0,0,"77115862_p0.jpg",0,0
//Break Periods
2,80605,85022
//Storyboard Layer 0 (Background)
//Storyboard Layer 1 (Fail)
//Storyboard Layer 2 (Pass)
//Storyboard Layer 3 (Foreground)
//Storyboard Layer 4 (Overlay)
//Storyboard Sound Samples

[TimingPoints]
405,344.827586206897,4,2,0,50,1,0
5922,-100,4,1,1,55,0,0
52818,-100,4,1,1,60,0,1
74887,-100,4,1,1,55,0,0
85922,-125,4,2,0,55,0,0
88680,-100,4,2,0,55,0,0
105232,-100,4,1,1,55,0,0
113508,-100,4,1,1,60,0,1
135577,-100,4,1,1,55,0,0

[Colours]
Combo1 : 0,213,106
Combo2 : 255,128,128
Combo3 : 74,165,255
Combo4 : 255,255,111

[HitObjects]
184,236,405,6,0,P|96:216|64:172,2,140,0|0|2,0:0|0:0|0:0,0:0:0:0:
328,148,1439,1,2,0:0:0:0:
328,148,1611,1,0,0:0:0:0:
380,308,1956,6,0,L|444:316,2,35,0|0|2,0:0|0:0|0:0,0:0:0:0:
296,296,2301,1,0,0:0:0:0:
260,220,2473,2,0,L|244:80,1,140,0|2,0:0|0:0,0:0:0:0:
184,20,2991,1,0,0:0:0:0:
184,20,3077,1,0,0:0:0:0:
184,20,3163,6,0,P|120:28|96:44,1,70,0|0,0:0|0:0,0:0:0:0:
64,96,3508,2,0,L|52:184,1,70,2|0,0:0|0:0,0:0:0:0:
44,248,3853,2,0,P|78:247|111:257,1,70,0|0,0:0|0:0,0:0:0:0:
184,304,4198,1,0,0:0:0:0:
184,304,4370,1,2,0:0:0:0:
348,12,5060,1,0,0:0:0:0:
348,12,5232,1,2,0:0:0:0:
404,344,5922,6,0,P|484:296|500:228,2,140,4|8|0,0:0|0:0|0:0,0:0:0:0:
320,328,6784,1,0,0:0:0:0:
256,272,6956,2,0,L|244:184,1,70,8|0,0:0|0:0,0:0:0:0:
280,124,7301,5,0,0:0:0:0:
364,112,7473,2,0,P|412:124|448:152,2,70,0|8|0,0:0|0:0|0:0,0:0:0:0:
312,44,7991,1,0,0:0:0:0:
228,56,8163,2,0,L|216:-4,2,35,0|0|8,0:0|0:0|0:0,0:0:0:0:
120,184,8680,6,0,L|91:46,2,140,0|8|0,0:0|0:0|0:0,0:0:0:0:
200,216,9542,1,0,0:0:0:0:
160,292,9715,2,0,P|108:308|80:304,1,70,8|0,0:0|0:0,0:0:0:0:
12,276,10060,6,0,L|0:336,2,35,2|0|0,0:2|0:0|0:0,0:0:0:0:
28,192,10405,1,8,0:0:0:0:
44,108,10577,2,0,L|128:92,1,70,0|0,0:0|0:0,0:0:0:0:
148,16,10922,1,0,0:0:0:0:
232,32,11094,1,8,0:0:0:0:
340,164,11439,6,0,P|408:174|469:143,2,140,0|8|0,0:0|0:0|0:0,0:0:0:0:
272,116,12301,1,0,0:0:0:0:
188,128,12473,2,0,L|200:200,1,70,8|0,0:0|0:0,0:0:0:0:
216,280,12818,5,0,0:0:0:0:
296,308,12991,2,0,P|332:296|380:296,2,70,0|8|0,0:0|0:0|0:0,0:0:0:0:
233,363,13508,1,0,0:0:0:0:
152,336,13680,2,0,L|108:320,2,35,0|0|8,0:0|0:0|0:0,0:0:0:0:
248,196,14198,6,0,P|324:190|392:232,2,140,0|8|0,0:0|0:0|0:0,0:0:0:0:
180,244,15060,1,0,0:0:0:0:
96,232,15232,2,0,L|80:140,1,70,8|0,0:0|0:0,0:0:0:0:
72,80,15577,6,0,P|112:76|160:60,1,70,0|0,0:0|0:0,0:0:0:0:
220,44,15922,1,8,0:0:0:0:
292,112,16094,2,0,P|317:108|344:100,2,35,0|0|0,0:0|0:0|0:0,0:0:0:0:
220,180,16439,2,0,P|194:176|168:168,2,35,0|0|8,0:0|0:0|0:0,0:0:0:0:
292,332,16956,6,0,L|436:308,1,140,0|8,0:0|0:0,0:0:0:0:
512,296,17473,1,0,0:0:0:0:
512,212,17646,2,0,P|456:176|380:192,1,140,0|8,0:0|0:0,0:0:0:0:
320,240,18163,1,0,0:0:0:0:
236,256,18336,6,0,L|212:117,1,140,0|8,0:0|0:0,0:0:0:0:
160,52,18853,1,0,0:0:0:0:
76,36,19025,2,0,P|64:96|68:128,1,70,0|0,0:0|0:0,0:0:0:0:
124,164,19370,1,8,0:0:0:0:
244,40,19715,6,0,P|304:12|388:24,1,140,0|8,0:0|0:0,0:0:0:0:
452,56,20232,1,0,0:0:0:0:
488,132,20405,2,0,L|464:300,1,140,0|8,0:0|0:0,0:0:0:0:
456,356,20922,1,0,0:0:0:0:
372,364,21094,6,0,P|332:296|340:232,1,140,0|8,0:0|0:0,0:0:0:0:
384,168,21611,1,0,0:0:0:0:
320,112,21784,2,0,L|312:52,2,35,0|0|0,0:0|0:0|0:0,0:0:0:0:
272,184,22129,1,8,0:0:0:0:
180,44,22473,6,0,L|20:68,1,140,0|8,0:0|0:0,0:0:0:0:
0,140,22991,1,0,0:0:0:0:
16,224,23163,2,0,P|84:216|152:244,1,140,0|8,0:0|0:0,0:0:0:0:
208,304,23680,1,0,0:0:0:0:
255,376,23853,6,0,P|292:318|276:252,1,140,0|8,0:0|0:0,0:0:0:0:
216,192,24370,1,0,0:0:0:0:
256,116,24542,2,0,L|408:136,1,140,0|8,0:0|0:0,0:0:0:0:
456,76,25060,1,0,0:0:0:0:
408,8,25232,6,0,P|336:4|268:44,1,140,0|8,0:0|0:0,0:0:0:0:
256,116,25749,1,0,0:0:0:0:
284,196,25922,2,0,L|368:208,1,70,0|0,0:0|0:0,0:0:0:0:
436,220,26267,2,0,P|460:252|464:288,1,70,8|0,0:0|0:0,0:0:0:0:
440,360,26611,6,0,P|372:372|304:336,1,140,0|8,0:0|0:0,0:0:0:0:
256,276,27129,1,0,0:0:0:0:
172,292,27301,2,0,L|152:344,2,35,0|8|0,0:0|0:0|0:0,0:0:0:0:
202,210,27646,1,8,0:0:0:0:
256,52,27991,6,0,L|408:32,1,140,2|8,0:2|0:0,0:0:0:0:
472,68,28508,1,0,0:0:0:0:
504,148,28680,2,0,P|472:200|368:208,1,140,2|8,0:2|0:0,0:0:0:0:
324,176,29198,1,0,0:0:0:0:
240,196,29370,6,0,L|220:368,1,140,2|8,0:2|0:0,0:0:0:0:
296,380,29887,1,0,0:0:0:0:
380,360,30060,2,0,P|428:332|444:304,1,70,2|0,0:2|0:0,0:0:0:0:
444,236,30405,1,8,0:0:0:0:
376,84,30749,6,0,P|288:80|244:108,1,140,2|8,0:2|0:0,0:0:0:0:
200,180,31267,1,0,0:0:0:0:
153,253,31439,2,0,L|12:228,1,140,0|8,0:0|0:0,0:0:0:0:
0,312,31956,1,0,0:0:0:0:
56,376,32129,6,0,P|112:372|140:356,1,70,2|0,0:2|0:0,0:0:0:0:
196,324,32473,2,0,P|229:313|263:314,1,70,8|0,0:0|0:0,0:0:0:0:
344,344,32818,2,0,L|376:376,2,35,2|0|0,0:2|0:0|0:0,0:0:0:0:
374,263,33163,1,8,0:0:0:0:
216,204,33508,6,0,P|160:144|160:76,1,140,2|8,0:2|0:0,0:0:0:0:
204,20,34025,1,0,0:0:0:0:
288,28,34198,2,0,L|460:44,1,140,2|8,0:2|0:0,0:0:0:0:
488,104,34715,1,0,0:0:0:0:
500,188,34887,6,0,L|404:200,1,70,2|0,0:2|0:0,0:0:0:0:
360,244,35232,2,0,P|348:288|356:324,1,70,8|0,0:0|0:0,0:0:0:0:
421,365,35577,2,0,P|483:338|498:272,1,140,2|8,0:2|0:0,0:0:0:0:
360,168,36267,6,0,L|204:188,1,140,2|8,0:2|0:0,0:0:0:0:
192,268,36784,1,0,0:0:0:0:
162,350,36956,2,0,P|94:358|22:290,1,140,0|8,0:0|0:0,0:0:0:0:
24,236,37473,1,0,0:0:0:0:
12,152,37646,6,0,L|150:134,1,140,2|8,0:2|0:0,0:0:0:0:
204,68,38163,1,0,0:0:0:0:
236,148,38336,2,0,L|256:200,2,35,0|8|0,0:0|0:0|0:0,0:0:0:0:
288,80,38680,1,8,0:0:0:0:
372,232,39025,6,0,L|384:136,1,70,2|0,0:2|0:0,0:0:0:0:
392,80,39370,1,8,0:0:0:0:
464,32,39542,1,0,0:0:0:0:
504,108,39715,2,0,P|508:144|496:176,1,70,0|0,0:0|0:0,0:0:0:0:
456,248,40060,2,0,P|444:280|448:315,1,70,8|0,0:0|0:0,0:0:0:0:
400,384,40405,5,0,0:0:0:0:
340,322,40577,1,0,0:0:0:0:
256,332,40749,2,0,L|176:342,2,46.6666666666667,8|0|0,0:0|0:0|0:0,0:0:0:0:
256,248,41094,1,0,0:0:0:0:
256,248,41180,2,0,L|120:264,1,105,8|8,0:0|0:0,0:0:0:0:
68,272,41611,1,8,0:0:0:0:
68,272,41698,1,8,0:0:0:0:
68,272,41784,5,4,0:2:0:0:
65,103,42129,2,0,P|116:96|163:117,1,105,2|2,0:2|0:2,0:0:0:0:
180,140,42473,2,0,L|249:131,1,70,0|2,0:0|0:2,0:0:0:0:
264,48,42818,2,0,L|333:56,1,70,0|2,0:0|0:2,0:0:0:0:
420,4,43163,5,2,0:2:0:0:
512,152,43508,2,0,L|496:288,1,105,2|2,0:2|0:2,0:0:0:0:
496,284,43853,2,0,P|444:276|404:284,1,70,0|2,0:0|0:2,0:0:0:0:
344,296,44198,2,0,L|351:365,1,70,0|0,0:0|0:0,0:0:0:0:
256,356,44542,5,2,0:2:0:0:
256,192,44887,2,0,L|124:204,1,105,2|2,0:2|0:2,0:0:0:0:
128,184,45232,2,0,P|92:184|52:168,1,70,0|2,0:0|0:2,0:0:0:0:
0,236,45577,2,0,L|8:316,1,70,0|2,0:0|0:2,0:0:0:0:
84,368,45922,1,2,0:2:0:0:
256,348,46267,6,0,P|284:316|296:272,1,70,4|0,0:0|0:0,0:0:0:0:
204,244,46611,2,0,L|192:152,1,70,4|0,0:0|0:0,0:0:0:0:
308,140,46956,2,0,L|320:232,1,70,4|0,0:0|0:0,0:0:0:0:
376,288,47301,6,0,P|424:300|456:296,1,70,4|0,0:0|0:0,0:0:0:0:
500,236,47646,2,0,P|510:202|510:167,1,70,2|0,0:2|0:0,0:0:0:0:
468,92,47991,2,0,L|396:100,1,70,0|0,0:0|0:0,0:0:0:0:
325,52,48336,2,0,L|256:60,1,70,2|0,0:2|0:0,0:0:0:0:
164,20,48680,5,2,0:2:0:0:
148,104,48853,1,0,0:0:0:0:
68,136,49025,2,0,P|44:100|40:52,1,70,2|0,0:2|0:0,0:0:0:0:
80,0,49370,1,2,0:2:0:0:
164,20,49542,1,0,0:0:0:0:
248,40,49715,2,0,L|228:128,1,70,2|0,0:2|0:0,0:0:0:0:
208,204,50060,6,0,L|152:216,2,35,2|0|0,0:2|0:0|0:0,0:0:0:0:
304,204,50405,2,0,L|360:216,2,35,2|0|0,0:2|0:0|0:0,0:0:0:0:
332,296,50749,1,2,0:2:0:0:
332,296,50836,1,0,0:0:0:0:
332,296,50922,1,0,0:0:0:0:
256,356,51094,1,2,0:2:0:0:
256,356,51180,1,0,0:0:0:0:
256,356,51267,1,0,0:0:0:0:
180,296,51439,6,0,P|56:264|128:92,1,350,0|0,0:0|0:0,0:0:0:0:
208,120,52473,1,8,0:0:0:0:
304,264,52818,6,0,L|292:176,1,70,4|0,0:0|0:0,0:0:0:0:
384,148,53163,2,0,L|393:217,1,70,8|0,0:0|0:0,0:0:0:0:
408,316,53508,1,0,0:0:0:0:
408,316,53680,1,2,0:2:0:0:
488,348,53853,1,8,0:0:0:0:
508,264,54025,2,0,L|487:111,1,140,2|0,0:2|0:0,0:0:0:0:
475,39,54542,6,0,P|443:49|417:73,1,70,8|0,0:0|0:0,0:0:0:0:
336,19,54887,2,0,P|320:51|319:86,1,70,2|0,0:2|0:0,0:0:0:0:
220,104,55232,2,0,P|232:137|256:163,1,70,8|0,0:0|0:0,0:0:0:0:
328,208,55577,6,0,L|423:196,1,70,2|0,0:2|0:0,0:0:0:0:
440,288,55922,2,0,L|370:296,1,70,8|0,0:0|0:0,0:0:0:0:
300,368,56267,1,2,0:2:0:0:
300,368,56439,1,0,0:0:0:0:
236,312,56611,1,8,0:0:0:0:
159,351,56784,2,0,P|157:282|202:231,1,140,2|0,0:2|0:0,0:0:0:0:
282,197,57301,6,0,L|296:108,1,70,8|0,0:0|0:0,0:0:0:0:
196,148,57646,2,0,L|206:78,1,70,2|0,0:2|0:0,0:0:0:0:
120,29,57991,2,0,L|110:99,1,70,8|0,0:0|0:0,0:0:0:0:
96,184,58336,6,0,P|36:196|12:208,1,70,2|0,0:2|0:0,0:0:0:0:
0,296,58680,2,0,P|33:307|67:311,1,70,8|0,0:0|0:0,0:0:0:0:
144,376,59025,1,0,0:0:0:0:
144,376,59198,1,2,0:2:0:0:
224,348,59370,1,8,0:0:0:0:
304,320,59542,2,0,L|284:172,1,140,2|0,0:2|0:0,0:0:0:0:
272,96,60060,6,0,P|324:72|344:52,1,70,8|0,0:0|0:0,0:0:0:0:
416,8,60405,2,0,P|427:40|448:69,1,70,2|0,0:2|0:0,0:0:0:0:
504,152,60749,2,0,P|471:163|442:184,1,70,8|0,0:0|0:0,0:0:0:0:
376,236,61094,6,0,L|385:305,1,70,2|0,0:2|0:0,0:0:0:0:
304,364,61439,2,0,L|294:294,1,70,8|0,0:0|0:0,0:0:0:0:
202,261,61784,1,0,0:0:0:0:
202,261,61956,1,2,0:2:0:0:
136,316,62129,1,8,0:0:0:0:
60,280,62301,2,0,P|28:212|44:148,1,140,2|0,0:2|0:0,0:0:0:0:
96,84,62818,6,0,P|144:84|172:100,1,70,8|0,0:0|0:0,0:0:0:0:
224,172,63163,1,0,0:0:0:0:
224,172,63249,1,8,0:0:0:0:
224,172,63336,1,0,0:0:0:0:
320,156,63508,2,0,L|328:68,1,70,8|0,0:0|0:0,0:0:0:0:
396,16,63853,6,0,L|484:24,1,70,4|0,0:0|0:0,0:0:0:0:
512,112,64198,2,0,P|472:140|456:172,1,70,8|0,0:0|0:0,0:0:0:0:
432,252,64542,1,0,0:0:0:0:
432,252,64715,1,2,0:2:0:0:
348,240,64887,1,8,0:0:0:0:
312,316,65060,2,0,P|240:328|176:288,1,140,2|0,0:2|0:0,0:0:0:0:
136,228,65577,6,0,L|60:256,1,70,8|0,0:0|0:0,0:0:0:0:
0,180,65922,2,0,L|65:155,1,70,2|0,0:2|0:0,0:0:0:0:
124,76,66267,2,0,P|172:96|192:120,1,70,8|0,0:0|0:0,0:0:0:0:
212,188,66611,6,0,L|224:280,1,70,2|0,0:2|0:0,0:0:0:0:
300,196,66956,2,0,L|288:104,1,70,8|0,0:0|0:0,0:0:0:0:
344,60,67301,2,0,P|406:82|484:76,1,140,2|8,0:2|0:0,0:0:0:0:
512,156,67818,1,0,0:0:0:0:
456,220,67991,6,0,P|416:224|368:240,1,70,2|0,0:2|0:0,0:0:0:0:
352,324,68336,2,0,P|318:332|283:335,1,70,8|0,0:0|0:0,0:0:0:0:
192,376,68680,2,0,L|180:304,1,70,2|0,0:2|0:0,0:0:0:0:
164,208,69025,2,0,L|152:136,1,70,8|0,0:0|0:0,0:0:0:0:
64,96,69370,6,0,P|29:108|5:136,1,70,4|0,0:0|0:0,0:0:0:0:
20,216,69715,2,8,P|51:234|88:240,1,70,8|0,0:0|0:0,0:0:0:0:
164,208,70060,2,0,P|228:232|256:296,1,140,2|8,0:2|0:0,0:0:0:0:
200,360,70577,2,0,L|48:376,1,140,2|0,0:2|0:0,0:0:0:0:
12,285,71094,6,0,L|20:216,1,70,12|0,0:0|0:0,0:0:0:0:
32,116,71439,1,4,0:0:0:0:
100,64,71611,1,0,0:0:0:0:
176,100,71784,2,0,P|220:96|260:76,1,70,8|0,0:0|0:0,0:0:0:0:
324,32,72129,6,0,P|339:62|340:97,1,70,4|0,0:0|0:0,0:0:0:0:
300,172,72473,2,0,P|256:176|216:196,1,70,8|0,0:0|0:0,0:0:0:0:
172,244,72818,2,0,L|195:382,1,140,2|8,0:2|0:0,0:0:0:0:
272,340,73336,2,0,P|340:334|402:365,1,140,2|0,0:2|0:0,0:0:0:0:
500,384,73853,6,0,L|488:300,1,70,12|4,0:0|0:0,0:0:0:0:
476,215,74198,2,0,P|441:214|408:202,1,70,4|0,0:0|0:0,0:0:0:0:
336,136,74542,2,0,P|288:160|268:188,1,70,8|0,0:0|0:0,0:0:0:0:
256,268,74887,5,6,0:2:0:0:
176,240,75060,1,0,0:0:0:0:
140,164,75232,2,0,L|132:80,1,70,8|0,0:0|0:0,0:0:0:0:
164,16,75577,1,2,0:2:0:0:
80,28,75749,2,0,L|32:-8,2,35,0|0|8,0:0|0:0|0:0,0:0:0:0:
48,108,76094,1,0,0:0:0:0:
55,207,76267,6,0,P|75:236|105:254,1,70,2|0,0:2|0:0,0:0:0:0:
123,336,76611,2,0,P|155:322|179:296,1,70,8|0,0:0|0:0,0:0:0:0:
228,228,76956,1,2,0:2:0:0:
264,304,77129,2,0,L|272:360,2,35,0|0|8,0:0|0:0|0:0,0:0:0:0:
312,236,77473,1,0,0:0:0:0:
364,320,77646,5,2,0:2:0:0:
448,312,77818,1,0,0:0:0:0:
500,244,77991,2,0,L|508:144,1,70,8|0,0:0|0:0,0:0:0:0:
512,88,78336,1,2,0:2:0:0:
432,56,78508,2,0,L|428:21,2,35,0|0|8,0:0|0:0|0:0,0:0:0:0:
360,104,78853,1,0,0:0:0:0:
352,204,79025,6,0,L|348:238,2,35,2|0|0,0:2|0:0|0:0,0:0:0:0:
272,148,79370,2,0,L|237:144,2,35,8|0|0,0:0|0:0|0:0,0:0:0:0:
360,104,79715,1,2,0:2:0:0:
360,104,79801,1,0,0:0:0:0:
360,104,79887,1,0,0:0:0:0:
440,160,80060,1,8,0:0:0:0:
440,160,80146,1,0,0:0:0:0:
440,160,80232,1,0,0:0:0:0:
432,260,80405,5,4,0:0:0:0:
64,240,85922,6,0,B|20:152|92:56|92:56|168:68|200:132|200:132|256:116|312:132|312:132|344:68|420:56|420:56|492:152|448:240,1,784,2|2,3:2|0:0,0:0:0:0:
324,356,88680,6,0,P|256:344|176:360,1,140,2|2,2:0|0:0,0:0:0:0:
120,200,89370,2,0,P|256:168|392:200,1,280,2|2,0:0|0:0,0:0:0:0:
256,300,90405,5,2,0:0:0:0:
92,340,90749,1,2,0:0:0:0:
0,200,91094,1,2,0:0:0:0:
108,72,91439,6,0,L|252:56,2,140,2|0|2,0:0|0:0|0:0,0:0:0:0:
0,200,92473,2,0,P|36:200|72:212,1,70,0|0,0:0|0:0,0:0:0:0:
140,252,92818,2,0,P|228:240|264:196,1,140,2|0,0:0|0:0,0:0:0:0:
288,124,93336,1,0,0:0:0:0:
372,104,93508,2,0,L|384:184,1,70,2|0,0:0|0:0,0:0:0:0:
396,256,93853,1,0,0:0:0:0:
456,99,94198,6,0,P|427:38|361:19,2,140,2|0|2,0:0|0:0|0:0,0:0:0:0:
396,256,95232,2,0,L|320:268,1,70,0|0,0:0|0:0,0:0:0:0:
244,280,95577,6,0,L|212:192,1,70,2|0,0:0|0:0,0:0:0:0:
291,169,95922,2,0,L|268:104,1,70,2|0,0:0|0:0,0:0:0:0:
185,117,96267,2,0,L|116:128,1,70,2|0,0:0|0:0,0:0:0:0:
96,212,96611,2,0,L|26:222,1,70,2|0,0:0|0:0,0:0:0:0:
5,305,96956,6,0,P|63:343|132:337,2,140,2|0|2,0:0|0:0|0:0,0:0:0:0:
168,260,97991,2,0,P|200:284|216:324,1,70,0|0,0:0|0:0,0:0:0:0:
298,310,98336,2,0,P|315:279|344:260,1,70,2|0,0:0|0:0,0:0:0:0:
424,236,98680,2,0,P|468:284|472:368,2,140,0|2|0,0:0|0:0|0:0,0:0:0:0:
256,192,99715,6,0,L|256:32,2,140,2|0|2,0:0|0:0|0:0,0:0:0:0:
256,276,100577,2,0,P|183:275|120:304,1,140,0|0,0:0|0:0,0:0:0:0:
52,348,101094,2,0,L|24:264,1,70,2|0,0:0|0:0,0:0:0:0:
4,200,101439,2,0,P|76:200|140:172,2,140,0|2|0,0:0|0:0|0:0,0:0:0:0:
76,48,102473,6,0,L|176:72,1,70,0|0,0:0|0:0,0:0:0:0:
228,84,102818,2,0,L|248:164,1,70,2|0,0:0|0:0,0:0:0:0:
267,232,103163,2,0,L|284:300,1,70,0|0,0:0|0:0,0:0:0:0:
367,319,103508,2,0,L|436:336,1,70,2|0,0:0|0:0,0:0:0:0:
512,300,103853,5,0,0:0:0:0:
480,220,104025,1,0,0:0:0:0:
396,216,104198,2,0,P|352:196|332:168,1,70,2|0,0:0|0:0,0:0:0:0:
316,100,104542,2,0,L|328:20,2,46.6666666666667,2|0|0,0:0|0:0|0:0,0:0:0:0:
256,160,104887,2,0,L|240:256,1,70,2|0,0:0|0:0,0:0:0:0:
176,300,105232,5,4,0:2:0:0:
24,376,105577,2,0,P|3:328|5:276,1,105,2|2,0:2|0:2,0:0:0:0:
16,248,105922,2,0,L|108:236,1,70,0|2,0:0|0:2,0:0:0:0:
144,176,106267,2,0,P|156:132|148:92,1,70,0|2,0:0|0:2,0:0:0:0:
64,68,106611,5,2,0:2:0:0:
85,238,106956,2,0,P|129:263|180:254,1,105,2|2,0:2|0:2,0:0:0:0:
204,236,107301,2,0,L|288:252,1,70,0|2,0:0|0:2,0:0:0:0:
340,304,107646,2,0,L|352:380,1,70,0|2,0:0|0:2,0:0:0:0:
448,356,107991,5,2,0:2:0:0:
472,188,108336,2,0,L|368:172,1,105,2|2,0:2|0:2,0:0:0:0:
340,180,108680,2,0,P|308:156|296:124,1,70,0|2,0:0|0:2,0:0:0:0:
320,48,109025,2,0,P|356:32|390:37,1,70,0|2,0:0|0:2,0:0:0:0:
460,104,109370,1,2,0:2:0:0:
436,272,109715,6,0,L|367:285,1,70,4|0,0:0|0:0,0:0:0:0:
256,304,110060,2,0,L|187:317,1,70,4|0,0:0|0:0,0:0:0:0:
144,228,110405,2,0,L|213:215,1,70,4|0,0:0|0:0,0:0:0:0:
300,169,110749,5,4,0:0:0:0:
312,84,110922,1,0,0:0:0:0:
240,40,111094,2,0,P|192:52|160:80,1,70,2|0,0:2|0:0,0:0:0:0:
120,128,111439,1,0,0:0:0:0:
56,72,111611,1,0,0:0:0:0:
40,156,111784,2,0,L|20:252,1,70,2|0,0:2|0:0,0:0:0:0:
108,280,112129,6,0,L|86:382,2,105,2|2|2,0:2|0:2|0:2,0:0:0:0:
192,272,112818,5,8,0:0:0:0:
328,376,113163,1,2,0:2:0:0:
326,358,113249,1,2,0:2:0:0:
324,341,113335,1,2,0:2:0:0:
323,323,113421,1,2,0:2:0:0:
321,306,113508,6,0,L|313:222,1,70,4|0,0:0|0:0,0:0:0:0:
304,140,113853,2,0,L|297:70,1,70,8|0,0:0|0:0,0:0:0:0:
203,102,114198,1,0,0:0:0:0:
203,102,114370,1,2,0:2:0:0:
192,20,114542,1,8,0:0:0:0:
112,48,114715,2,0,P|80:112|96:184,1,140,2|0,0:2|0:0,0:0:0:0:
140,248,115232,6,0,L|133:318,1,70,8|0,0:0|0:0,0:0:0:0:
220,368,115577,2,0,L|227:298,1,70,2|0,0:2|0:0,0:0:0:0:
320,264,115922,2,0,L|313:334,1,70,8|0,0:0|0:2,0:0:0:0:
384,384,116267,6,0,P|432:372|460:348,1,70,2|0,0:2|0:0,0:0:0:0:
488,284,116611,2,0,P|476:236|452:208,1,70,8|0,0:0|0:0,0:0:0:0:
368,196,116956,1,0,0:0:0:0:
368,196,117129,1,2,0:2:0:0:
320,264,117301,1,8,0:0:0:0:
284,188,117473,2,0,L|268:36,1,140,2|0,0:2|0:0,0:0:0:0:
340,0,117991,6,0,L|416:12,1,70,8|0,0:0|0:0,0:0:0:0:
424,108,118336,2,0,L|354:97,1,70,2|0,0:2|0:0,0:0:0:0:
269,48,118680,2,0,P|212:68|188:96,1,70,8|0,0:0|0:0,0:0:0:0:
152,140,119025,6,0,L|136:240,1,70,2|0,0:2|0:0,0:0:0:0:
127,308,119370,2,0,P|94:299|68:276,1,70,8|0,0:0|0:0,0:0:0:0:
20,188,119715,1,0,0:0:0:0:
20,188,119887,1,2,0:2:0:0:
68,116,120060,1,8,0:0:0:0:
152,140,120232,2,0,P|228:136|276:96,1,140,2|0,0:2|0:0,0:0:0:0:
320,24,120749,6,0,L|416:40,1,70,8|0,0:0|0:0,0:0:0:0:
488,56,121094,2,0,L|472:152,1,70,2|0,0:2|0:0,0:0:0:0:
456,224,121439,2,0,L|360:208,1,70,8|0,0:0|0:2,0:0:0:0:
304,200,121784,6,0,L|320:296,1,70,2|0,0:2|0:0,0:0:0:0:
380,344,122129,2,0,P|432:332|460:308,1,70,8|0,0:0|0:0,0:0:0:0:
456,224,122473,1,0,0:0:0:0:
456,224,122646,1,2,0:2:0:0:
464,140,122818,1,8,0:0:0:0:
393,93,122991,2,0,L|256:120,1,140,2|0,0:2|0:0,0:0:0:0:
172,136,123508,6,0,P|148:84|148:52,1,70,8|0,0:0|0:0,0:0:0:0:
60,24,123853,1,0,0:0:0:0:
60,24,123939,1,8,0:0:0:0:
60,24,124025,1,0,0:0:0:0:
44,120,124198,2,0,L|28:216,1,70,8|0,0:0|0:0,0:0:0:0:
16,285,124542,6,0,P|64:300|104:296,1,70,4|0,0:0|0:0,0:0:0:0:
152,372,124887,2,0,P|184:359|219:357,1,70,8|0,0:0|0:0,0:0:0:0:
292,288,125232,1,0,0:0:0:0:
292,288,125405,1,2,0:2:0:0:
256,212,125577,1,8,0:0:0:0:
340,220,125749,2,0,L|492:232,1,140,2|0,0:2|0:0,0:0:0:0:
512,152,126267,6,0,P|500:88|480:64,1,70,8|0,0:0|0:0,0:0:0:0:
416,32,126611,2,0,P|402:64|402:99,1,70,2|0,0:2|0:0,0:0:0:0:
312,140,126956,2,0,P|277:139|245:125,1,70,8|0,0:0|0:2,0:0:0:0:
180,68,127301,6,0,L|96:84,1,70,2|0,0:2|0:0,0:0:0:0:
28,63,127646,2,0,P|27:97|41:129,1,70,8|0,0:0|0:0,0:0:0:0:
120,164,127991,2,0,P|140:216|72:288,1,140,2|8,0:2|0:0,0:0:0:0:
20,316,128508,1,0,0:0:0:0:
88,364,128680,6,0,L|176:372,1,70,2|0,0:2|0:0,0:0:0:0:
212,288,129025,2,0,L|300:296,1,70,8|0,0:0|0:0,0:0:0:0:
352,364,129370,2,0,P|412:340|432:316,1,70,2|0,0:2|0:0,0:0:0:0:
492,276,129715,2,0,P|468:216|440:196,1,70,8|0,0:0|0:0,0:0:0:0:
392,148,130060,6,0,L|404:72,1,70,4|0,0:0|0:0,0:0:0:0:
332,28,130405,2,0,L|321:97,1,70,8|0,0:0|0:0,0:0:0:0:
308,180,130749,2,0,P|236:180|184:128,1,140,2|8,0:2|0:0,0:0:0:0:
160,56,131267,2,0,P|88:68|0:76,1,140,2|0,0:2|0:0,0:0:0:0:
0,172,131784,6,0,P|56:184|88:208,1,70,12|0,0:0|0:0,0:0:0:0:
132,264,132129,1,4,0:0:0:0:
112,348,132301,1,0,0:0:0:0:
192,324,132473,2,0,P|227:316|280:320,1,70,8|0,0:0|0:0,0:0:0:0:
340,376,132818,6,0,P|374:376|409:368,1,70,4|0,0:0|0:0,0:0:0:0:
476,316,133163,2,0,P|491:279|492:240,1,70,8|0,0:0|0:0,0:0:0:0:
512,168,133508,2,0,L|360:148,1,140,2|8,0:2|0:0,0:0:0:0:
308,204,134025,2,0,P|264:196|216:112,1,140,2|0,0:2|0:0,0:0:0:0:
200,24,134542,6,0,P|234:22|266:36,1,70,12|4,0:0|0:0,0:0:0:0:
360,0,134887,2,0,P|387:21|403:52,1,70,4|0,0:0|0:0,0:0:0:0:
497,84,135232,2,0,P|504:117|496:151,1,70,8|0,0:0|0:0,0:0:0:0:
444,236,135577,5,6,0:2:0:0:
388,172,135749,1,0,0:0:0:0:
304,184,135922,2,0,L|220:196,1,70,8|0,0:0|0:0,0:0:0:0:
148,208,136267,1,2,0:2:0:0:
92,144,136439,2,0,L|104:84,2,35,0|0|8,0:0|0:0|0:0,0:0:0:0:
8,156,136784,1,0,0:0:0:0:
0,256,136956,6,0,P|20:320|40:340,1,70,2|0,0:2|0:0,0:0:0:0:
104,308,137301,2,0,P|164:316|200:336,1,70,8|0,0:0|0:0,0:0:0:0:
248,360,137646,1,2,0:2:0:0:
276,280,137818,2,0,L|264:216,2,35,0|0|8,0:0|0:0|0:0,0:0:0:0:
332,344,138163,1,0,0:0:0:0:
428,324,138336,5,2,0:2:0:0:
460,244,138508,1,0,0:0:0:0:
396,188,138680,2,0,P|336:180|300:160,1,70,8|0,0:0|0:0,0:0:0:0:
256,132,139025,1,2,0:2:0:0:
214,59,139198,2,0,L|200:4,2,35,0|0|8,0:0|0:0|0:0,0:0:0:0:
298,59,139542,1,0,0:0:0:0:
384,8,139715,6,0,L|436:0,2,35,2|0|0,0:2|0:0|0:0,0:0:0:0:
420,100,140060,2,0,L|472:92,2,35,8|0|0,0:0|0:0|0:0,0:0:0:0:
348,168,140405,1,2,0:2:0:0:
348,168,140491,1,0,0:0:0:0:
348,168,140577,1,0,0:0:0:0:
256,132,140749,1,8,0:0:0:0:
256,132,140836,1,0,0:0:0:0:
256,132,140922,1,0,0:0:0:0:
