osu file format v14

[General]
AudioFilename: audio.mp3
AudioLeadIn: 2000
PreviewTime: 52640
Countdown: 0
SampleSet: Normal
StackLeniency: 0.3
Mode: 0
LetterboxInBreaks: 0
WidescreenStoryboard: 0

[Editor]
Bookmarks: 215516
DistanceSpacing: 1
BeatDivisor: 2
GridSize: 4
TimelineZoom: 1

[Metadata]
Title:FINE!! (Cut Ver.)
TitleUnicode:FINE!! (Cut Ver.)
Artist:TOMATO GUMMY feat. Shirakami Fubuki
ArtistUnicode:トマト組 feat. 白上フブキ
Creator:Frey
Version:Easy
Source:
Tags:j pop j-pop ShirakamiFINE!! アシノ Ashino 青時 Seiji C97 Comiket 97 hololive cut version vtb vtuber virtual youtuber Japanese バーチャルユーチューバー cover ホロライブ electronic
BeatmapID:2692596
BeatmapSetID:1298047

[Difficulty]
HPDrainRate:2
CircleSize:3
OverallDifficulty:2
ApproachRate:3
SliderMultiplier:0.799999999999999
SliderTickRate:1

[Events]
//Background and Video events
0,0,"77115862_p0.jpg",0,0
//Break Periods
2,80605,84482
//Storyboard Layer 0 (Background)
//Storyboard Layer 1 (Fail)
//Storyboard Layer 2 (Pass)
//Storyboard Layer 3 (Foreground)
//Storyboard Layer 4 (Overlay)
//Storyboard Sound Samples

[TimingPoints]
405,344.827586206897,4,2,0,50,1,0
5922,-100,4,1,1,55,0,0
52818,-100,4,1,1,60,0,1
74887,-100,4,1,1,55,0,0
85922,-100,4,2,0,55,0,0
105232,-100,4,1,1,55,0,0
113508,-100,4,1,1,60,0,1
135577,-100,4,1,1,55,0,0

[Colours]
Combo1 : 0,213,106
Combo2 : 255,128,128
Combo3 : 74,165,255
Combo4 : 255,255,111

[HitObjects]
232,224,405,6,0,P|96:232|28:116,2,280,0|0|2,0:0|0:0|0:0,0:0:0:0:
280,160,3163,2,0,P|416:152|484:268,1,280,0|2,0:0|0:0,0:0:0:0:
140,372,5922,6,0,P|72:344|56:248,1,160,4|0,0:0|0:0,0:0:0:0:
108,116,7301,2,0,P|192:120|276:96,1,160
332,56,8336,1,8,0:0:0:0:
412,48,8680,2,0,P|472:104|456:256,2,240,0|8|0,0:0|0:0|0:0,0:0:0:0:
332,56,11094,1,8,0:0:0:0:
252,64,11439,6,0,L|236:236,1,160
176,372,12818,2,0,P|100:376|28:328,1,160
16,252,13853,1,8,0:0:0:0:
56,180,14198,2,0,L|292:136,2,240,0|8|0,0:0|0:0|0:0,0:0:0:0:
16,252,16611,1,8,0:0:0:0:
76,308,16956,6,0,P|152:300|232:332,1,160
284,180,18336,2,0,P|357:209|436:201,1,160
504,156,19370,1,8,0:0:0:0:
488,76,19715,2,0,P|380:20|264:48,2,240,0|8|0,0:0|0:0|0:0,0:0:0:0:
504,156,22129,1,8,0:0:0:0:
460,228,22473,6,0,L|301:251,1,160
208,120,23853,2,0,L|49:143,1,160
36,224,24887,1,8,0:0:0:0:
24,304,25232,2,0,P|112:368|236:340,2,240,0|8|0,0:0|0:0|0:0,0:0:0:0:
36,224,27646,1,8,0:0:0:0:
100,176,27991,6,0,P|94:100|80:4,1,160,2|2,0:2|0:2,0:0:0:0:
238,65,29370,2,0,P|244:144|256:223,1,160,2|2,0:2|0:2,0:0:0:0:
272,304,30405,1,8,0:0:0:0:
336,352,30749,2,0,P|424:364|500:240,2,240,2|8|2,0:2|0:0|0:2,0:0:0:0:
272,304,33163,1,8,0:0:0:0:
196,280,33508,6,0,P|114:286|32:304,1,160,2|2,0:2|0:2,0:0:0:0:
0,144,34887,2,0,P|79:137|157:121,1,160,2|2,0:2|0:2,0:0:0:0:
236,96,35922,1,8,0:0:0:0:
292,40,36267,2,0,P|372:28|480:144,2,240,2|8|0,0:2|0:0|0:0,0:0:0:0:
236,96,38680,1,8,0:0:0:0:
184,156,39025,6,0,L|208:316,1,160,2|0,0:2|0:0,0:0:0:0:
354,371,40405,2,0,P|413:320|422:243,1,160
388,168,41439,1,8,0:0:0:0:
308,156,41784,6,0,L|144:132,1,160,4|0,0:2|0:0,0:0:0:0:
40,16,43163,2,0,L|198:39,1,160,2|0,0:2|0:0,0:0:0:0:
280,52,44198,1,0,0:0:0:0:
356,20,44542,2,0,P|472:112|352:152,1,320,2|2,0:2|0:2,0:0:0:0:
286,147,46267,6,0,L|297:226,1,79.9999999999999,4|4,0:0|0:0,0:0:0:0:
308,308,46956,1,4,0:0:0:0:
244,360,47301,6,0,L|80:376,1,160,4|0,0:0|0:0,0:0:0:0:
0,232,48680,2,0,P|84:244|164:208,1,160,2|2,0:2|0:2,0:0:0:0:
224,72,50060,2,0,P|280:80|312:104,1,79.9999999999999,2|2,0:2|0:2,0:0:0:0:
344,160,50749,2,0,P|400:152|432:128,1,79.9999999999999,2|2,0:2|0:2,0:0:0:0:
488,96,51439,2,0,P|512:208|460:328,1,240,0|8,0:0|0:0,0:0:0:0:
404,372,52818,6,0,P|272:352|248:356,1,160,4|0,0:0|0:0,0:0:0:0:
88,376,54198,2,0,L|74:296,1,79.9999999999999,0|8,0:0|0:0,0:0:0:0:
60,216,54887,2,0,L|144:176,1,79.9999999999999,2|8,0:2|0:0,0:0:0:0:
167,107,55577,2,0,P|109:56|32:63,2,160,2|2|0,0:2|0:2|0:0,0:0:0:0:
212,176,57301,2,0,P|248:190|292:188,1,79.9999999999999,8|2,0:0|0:2,0:0:0:0:
364,160,57991,1,8,0:0:0:0:
440,132,58336,6,0,L|480:300,1,160,2|0,0:2|0:0,0:0:0:0:
348,384,59715,2,0,P|296:368|266:338,1,79.9999999999999,0|8,0:0|0:0,0:0:0:0:
256,272,60405,2,0,L|235:185,1,79.9999999999999,2|8,0:2|0:0,0:0:0:0:
184,132,61094,2,0,L|24:112,2,160,2|0|0,0:2|0:0|0:0,0:0:0:0:
244,76,62818,2,0,P|292:64|332:72,1,79.9999999999999,8|0,0:0|0:0,0:0:0:0:
396,104,63508,1,8,0:0:0:0:
420,184,63853,6,0,L|392:352,1,160,4|0,0:0|0:0,0:0:0:0:
236,376,65232,2,0,P|148:360|100:308,1,160,0|2,0:0|0:2,0:0:0:0:
88,232,66267,1,8,0:0:0:0:
76,152,66611,2,0,L|240:128,2,160,2|2|2,0:2|0:2|0:2,0:0:0:0:
24,88,68336,1,8,0:0:0:0:
84,32,68680,2,0,P|120:20|176:24,1,79.9999999999999,2|8,0:2|0:0,0:0:0:0:
240,48,69370,6,0,P|322:48|396:24,1,160,4|2,0:0|0:2,0:0:0:0:
500,144,70749,2,0,L|480:228,1,79.9999999999999,0|12,0:0|0:0,0:0:0:0:
416,272,71439,2,0,P|376:268|336:248,1,79.9999999999999,4|8,0:0|0:0,0:0:0:0:
272,204,72129,2,0,P|200:208|140:272,2,160,4|2|0,0:0|0:2|0:0,0:0:0:0:
348,172,73853,2,0,L|366:94,1,79.9999999999999,12|4,0:0|0:0,0:0:0:0:
384,16,74542,1,8,0:0:0:0:
464,4,74887,6,0,P|500:68|480:156,1,160,6|2,0:2|0:2,0:0:0:0:
364,264,76267,2,0,L|196:284,1,160,2|2,0:2|0:2,0:0:0:0:
76,376,77646,2,0,P|39:306|55:230,1,160,2|2,0:2|0:2,0:0:0:0:
148,100,79025,2,0,L|239:90,1,79.9999999999999,2|8,0:2|0:0,0:0:0:0:
284,152,79715,2,0,L|375:142,1,79.9999999999999,2|8,0:2|0:0,0:0:0:0:
420,204,80405,5,4,0:0:0:0:
192,336,85922,6,0,B|144:272|144:212|176:172|184:124|184:124|216:160|256:176|256:176|296:160|328:124|328:124|336:172|368:212|356:276|336:284,1,559.999999999999,2|2,3:2|0:0,0:0:0:0:
316,352,88680,2,0,B|404:364|404:364|448:312|456:248|452:196|428:136,1,320,2|2,2:0|0:0,0:0:0:0:
336,24,90749,5,2,0:0:0:0:
256,12,91094,1,2,0:0:0:0:
192,60,91439,2,0,L|168:228,1,160,2|2,0:0|0:0,0:0:0:0:
32,304,92818,2,0,L|54:145,1,160,2|2,0:0|0:0,0:0:0:0:
192,60,94198,2,0,P|288:52|472:188,1,320,2|2,0:0|0:0,0:0:0:0:
494,331,96267,1,2,0:0:0:0:
428,380,96611,1,2,0:0:0:0:
348,356,96956,6,0,P|272:352|188:376,1,160,2|2,0:0|0:0,0:0:0:0:
80,260,98336,2,0,P|156:264|240:240,1,160,2|2,0:0|0:0,0:0:0:0:
376,160,99715,2,0,P|324:80|108:56,1,320,2|2,0:0|0:0,0:0:0:0:
16,180,101784,2,0,L|8:272,1,79.9999999999999,2|0,0:0|0:0,0:0:0:0:
4,340,102473,2,0,P|84:344|144:292,2,160
16,180,104542,2,0,L|22:100,1,79.9999999999999,2|2,0:0|0:0,0:0:0:0:
76,40,105232,6,0,P|148:60|232:52,1,160,4|0,0:2|0:0,0:0:0:0:
280,204,106611,2,0,P|356:183|436:192,1,160,2|0,0:2|0:0,0:0:0:0:
504,240,107646,1,0,0:0:0:0:
500,320,107991,2,0,P|360:364|224:252,1,320,2|2,0:2|0:2,0:0:0:0:
200,192,109715,6,0,L|192:96,1,79.9999999999999,4|4,0:0|0:0,0:0:0:0:
132,60,110405,1,4,0:0:0:0:
52,68,110749,6,0,L|67:244,1,160,4|0,0:0|0:0,0:0:0:0:
148,364,112129,2,0,P|228:360|288:292,1,160,2|8,0:2|0:0,0:0:0:0:
272,228,113163,1,2,0:2:0:0:
208,180,113508,6,0,L|48:160,1,160,4|0,0:0|0:0,0:0:0:0:
132,24,114887,2,0,P|172:12|224:16,1,79.9999999999999,0|8,0:0|0:0,0:0:0:0:
280,56,115577,2,0,P|292:96|288:148,1,79.9999999999999,2|8,0:2|0:0,0:0:0:0:
280,216,116267,2,0,P|268:288|304:364,2,160,2|0|0,0:2|0:0|0:0,0:0:0:0:
356,184,117991,2,0,L|436:176,1,79.9999999999999,8|2,0:0|0:2,0:0:0:0:
488,116,118680,1,8,0:0:0:0:
476,36,119025,6,0,P|400:40|316:12,1,160,2|0,0:2|0:0,0:0:0:0:
164,60,120405,2,0,L|176:152,1,79.9999999999999,0|8,0:0|0:0,0:0:0:0:
184,220,121094,2,0,L|196:312,1,79.9999999999999,2|8,0:2|0:0,0:0:0:0:
248,360,121784,2,0,P|356:332|380:288,2,160,2|0|0,0:2|0:0|0:0,0:0:0:0:
168,376,123508,2,0,P|126:364|89:361,1,79.9999999999999,8|0,0:0|0:0,0:0:0:0:
8,372,124198,1,8,0:0:0:0:
16,292,124542,6,0,L|36:124,1,160,4|0,0:0|0:0,0:0:0:0:
180,64,125922,2,0,L|170:143,1,79.9999999999999,0|8,0:0|0:0,0:0:0:0:
160,224,126611,2,0,L|239:233,1,79.9999999999999,2|8,0:2|0:0,0:0:0:0:
320,244,127301,2,0,P|320:320|256:364,2,160,2|2|2,0:2|0:2|0:2,0:0:0:0:
288,168,129025,1,8,0:0:0:0:
256,92,129370,2,0,L|264:12,1,79.9999999999999,2|8,0:2|0:0,0:0:0:0:
344,8,130060,6,0,P|423:21|504:24,1,160,4|2,0:0|0:2,0:0:0:0:
508,184,131439,2,0,P|468:188|432:208,1,79.9999999999999,0|12,0:0|0:0,0:0:0:0:
376,264,132129,2,0,P|336:260|301:241,1,79.9999999999999,4|8,0:0|0:0,0:0:0:0:
252,176,132818,2,0,L|236:8,2,160,4|2|0,0:0|0:2|0:0,0:0:0:0:
219,251,134542,2,0,P|176:252|141:262,1,79.9999999999999,12|4,0:0|0:0,0:0:0:0:
72,304,135232,1,8,0:0:0:0:
16,244,135577,6,0,P|0:164|24:92,1,160,6|2,0:2|0:2,0:0:0:0:
168,24,136956,2,0,L|336:40,1,160,2|2,0:2|0:2,0:0:0:0:
486,54,138336,2,0,P|498:134|470:206,1,160,2|2,0:2|0:2,0:0:0:0:
309,190,139715,2,0,P|261:194|228:208,1,79.9999999999999,2|8,0:2|0:0,0:0:0:0:
168,256,140405,2,0,L|180:340,1,79.9999999999999,2|8,0:2|0:0,0:0:0:0:
