osu file format v14

[General]
AudioFilename: 01 SUIKINKUTSU130.mp3
AudioLeadIn: 0
PreviewTime: 70735
Countdown: 0
SampleSet: None
StackLeniency: 0.7
Mode: 3
LetterboxInBreaks: 0
SpecialStyle: 0
WidescreenStoryboard: 1

[Editor]
Bookmarks: 451
DistanceSpacing: 0.8
BeatDivisor: 4
GridSize: 32
TimelineZoom: 1.9

[Metadata]
Title:SUIKINKUTSU (feat. Uehara Hiromi)
TitleUnicode:水琴窟 (feat. 上原ひろみ)
Artist:TOKYO SKA PARADISE ORCHESTRA
ArtistUnicode:TOKYO SKA PARADISE ORCHESTRA
Creator:IcyWorld
Version:1.3x
Source:
Tags:Jazz Instrumental Icy X Goldfingers CTCR-14685 Marathon NARGO 北原雅彦 Masahiko Kitahara GAMO 谷中敦 Atsushi Yanaka 加藤隆志 Takashi Kato 川上つよし Tsuyoshi Kawakami 沖祐市 Yuichi Oki 大森はじめ Hajime Omori 茂木欣一 Kin-ichi Motegi
BeatmapID:4315262
BeatmapSetID:1083786

[Difficulty]
HPDrainRate:8
CircleSize:4
OverallDifficulty:8
ApproachRate:5
SliderMultiplier:1.4
SliderTickRate:1

[Events]
//Background and Video events
0,0,"bg.jpg",0,0
//Break Periods
//Storyboard Layer 0 (Background)
//Storyboard Layer 1 (Fail)
//Storyboard Layer 2 (Pass)
//Storyboard Layer 3 (Foreground)
//Storyboard Layer 4 (Overlay)
//Storyboard Sound Samples

[TimingPoints]
446,268.708131538461,4,1,0,10,1,0
446,-99.86162805,4,1,0,10,0,0
7432,268.725341538462,4,1,0,10,1,0
7432,-99.8552326,4,1,0,10,0,0
7701,268.708131538461,4,1,0,10,1,0
7701,-99.86162805,4,1,0,10,0,0
14419,268.725341538462,4,1,0,10,1,0
14419,-99.8552326,4,1,0,10,0,0
14957,268.708131538461,4,1,0,10,1,0
14957,-99.86162805,4,1,0,10,0,0
21675,268.725341538462,4,1,0,10,1,0
21675,-99.8552326,4,1,0,10,0,0
21943,268.708131538461,4,1,0,10,1,0
21943,-99.86162805,4,1,0,10,0,0
26511,1276.55853461538,4,1,0,10,1,0
26511,-21.02029069,4,1,0,10,0,0
27788,266.544885384615,4,1,0,10,1,0
27788,-100.672093,4,1,0,10,0,0
35251,296.407101538462,4,1,0,10,1,0
35251,-90.5296511,4,1,0,10,0,0
35547,268.811423076923,4,1,0,10,1,0
35547,-99.82325594,4,1,0,10,0,0
35816,268.794202307692,4,1,0,10,1,0
35816,-99.82965129,4,1,0,10,0,0
36085,268.811423076923,4,1,0,10,1,0
36085,-99.82325594,4,1,0,10,0,0
36354,285.557773076923,4,1,0,10,1,0
36354,-93.96918597,4,1,0,10,0,0
36639,269.021380769231,4,1,0,10,1,0
36639,-99.74534889,4,1,0,10,0,0
48207,269.004133076923,4,1,0,10,1,0
48207,-99.75174425,4,1,0,10,0,0
48476,269.021380769231,4,1,0,10,1,0
48476,-99.74534889,4,1,0,10,0,0
55201,269.161011538462,4,1,0,10,1,0
55201,-99.6936047,4,1,0,10,0,0
57624,256.881205384615,4,1,0,10,1,0
57624,-104.4593023,4,1,0,10,0,0
57881,268.637751538462,4,1,0,10,1,0
57881,-99.88779064,4,1,0,10,0,0
78298,280.917156923077,4,1,0,10,1,0
78298,-95.52151168,4,1,0,10,0,0
78578,268.498663076923,4,1,0,10,1,0
78578,-99.93953481,4,1,0,10,0,0
85559,268.515846153846,4,1,0,10,1,0
85559,-99.9331394,4,1,0,10,0,0
85828,268.498663076923,4,1,0,10,1,0
85828,-99.93953481,4,1,0,10,0,0
92809,268.515846153846,4,1,0,10,1,0
92809,-99.9331394,4,1,0,10,0,0
93078,268.498663076923,4,1,0,10,1,0
93078,-99.93953481,4,1,0,10,0,0
94957,268.515846153846,4,1,0,10,1,0
94957,-99.9331394,4,1,0,10,0,0
95225,268.498663076923,4,1,0,10,1,0
95225,-99.93953481,4,1,0,10,0,0
98716,259.566877692308,4,1,0,10,1,0
98716,-103.3784885,4,1,0,10,0,0
98975,268.394050769231,4,1,0,10,1,0
98975,-99.97848838,4,1,0,10,0,0
105148,268.41122,4,1,0,10,1,0
105148,-99.97209314,4,1,0,10,0,0
105417,268.394050769231,4,1,0,10,1,0
105417,-99.97848838,4,1,0,10,0,0
111590,268.41122,4,1,0,10,1,0
111590,-99.97209314,4,1,0,10,0,0
111858,268.394050769231,4,1,0,10,1,0
111858,-99.97848838,4,1,0,10,0,0
113737,267.904863076923,4,1,0,10,1,0
113737,-100.1610466,4,1,0,10,0,0
118559,267.887758461538,4,1,0,10,1,0
118559,-100.1674419,4,1,0,10,0,0
118827,267.904863076923,4,1,0,10,1,0
118827,-100.1610466,4,1,0,10,0,0
123649,267.887758461538,4,1,0,10,1,0
123649,-100.1674419,4,1,0,10,0,0
123918,267.904863076923,4,1,0,10,1,0
123918,-100.1610466,4,1,0,10,0,0
127936,263.579622307692,4,1,0,10,1,0
127936,-101.8046511,4,1,0,10,0,0
130571,287.022836153846,4,1,0,10,1,0
130571,-93.48953499,4,1,0,10,0,0
130859,263.579622307692,4,1,0,10,1,0
130859,-101.8046511,4,1,0,10,0,0
140348,263.596181538462,4,1,0,10,1,0
140348,-101.7982557,4,1,0,10,0,0
140611,263.579622307692,4,1,0,10,1,0
140611,-101.8046511,4,1,0,10,0,0
145619,252.416466923077,4,1,0,10,1,0
145619,-106.3069768,4,1,0,10,0,0
145871,263.579622307692,4,1,0,10,1,0
145871,-101.8046511,4,1,0,10,0,0
146662,251.299111538462,4,1,0,10,1,0
146662,-106.7796512,4,1,0,10,0,0
146914,263.579622307692,4,1,0,10,1,0
146914,-101.8046511,4,1,0,10,0,0
150077,263.091313846154,4,1,0,10,1,0
150077,-101.9936048,4,1,0,10,0,0
155075,263.107812307692,4,1,0,10,1,0
155075,-101.9872092,4,1,0,10,0,0
155338,263.073319230769,4,1,0,10,1,0
155338,-102.0005813,4,1,0,10,0,0
155601,263.107812307692,4,1,0,10,1,0
155601,-101.9872092,4,1,0,10,0,0
155865,263.091313846154,4,1,0,10,1,0
155865,-101.9936048,4,1,0,10,0,0
160864,263.107812307692,4,1,0,10,1,0
160864,-101.9872092,4,1,0,10,0,0
161127,263.073319230769,4,1,0,10,1,0
161127,-102.0005813,4,1,0,10,0,0
161390,263.107812307692,4,1,0,10,1,0
161390,-101.9872092,4,1,0,10,0,0
161653,263.091313846154,4,1,0,10,1,0
161653,-101.9936048,4,1,0,10,0,0
164284,301.047192307692,4,1,0,10,1,0
164284,-89.13430243,4,1,0,10,0,0
164585,270.416319230769,4,1,0,10,1,0
164585,-99.23081403,4,1,0,10,0,0
168641,270.398892307692,4,1,0,10,1,0
168641,-99.23720935,4,1,0,10,0,0
168911,270.416319230769,4,1,0,10,1,0
168911,-99.23081403,4,1,0,10,0,0
172968,270.398892307692,4,1,0,10,1,0
172968,-99.23720935,4,1,0,10,0,0
173238,273.033442307692,4,1,0,10,1,0
173238,-98.27965123,4,1,0,10,0,0
181975,268.149233846154,4,1,0,10,1,0
181975,-100.0697675,4,1,0,10,0,0
188947,255.870086153846,4,1,0,10,1,0
188947,-104.8720931,4,1,0,10,0,0
189203,267.487198461538,4,1,0,10,1,0
189203,-100.3174419,4,1,0,10,0,0
191343,239.57729,4,1,0,10,1,0
191343,-112.0040697,4,1,0,10,0,0
191582,267.487198461538,4,1,0,10,1,0
191582,-100.3174419,4,1,0,10,0,0
192920,285.347681538462,4,1,0,10,1,0
192920,-94.03837221,4,1,0,10,0,0
193205,267.487198461538,4,1,0,10,1,0
193205,-100.3174419,4,1,0,10,0,0
193472,264.137753076923,4,1,0,10,1,0
193472,-101.5895349,4,1,0,10,0,0
193737,267.487198461538,4,1,0,10,1,0
193737,-100.3174419,4,1,0,10,0,0
194005,280.882964615385,4,1,0,10,1,0
194005,-95.53313965,4,1,0,10,0,0
194285,267.487198461538,4,1,0,10,1,0
194285,-100.3174419,4,1,0,10,0,0
197495,267.504252307692,4,1,0,10,1,0
197495,-100.3110465,4,1,0,10,0,0
197762,267.487198461538,4,1,0,10,1,0
197762,-100.3174419,4,1,0,10,0,0
199902,260.788607692308,4,1,0,10,1,0
199902,-102.8941859,4,1,0,10,0,0
200163,269.440708461538,4,1,0,10,1,0
200163,-99.59011627,4,1,0,10,0,0
203666,269.458012307692,4,1,0,10,1,0
203666,-99.58372087,4,1,0,10,0,0
203935,269.440708461538,4,1,0,10,1,0
203935,-99.59011627,4,1,0,10,0,0
207438,269.458012307692,4,1,0,10,1,0
207438,-99.58372087,4,1,0,10,0,0
207708,269.440708461538,4,1,0,10,1,0
207708,-99.59011627,4,1,0,10,0,0
208785,268.637751538462,4,1,0,10,1,0
208785,-99.88779064,4,1,0,10,0,0
225978,269.963946153846,4,1,0,10,1,0
225978,-99.39709308,4,1,0,10,0,0
229758,269.981316923077,4,1,0,10,1,0
229758,-99.39069781,4,1,0,10,0,0
230028,269.963946153846,4,1,0,10,1,0
230028,-99.39709308,4,1,0,10,0,0
232997,266.718943846154,4,1,0,10,1,0
232997,-100.6063952,4,1,0,10,0,0
242866,242.159188461538,4,1,0,10,1,0
242866,-110.8098836,4,1,0,10,0,0
243108,264.172526153846,4,1,0,10,1,0
243108,-101.5761627,4,1,0,10,0,0
253939,264.189159230769,4,1,0,10,1,0
253939,-101.5697675,4,1,0,10,0,0
254203,264.154382307692,4,1,0,10,1,0
254203,-101.5831396,4,1,0,10,0,0
254468,264.189159230769,4,1,0,10,1,0
254468,-101.5697675,4,1,0,10,0,0
254731,264.154382307692,4,1,0,10,1,0
254731,-101.5831396,4,1,0,10,0,0
254995,264.189159230769,4,1,0,10,1,0
254995,-101.5697675,4,1,0,10,0,0
255260,264.154382307692,4,1,0,10,1,0
255260,-101.5831396,4,1,0,10,0,0
255524,264.189159230769,4,1,0,10,1,0
255524,-101.5697675,4,1,0,10,0,0
255788,264.172526153846,4,1,0,10,1,0
255788,-101.5761627,4,1,0,10,0,0
256845,260.194643076923,4,1,0,10,1,0
256845,-103.1290697,4,1,0,10,0,0
259967,260.178508461538,4,1,0,10,1,0
259967,-103.1354651,4,1,0,10,0,0
260228,260.194643076923,4,1,0,10,1,0
260228,-103.1290697,4,1,0,10,0,0
260748,260.265071538461,4,1,0,10,1,0
260748,-103.1011627,4,1,0,10,0,0
267255,251.892975384615,4,1,0,10,1,0
267255,-106.5279071,4,1,0,10,0,0
267506,259.845997692308,4,1,0,10,1,0
267506,-103.267442,4,1,0,10,0,0
271664,259.828443846154,4,1,0,10,1,0
271664,-103.2744186,4,1,0,10,0,0
271924,259.845997692308,4,1,0,10,1,0
271924,-103.267442,4,1,0,10,0,0
276081,259.828443846154,4,1,0,10,1,0
276081,-103.2744186,4,1,0,10,0,0
276341,259.845997692308,4,1,0,10,1,0
276341,-103.267442,4,1,0,10,0,0
280498,259.828443846154,4,1,0,10,1,0
280498,-103.2744186,4,1,0,10,0,0
281018,259.845997692308,4,1,0,10,1,0
281018,-103.267442,4,1,0,10,0,0
281278,255.381636153846,4,1,0,10,1,0
281278,-105.0726743,4,1,0,10,0,0
281534,258.625817692308,4,1,0,10,1,0
281534,-103.7546511,4,1,0,10,0,0
288258,258.643209230769,4,1,0,10,1,0
288258,-103.7476745,4,1,0,10,0,0
288516,258.608427692308,4,1,0,10,1,0
288516,-103.761628,4,1,0,10,0,0
288775,258.643209230769,4,1,0,10,1,0
288775,-103.7476745,4,1,0,10,0,0
289034,258.625817692308,4,1,0,10,1,0
289034,-103.7546511,4,1,0,10,0,0
292137,268.672155384615,4,1,0,10,1,0
292137,-99.87499987,4,1,0,10,0,0
292406,258.660603846154,4,1,0,10,1,0
292406,-103.7406976,4,1,0,10,0,0
292665,258.643209230769,4,1,0,10,1,0
292665,-103.7476745,4,1,0,10,0,0
292923,312.437186923077,4,1,0,10,1,0
292923,-85.88488377,4,1,0,10,0,0
293548,229.722843076923,4,1,0,10,1,0
293548,-116.808721,4,1,0,10,0,0
293778,256.026216923077,4,1,0,10,1,0
293778,-104.8081396,4,1,0,10,0,0
294034,262.54954,4,1,0,10,1,0
294034,-102.2040697,4,1,0,10,0,0
294559,269.143746153846,4,1,0,10,1,0
294559,-99.69999997,4,1,0,10,0,0
294828,282.260625384615,4,1,0,10,1,0
294828,-95.06686045,4,1,0,10,0,0
295110,262.54954,4,1,0,10,1,0
295110,-102.2040697,4,1,0,10,0,0
295373,288.818951538462,4,1,0,10,1,0
295373,-92.90813966,4,1,0,10,0,0
295661,275.701718461538,4,1,0,10,1,0
295661,-97.32848832,4,1,0,10,0,0
296213,242.874074615385,4,1,0,10,1,0
296213,-110.4837209,4,1,0,10,0,0
296698,255.992136153846,4,1,0,10,1,0
296698,-104.8220929,4,1,0,10,0,0
296955,301.935406153846,4,1,0,10,1,0
296955,-88.87209296,4,1,0,10,0,0
297257,288.818951538462,4,1,0,10,1,0
297257,-92.90813966,4,1,0,10,0,0
297545,275.701718461538,4,1,0,10,1,0
297545,-97.32848832,4,1,0,10,0,0
297821,262.54954,4,1,0,10,1,0
297821,-102.2040697,4,1,0,10,0,0
298084,269.143746153846,4,1,0,10,1,0
298084,-99.69999997,4,1,0,10,0,0
298353,249.468113076923,4,1,0,10,1,0
298353,-107.5633721,4,1,0,10,0,0
298602,262.54954,4,1,0,10,1,0
298602,-102.2040697,4,1,0,10,0,0
298865,269.143746153846,4,1,0,10,1,0
298865,-99.69999997,4,1,0,10,0,0
299403,275.701718461538,4,1,0,10,1,0
299403,-97.32848832,4,1,0,10,0,0
299679,262.54954,4,1,0,10,1,0
299679,-102.2040697,4,1,0,10,0,0
299941,275.701718461538,4,1,0,10,1,0
299941,-97.32848832,4,1,0,10,0,0
300493,282.260625384615,4,1,0,10,1,0
300493,-95.06686045,4,1,0,10,0,0
300775,269.143746153846,4,1,0,10,1,0
300775,-99.69999997,4,1,0,10,0,0
301045,255.992136153846,4,1,0,10,1,0
301045,-104.8220929,4,1,0,10,0,0
301300,282.260625384615,4,1,0,10,1,0
301300,-95.06686045,4,1,0,10,0,0
301582,269.143746153846,4,1,0,10,1,0
301582,-99.69999997,4,1,0,10,0,0
301851,275.701718461538,4,1,0,10,1,0
301851,-97.32848832,4,1,0,10,0,0
302128,269.143746153846,4,1,0,10,1,0
302128,-99.69999997,4,1,0,10,0,0
302397,262.54954,4,1,0,10,1,0
302397,-102.2040697,4,1,0,10,0,0
302659,269.143746153846,4,1,0,10,1,0
302659,-99.69999997,4,1,0,10,0,0
302928,262.54954,4,1,0,10,1,0
302928,-102.2040697,4,1,0,10,0,0
303191,288.818951538462,4,1,0,10,1,0
303191,-92.90813966,4,1,0,10,0,0
303480,269.143746153846,4,1,0,10,1,0
303480,-99.69999997,4,1,0,10,0,0
303748,256.026216923077,4,1,0,10,1,0
303748,-104.8081396,4,1,0,10,0,0
304005,295.377053846154,4,1,0,10,1,0
304005,-90.8453488,4,1,0,10,0,0
304300,275.701718461538,4,1,0,10,1,0
304300,-97.32848832,4,1,0,10,0,0
304576,262.54954,4,1,0,10,1,0
304576,-102.2040697,4,1,0,10,0,0
304838,269.143746153846,4,1,0,10,1,0
304838,-99.69999997,4,1,0,10,0,0
305108,262.54954,4,1,0,10,1,0
305108,-102.2040697,4,1,0,10,0,0
305370,282.260625384615,4,1,0,10,1,0
305370,-95.06686045,4,1,0,10,0,0
305652,275.701718461538,4,1,0,10,1,0
305652,-97.32848832,4,1,0,10,0,0
305928,262.54954,4,1,0,10,1,0
305928,-102.2040697,4,1,0,10,0,0
306453,269.143746153846,4,1,0,10,1,0
306453,-99.69999997,4,1,0,10,0,0
306722,269.109221538462,4,1,0,10,1,0
306722,-99.71279071,4,1,0,10,0,0
306991,275.701718461538,4,1,0,10,1,0
306991,-97.32848832,4,1,0,10,0,0
307267,269.143746153846,4,1,0,10,1,0
307267,-99.69999997,4,1,0,10,0,0
307536,275.701718461538,4,1,0,10,1,0
307536,-97.32848832,4,1,0,10,0,0
308088,249.433059230769,4,1,0,10,1,0
308088,-107.5784885,4,1,0,10,0,0
308337,269.143746153846,4,1,0,10,1,0
308337,-99.69999997,4,1,0,10,0,0
308606,262.54954,4,1,0,10,1,0
308606,-102.2040697,4,1,0,10,0,0
308868,288.818951538462,4,1,0,10,1,0
308868,-92.90813966,4,1,0,10,0,0
309158,249.433059230769,4,1,0,10,1,0
309158,-107.5784885,4,1,0,10,0,0
309407,282.260625384615,4,1,0,10,1,0
309407,-95.06686045,4,1,0,10,0,0
309689,275.701718461538,4,1,0,10,1,0
309689,-97.32848832,4,1,0,10,0,0
310516,269.143746153846,4,1,0,10,1,0
310516,-99.69999997,4,1,0,10,0,0
310785,282.260625384615,4,1,0,10,1,0
310785,-95.06686045,4,1,0,10,0,0
311068,354.473335384615,4,1,0,10,1,0
311068,-75.69999999,4,1,0,10,0,0
311422,295.412975384615,4,1,0,10,1,0
311422,-90.83430222,4,1,0,10,0,0
311718,269.143746153846,4,1,0,10,1,0
311718,-99.69999997,4,1,0,10,0,0
311987,295.377053846154,4,1,0,10,1,0
311987,-90.8453488,4,1,0,10,0,0
312282,288.818951538462,4,1,0,10,1,0
312282,-92.90813966,4,1,0,10,0,0
312571,315.088484615385,4,1,0,10,1,0
312571,-85.16220933,4,1,0,10,0,0
312886,308.529450769231,4,1,0,10,1,0
312886,-86.97267447,4,1,0,10,0,0
313195,301.935406153846,4,1,0,10,1,0
313195,-88.87209296,4,1,0,10,0,0
313798,321.647521538461,4,1,0,10,1,0
313798,-83.42558138,4,1,0,10,0,0
314120,282.260625384615,4,1,0,10,1,0
314120,-95.06686045,4,1,0,10,0,0
314402,347.88195,4,1,0,10,1,0
314402,-77.13430227,4,1,0,10,0,0
314750,840.188924615385,4,1,0,10,1,0
314750,-31.93761629,4,1,0,10,0,0
315591,603.907158461538,4,1,0,10,1,0
315591,-44.4333721,4,1,0,10,0,0
316195,1161.83376076923,4,1,0,10,1,0
316195,-23.09593024,4,1,0,10,0,0
317356,1161.86885846154,4,1,0,10,1,0
317356,-23.09523256,4,1,0,10,0,0
318518,1161.83376076923,4,1,0,10,1,0
318518,-23.09593024,4,1,0,10,0,0
319680,1161.86885846154,4,1,0,10,1,0
319680,-23.09523256,4,1,0,10,0,0
320841,1161.83376076923,4,1,0,10,1,0
320841,-23.09593024,4,1,0,10,0,0
322004,1161.86885846154,4,1,0,10,1,0
322004,-23.09523256,4,1,0,10,0,0

[HitObjects]
64,192,446,5,0,0:0:0:0:
320,192,446,1,0,0:0:0:0:
192,192,748,1,0,0:0:0:0:
448,192,983,1,0,0:0:0:0:
320,192,983,1,0,0:0:0:0:
448,192,1386,1,0,0:0:0:0:
192,192,1565,1,0,0:0:0:0:
448,192,1968,1,0,0:0:0:0:
320,192,1991,1,0,0:0:0:0:
320,192,3065,1,0,0:0:0:0:
448,192,3116,1,0,0:0:0:0:
320,192,3166,1,0,0:0:0:0:
192,192,3334,1,0,0:0:0:0:
320,192,3580,1,0,0:0:0:0:
64,192,3580,1,0,0:0:0:0:
320,192,3849,1,0,0:0:0:0:
192,192,3849,1,0,0:0:0:0:
448,192,4073,1,0,0:0:0:0:
320,192,4387,1,0,0:0:0:0:
192,192,4387,1,0,0:0:0:0:
448,192,4521,1,0,0:0:0:0:
320,192,4700,1,0,0:0:0:0:
64,192,4790,1,0,0:0:0:0:
448,192,4879,1,0,0:0:0:0:
192,192,4879,1,0,0:0:0:0:
320,192,5148,1,0,0:0:0:0:
64,192,5148,1,0,0:0:0:0:
448,192,5282,1,0,0:0:0:0:
192,192,5282,1,0,0:0:0:0:
192,192,5484,1,0,0:0:0:0:
64,192,5484,1,0,0:0:0:0:
320,192,5685,1,0,0:0:0:0:
448,192,6156,1,0,0:0:0:0:
64,192,7208,1,0,0:0:0:0:
192,192,7298,1,0,0:0:0:0:
448,192,7387,1,0,0:0:0:0:
320,192,7521,1,0,0:0:0:0:
64,192,7521,1,0,0:0:0:0:
192,192,7701,1,0,0:0:0:0:
64,192,7701,1,0,0:0:0:0:
448,192,7902,1,0,0:0:0:0:
64,192,7902,1,0,0:0:0:0:
448,192,8775,1,0,0:0:0:0:
320,192,9089,1,0,0:0:0:0:
192,192,9246,1,0,0:0:0:0:
64,192,9246,1,0,0:0:0:0:
320,192,9380,1,0,0:0:0:0:
448,192,9626,1,0,0:0:0:0:
192,192,9985,1,0,0:0:0:0:
64,192,9985,1,0,0:0:0:0:
448,192,10186,1,0,0:0:0:0:
192,192,10186,1,0,0:0:0:0:
320,192,10343,1,0,0:0:0:0:
448,192,10589,1,0,0:0:0:0:
64,192,10589,1,0,0:0:0:0:
192,192,10791,1,0,0:0:0:0:
64,192,10791,1,0,0:0:0:0:
320,192,10992,1,0,0:0:0:0:
192,192,10992,1,0,0:0:0:0:
448,192,11160,1,0,0:0:0:0:
448,192,11429,1,0,0:0:0:0:
320,192,11429,1,0,0:0:0:0:
192,192,11597,1,0,0:0:0:0:
320,192,11832,1,0,0:0:0:0:
448,192,12000,1,0,0:0:0:0:
64,192,12000,1,0,0:0:0:0:
192,192,12168,1,0,0:0:0:0:
448,192,12336,1,0,0:0:0:0:
320,192,13075,1,0,0:0:0:0:
448,192,13175,1,0,0:0:0:0:
320,192,13310,1,0,0:0:0:0:
192,192,13478,1,0,0:0:0:0:
448,192,13657,1,0,0:0:0:0:
64,192,13657,1,0,0:0:0:0:
448,192,14082,1,0,0:0:0:0:
192,192,14284,1,0,0:0:0:0:
64,192,14284,1,0,0:0:0:0:
448,192,14486,1,0,0:0:0:0:
320,192,14486,1,0,0:0:0:0:
320,192,14687,1,0,0:0:0:0:
192,192,14687,1,0,0:0:0:0:
448,192,14866,1,0,0:0:0:0:
192,192,14866,1,0,0:0:0:0:
320,192,15225,1,0,0:0:0:0:
64,192,15225,1,0,0:0:0:0:
320,192,15964,1,0,0:0:0:0:
192,192,16065,1,0,0:0:0:0:
64,192,16065,1,0,0:0:0:0:
448,192,16837,1,0,0:0:0:0:
320,192,16972,1,0,0:0:0:0:
192,192,16972,1,0,0:0:0:0:
448,192,17509,1,0,0:0:0:0:
64,192,17509,1,0,0:0:0:0:
320,192,18584,1,0,0:0:0:0:
192,192,18674,1,0,0:0:0:0:
320,192,18763,1,0,0:0:0:0:
192,192,18987,1,0,0:0:0:0:
64,192,18987,1,0,0:0:0:0:
448,192,19301,1,0,0:0:0:0:
320,192,19301,1,0,0:0:0:0:
448,192,20152,1,0,0:0:0:0:
320,192,20465,1,0,0:0:0:0:
192,192,20465,1,0,0:0:0:0:
192,192,20734,1,0,0:0:0:0:
320,192,21338,1,0,0:0:0:0:
64,192,21338,1,0,0:0:0:0:
448,192,22413,1,0,0:0:0:0:
192,192,22547,1,0,0:0:0:0:
64,192,22928,1,0,0:0:0:0:
192,192,23286,1,0,0:0:0:0:
448,192,23488,1,0,0:0:0:0:
448,192,23577,1,0,0:0:0:0:
320,192,23644,1,0,0:0:0:0:
192,192,23689,1,0,0:0:0:0:
64,192,23756,1,0,0:0:0:0:
448,192,23801,1,0,0:0:0:0:
320,192,23846,1,0,0:0:0:0:
192,192,23891,1,0,0:0:0:0:
64,192,23935,1,0,0:0:0:0:
448,192,23980,1,0,0:0:0:0:
320,192,24025,1,0,0:0:0:0:
192,192,24070,1,0,0:0:0:0:
64,192,24115,1,0,0:0:0:0:
448,192,24159,1,0,0:0:0:0:
320,192,24204,1,0,0:0:0:0:
192,192,24249,1,0,0:0:0:0:
64,192,24294,1,0,0:0:0:0:
448,192,24338,1,0,0:0:0:0:
320,192,24383,1,0,0:0:0:0:
192,192,24428,1,0,0:0:0:0:
64,192,24473,1,0,0:0:0:0:
448,192,24518,1,0,0:0:0:0:
320,192,24585,1,0,0:0:0:0:
192,192,24652,1,0,0:0:0:0:
64,192,24719,1,0,0:0:0:0:
192,192,27681,1,0,0:0:0:0:
320,192,27735,1,0,0:0:0:0:
448,192,27788,1,0,0:0:0:0:
192,192,27788,1,0,0:0:0:0:
64,192,27788,1,0,0:0:0:0:
320,192,27921,1,0,0:0:0:0:
192,192,28054,1,0,0:0:0:0:
64,192,28054,1,0,0:0:0:0:
64,192,28187,1,0,0:0:0:0:
320,192,28232,1,0,0:0:0:0:
192,192,28276,1,0,0:0:0:0:
320,192,28321,1,0,0:0:0:0:
448,192,28454,1,0,0:0:0:0:
192,192,28543,1,0,0:0:0:0:
64,192,28587,1,0,0:0:0:0:
448,192,28720,1,0,0:0:0:0:
320,192,28720,128,0,28754:0:0:0:0:
192,192,28720,1,0,0:0:0:0:
320,192,28987,1,0,0:0:0:0:
64,192,28987,1,0,0:0:0:0:
448,192,29120,1,0,0:0:0:0:
192,192,29120,1,0,0:0:0:0:
320,192,29253,1,0,0:0:0:0:
64,192,29253,1,0,0:0:0:0:
192,192,29320,1,0,0:0:0:0:
448,192,29387,1,0,0:0:0:0:
64,192,29387,1,0,0:0:0:0:
448,192,29520,1,0,0:0:0:0:
320,192,29520,1,0,0:0:0:0:
448,192,29653,1,0,0:0:0:0:
64,192,29653,1,0,0:0:0:0:
320,192,29787,1,0,0:0:0:0:
448,192,29853,1,0,0:0:0:0:
320,192,29920,1,0,0:0:0:0:
192,192,29920,1,0,0:0:0:0:
64,192,29920,1,0,0:0:0:0:
320,192,30053,1,0,0:0:0:0:
64,192,30053,1,0,0:0:0:0:
448,192,30186,1,0,0:0:0:0:
192,192,30186,1,0,0:0:0:0:
320,192,30320,1,0,0:0:0:0:
192,192,30320,1,0,0:0:0:0:
64,192,30386,1,0,0:0:0:0:
448,192,30453,1,0,0:0:0:0:
192,192,30453,1,0,0:0:0:0:
448,192,30586,1,0,0:0:0:0:
320,192,30586,1,0,0:0:0:0:
64,192,30719,1,0,0:0:0:0:
448,192,30853,128,0,30886:0:0:0:0:
320,192,30853,1,0,0:0:0:0:
64,192,30853,1,0,0:0:0:0:
448,192,30986,1,0,0:0:0:0:
192,192,31119,1,0,0:0:0:0:
64,192,31119,1,0,0:0:0:0:
448,192,31253,1,0,0:0:0:0:
320,192,31253,1,0,0:0:0:0:
192,192,31386,1,0,0:0:0:0:
64,192,31386,1,0,0:0:0:0:
320,192,31452,1,0,0:0:0:0:
448,192,31519,1,0,0:0:0:0:
192,192,31519,1,0,0:0:0:0:
448,192,31652,1,0,0:0:0:0:
64,192,31652,1,0,0:0:0:0:
192,192,31786,1,0,0:0:0:0:
64,192,31786,1,0,0:0:0:0:
64,192,31919,1,0,0:0:0:0:
192,192,31986,1,0,0:0:0:0:
448,192,32052,1,0,0:0:0:0:
320,192,32052,128,0,32086:0:0:0:0:
64,192,32052,1,0,0:0:0:0:
192,192,32185,1,0,0:0:0:0:
64,192,32185,1,0,0:0:0:0:
448,192,32319,1,0,0:0:0:0:
320,192,32319,1,0,0:0:0:0:
320,192,32452,1,0,0:0:0:0:
192,192,32452,1,0,0:0:0:0:
448,192,32519,1,0,0:0:0:0:
192,192,32585,1,0,0:0:0:0:
64,192,32585,1,0,0:0:0:0:
448,192,32719,1,0,0:0:0:0:
320,192,32719,1,0,0:0:0:0:
192,192,32852,1,0,0:0:0:0:
320,192,32985,1,0,0:0:0:0:
192,192,32985,1,0,0:0:0:0:
64,192,32985,128,0,33018:0:0:0:0:
320,192,33118,1,0,0:0:0:0:
192,192,33252,1,0,0:0:0:0:
64,192,33252,1,0,0:0:0:0:
448,192,33385,1,0,0:0:0:0:
320,192,33385,1,0,0:0:0:0:
192,192,33418,1,0,0:0:0:0:
448,192,33518,1,0,0:0:0:0:
64,192,33518,1,0,0:0:0:0:
320,192,33585,1,0,0:0:0:0:
192,192,33651,1,0,0:0:0:0:
64,192,33651,1,0,0:0:0:0:
448,192,33785,1,0,0:0:0:0:
320,192,33785,1,0,0:0:0:0:
448,192,33918,1,0,0:0:0:0:
320,192,33918,1,0,0:0:0:0:
64,192,34051,1,0,0:0:0:0:
320,192,34118,1,0,0:0:0:0:
448,192,34185,1,0,0:0:0:0:
192,192,34185,1,0,0:0:0:0:
64,192,34185,1,0,0:0:0:0:
320,192,34318,1,0,0:0:0:0:
64,192,34318,1,0,0:0:0:0:
448,192,34451,1,0,0:0:0:0:
192,192,34451,1,0,0:0:0:0:
320,192,34584,1,0,0:0:0:0:
64,192,34584,128,0,34651:0:0:0:0:
448,192,34718,1,0,0:0:0:0:
192,192,34718,1,0,0:0:0:0:
320,192,34784,1,0,0:0:0:0:
448,192,34851,1,0,0:0:0:0:
64,192,34851,1,0,0:0:0:0:
320,192,34918,1,0,0:0:0:0:
192,192,34984,1,0,0:0:0:0:
320,192,35051,1,0,0:0:0:0:
448,192,35117,128,0,35151:0:0:0:0:
192,192,35117,128,0,35151:0:0:0:0:
64,192,35117,128,0,35151:0:0:0:0:
64,192,35547,128,0,35816:0:0:0:0:
192,192,35816,128,0,36085:0:0:0:0:
448,192,36085,1,0,0:0:0:0:
320,192,36085,128,0,36354:0:0:0:0:
64,192,36219,1,0,0:0:0:0:
192,192,36286,1,0,0:0:0:0:
448,192,36354,1,0,0:0:0:0:
64,192,36354,1,0,0:0:0:0:
320,192,36401,1,0,0:0:0:0:
192,192,36449,1,0,0:0:0:0:
64,192,36496,1,0,0:0:0:0:
192,192,36544,1,0,0:0:0:0:
320,192,36591,1,0,0:0:0:0:
448,192,36639,1,0,0:0:0:0:
320,192,36683,1,0,0:0:0:0:
192,192,36728,1,0,0:0:0:0:
64,192,36773,1,0,0:0:0:0:
192,192,36818,1,0,0:0:0:0:
448,192,36863,1,0,0:0:0:0:
320,192,36908,1,0,0:0:0:0:
192,192,36952,1,0,0:0:0:0:
64,192,36997,1,0,0:0:0:0:
448,192,37042,1,0,0:0:0:0:
320,192,37087,1,0,0:0:0:0:
448,192,37177,1,0,0:0:0:0:
64,192,37177,1,0,0:0:0:0:
192,192,37221,1,0,0:0:0:0:
320,192,37266,1,0,0:0:0:0:
448,192,37311,1,0,0:0:0:0:
64,192,37356,1,0,0:0:0:0:
320,192,37401,1,0,0:0:0:0:
448,192,37446,1,0,0:0:0:0:
192,192,37446,1,0,0:0:0:0:
64,192,37490,1,0,0:0:0:0:
320,192,37535,1,0,0:0:0:0:
192,192,37580,1,0,0:0:0:0:
448,192,37625,1,0,0:0:0:0:
192,192,37715,1,0,0:0:0:0:
64,192,37715,1,0,0:0:0:0:
448,192,37759,1,0,0:0:0:0:
320,192,37804,1,0,0:0:0:0:
192,192,37849,1,0,0:0:0:0:
64,192,37849,1,0,0:0:0:0:
448,192,37894,1,0,0:0:0:0:
320,192,37939,1,0,0:0:0:0:
64,192,37984,1,0,0:0:0:0:
448,192,38118,1,0,0:0:0:0:
64,192,38118,1,0,0:0:0:0:
320,192,38163,1,0,0:0:0:0:
192,192,38208,1,0,0:0:0:0:
448,192,38253,1,0,0:0:0:0:
448,192,38387,1,0,0:0:0:0:
64,192,38387,1,0,0:0:0:0:
192,192,38432,1,0,0:0:0:0:
320,192,38477,1,0,0:0:0:0:
64,192,38522,1,0,0:0:0:0:
192,192,38566,1,0,0:0:0:0:
320,192,38611,1,0,0:0:0:0:
448,192,38656,1,0,0:0:0:0:
192,192,38701,1,0,0:0:0:0:
320,192,38746,1,0,0:0:0:0:
64,192,38791,1,0,0:0:0:0:
192,192,38836,1,0,0:0:0:0:
320,192,38880,1,0,0:0:0:0:
64,192,38925,1,0,0:0:0:0:
192,192,38970,1,0,0:0:0:0:
320,192,39015,1,0,0:0:0:0:
64,192,39060,1,0,0:0:0:0:
192,192,39105,1,0,0:0:0:0:
448,192,39149,1,0,0:0:0:0:
320,192,39194,1,0,0:0:0:0:
192,192,39239,1,0,0:0:0:0:
448,192,39329,1,0,0:0:0:0:
64,192,39329,1,0,0:0:0:0:
192,192,39463,1,0,0:0:0:0:
448,192,39508,1,0,0:0:0:0:
64,192,39553,1,0,0:0:0:0:
192,192,39598,1,0,0:0:0:0:
64,192,39732,1,0,0:0:0:0:
192,192,39777,1,0,0:0:0:0:
448,192,39867,1,0,0:0:0:0:
320,192,39867,1,0,0:0:0:0:
192,192,39912,1,0,0:0:0:0:
64,192,39956,1,0,0:0:0:0:
320,192,40001,1,0,0:0:0:0:
448,192,40046,1,0,0:0:0:0:
64,192,40091,1,0,0:0:0:0:
320,192,40136,1,0,0:0:0:0:
192,192,40136,1,0,0:0:0:0:
448,192,40181,1,0,0:0:0:0:
64,192,40225,1,0,0:0:0:0:
192,192,40270,1,0,0:0:0:0:
320,192,40315,1,0,0:0:0:0:
448,192,40360,1,0,0:0:0:0:
192,192,40405,1,0,0:0:0:0:
64,192,40405,1,0,0:0:0:0:
320,192,40450,1,0,0:0:0:0:
448,192,40494,1,0,0:0:0:0:
192,192,40539,1,0,0:0:0:0:
64,192,40584,1,0,0:0:0:0:
320,192,40629,1,0,0:0:0:0:
448,192,40674,1,0,0:0:0:0:
192,192,40674,1,0,0:0:0:0:
64,192,40719,1,0,0:0:0:0:
320,192,40763,1,0,0:0:0:0:
448,192,40808,1,0,0:0:0:0:
64,192,40853,1,0,0:0:0:0:
192,192,40898,1,0,0:0:0:0:
448,192,40943,1,0,0:0:0:0:
64,192,40988,1,0,0:0:0:0:
192,192,41033,1,0,0:0:0:0:
320,192,41077,1,0,0:0:0:0:
64,192,41122,1,0,0:0:0:0:
192,192,41167,1,0,0:0:0:0:
320,192,41212,1,0,0:0:0:0:
448,192,41257,1,0,0:0:0:0:
192,192,41302,1,0,0:0:0:0:
64,192,41346,1,0,0:0:0:0:
320,192,41391,1,0,0:0:0:0:
448,192,41481,1,0,0:0:0:0:
64,192,41481,1,0,0:0:0:0:
320,192,41526,1,0,0:0:0:0:
192,192,41571,1,0,0:0:0:0:
64,192,41615,1,0,0:0:0:0:
320,192,41660,1,0,0:0:0:0:
192,192,41705,1,0,0:0:0:0:
448,192,41750,1,0,0:0:0:0:
64,192,41750,1,0,0:0:0:0:
320,192,41795,1,0,0:0:0:0:
192,192,41840,1,0,0:0:0:0:
64,192,41884,1,0,0:0:0:0:
448,192,41929,1,0,0:0:0:0:
192,192,41974,1,0,0:0:0:0:
320,192,42019,1,0,0:0:0:0:
64,192,42019,1,0,0:0:0:0:
448,192,42064,1,0,0:0:0:0:
192,192,42109,1,0,0:0:0:0:
320,192,42153,1,0,0:0:0:0:
64,192,42153,1,0,0:0:0:0:
448,192,42198,1,0,0:0:0:0:
192,192,42243,1,0,0:0:0:0:
320,192,42288,1,0,0:0:0:0:
192,192,42422,1,0,0:0:0:0:
64,192,42422,1,0,0:0:0:0:
320,192,42467,1,0,0:0:0:0:
448,192,42512,1,0,0:0:0:0:
192,192,42557,1,0,0:0:0:0:
64,192,42557,1,0,0:0:0:0:
448,192,42691,1,0,0:0:0:0:
320,192,42691,1,0,0:0:0:0:
64,192,42736,1,0,0:0:0:0:
192,192,42781,1,0,0:0:0:0:
448,192,42826,1,0,0:0:0:0:
320,192,42871,1,0,0:0:0:0:
192,192,42916,1,0,0:0:0:0:
64,192,42961,1,0,0:0:0:0:
320,192,43005,1,0,0:0:0:0:
192,192,43050,1,0,0:0:0:0:
448,192,43095,1,0,0:0:0:0:
320,192,43140,1,0,0:0:0:0:
192,192,43185,1,0,0:0:0:0:
64,192,43230,1,0,0:0:0:0:
320,192,43274,1,0,0:0:0:0:
192,192,43319,1,0,0:0:0:0:
448,192,43364,1,0,0:0:0:0:
320,192,43409,1,0,0:0:0:0:
192,192,43454,1,0,0:0:0:0:
64,192,43499,1,0,0:0:0:0:
448,192,43543,1,0,0:0:0:0:
192,192,43588,1,0,0:0:0:0:
320,192,43633,1,0,0:0:0:0:
64,192,43633,1,0,0:0:0:0:
448,192,43678,1,0,0:0:0:0:
192,192,43723,1,0,0:0:0:0:
320,192,43768,1,0,0:0:0:0:
448,192,43812,1,0,0:0:0:0:
192,192,43857,1,0,0:0:0:0:
320,192,43902,1,0,0:0:0:0:
320,192,44037,1,0,0:0:0:0:
192,192,44081,1,0,0:0:0:0:
320,192,44171,1,0,0:0:0:0:
64,192,44171,1,0,0:0:0:0:
192,192,44306,1,0,0:0:0:0:
448,192,44350,1,0,0:0:0:0:
320,192,44395,1,0,0:0:0:0:
192,192,44440,1,0,0:0:0:0:
64,192,44440,1,0,0:0:0:0:
448,192,44485,1,0,0:0:0:0:
320,192,44530,1,0,0:0:0:0:
64,192,44575,1,0,0:0:0:0:
192,192,44619,1,0,0:0:0:0:
320,192,44664,1,0,0:0:0:0:
448,192,44709,1,0,0:0:0:0:
64,192,44709,1,0,0:0:0:0:
192,192,44754,1,0,0:0:0:0:
320,192,44799,1,0,0:0:0:0:
448,192,44844,1,0,0:0:0:0:
64,192,44888,1,0,0:0:0:0:
192,192,44933,1,0,0:0:0:0:
448,192,44978,1,0,0:0:0:0:
320,192,44978,1,0,0:0:0:0:
64,192,45023,1,0,0:0:0:0:
192,192,45068,1,0,0:0:0:0:
448,192,45113,1,0,0:0:0:0:
320,192,45158,1,0,0:0:0:0:
192,192,45202,1,0,0:0:0:0:
64,192,45247,1,0,0:0:0:0:
320,192,45292,1,0,0:0:0:0:
192,192,45337,1,0,0:0:0:0:
448,192,45382,1,0,0:0:0:0:
320,192,45427,1,0,0:0:0:0:
192,192,45471,1,0,0:0:0:0:
64,192,45516,1,0,0:0:0:0:
448,192,45561,1,0,0:0:0:0:
320,192,45606,1,0,0:0:0:0:
192,192,45651,1,0,0:0:0:0:
448,192,45696,1,0,0:0:0:0:
192,192,45785,1,0,0:0:0:0:
64,192,45785,1,0,0:0:0:0:
320,192,45830,1,0,0:0:0:0:
448,192,45875,1,0,0:0:0:0:
64,192,45920,1,0,0:0:0:0:
320,192,45965,1,0,0:0:0:0:
192,192,46009,1,0,0:0:0:0:
448,192,46054,1,0,0:0:0:0:
64,192,46054,1,0,0:0:0:0:
320,192,46099,1,0,0:0:0:0:
192,192,46144,1,0,0:0:0:0:
448,192,46189,1,0,0:0:0:0:
64,192,46234,1,0,0:0:0:0:
448,192,46323,1,0,0:0:0:0:
320,192,46323,1,0,0:0:0:0:
192,192,46368,1,0,0:0:0:0:
64,192,46413,1,0,0:0:0:0:
448,192,46458,1,0,0:0:0:0:
320,192,46458,1,0,0:0:0:0:
192,192,46503,1,0,0:0:0:0:
64,192,46547,1,0,0:0:0:0:
320,192,46592,1,0,0:0:0:0:
448,192,46727,1,0,0:0:0:0:
64,192,46727,1,0,0:0:0:0:
192,192,46772,1,0,0:0:0:0:
320,192,46816,1,0,0:0:0:0:
448,192,46861,1,0,0:0:0:0:
64,192,46861,1,0,0:0:0:0:
192,192,46996,1,0,0:0:0:0:
64,192,46996,1,0,0:0:0:0:
320,192,47041,1,0,0:0:0:0:
448,192,47085,1,0,0:0:0:0:
64,192,47130,1,0,0:0:0:0:
192,192,47175,1,0,0:0:0:0:
320,192,47220,1,0,0:0:0:0:
448,192,47265,1,0,0:0:0:0:
192,192,47310,1,0,0:0:0:0:
64,192,47355,1,0,0:0:0:0:
448,192,47399,1,0,0:0:0:0:
192,192,47444,1,0,0:0:0:0:
64,192,47489,1,0,0:0:0:0:
448,192,47534,1,0,0:0:0:0:
192,192,47579,1,0,0:0:0:0:
64,192,47624,1,0,0:0:0:0:
448,192,47668,1,0,0:0:0:0:
320,192,47713,1,0,0:0:0:0:
64,192,47758,1,0,0:0:0:0:
192,192,47803,1,0,0:0:0:0:
320,192,47848,1,0,0:0:0:0:
448,192,47893,1,0,0:0:0:0:
192,192,47937,1,0,0:0:0:0:
64,192,47937,1,0,0:0:0:0:
448,192,48072,1,0,0:0:0:0:
320,192,48072,1,0,0:0:0:0:
192,192,48117,1,0,0:0:0:0:
64,192,48162,1,0,0:0:0:0:
448,192,48207,1,0,0:0:0:0:
64,192,48341,1,0,0:0:0:0:
192,192,48386,1,0,0:0:0:0:
448,192,48476,1,0,0:0:0:0:
320,192,48476,1,0,0:0:0:0:
64,192,48610,1,0,0:0:0:0:
320,192,48655,1,0,0:0:0:0:
192,192,48700,1,0,0:0:0:0:
448,192,48745,1,0,0:0:0:0:
64,192,48745,1,0,0:0:0:0:
320,192,48789,1,0,0:0:0:0:
192,192,48834,1,0,0:0:0:0:
448,192,48879,1,0,0:0:0:0:
320,192,48924,1,0,0:0:0:0:
192,192,49014,1,0,0:0:0:0:
64,192,49014,1,0,0:0:0:0:
320,192,49058,1,0,0:0:0:0:
448,192,49103,1,0,0:0:0:0:
64,192,49148,1,0,0:0:0:0:
192,192,49193,1,0,0:0:0:0:
320,192,49238,1,0,0:0:0:0:
448,192,49283,1,0,0:0:0:0:
64,192,49283,1,0,0:0:0:0:
192,192,49327,1,0,0:0:0:0:
320,192,49372,1,0,0:0:0:0:
64,192,49417,1,0,0:0:0:0:
192,192,49462,1,0,0:0:0:0:
448,192,49507,1,0,0:0:0:0:
320,192,49552,1,0,0:0:0:0:
192,192,49596,1,0,0:0:0:0:
448,192,49641,1,0,0:0:0:0:
320,192,49686,1,0,0:0:0:0:
192,192,49731,1,0,0:0:0:0:
448,192,49776,1,0,0:0:0:0:
320,192,49821,1,0,0:0:0:0:
192,192,49865,1,0,0:0:0:0:
64,192,49910,1,0,0:0:0:0:
320,192,49955,1,0,0:0:0:0:
192,192,50000,1,0,0:0:0:0:
448,192,50090,1,0,0:0:0:0:
64,192,50090,1,0,0:0:0:0:
192,192,50134,1,0,0:0:0:0:
320,192,50179,1,0,0:0:0:0:
448,192,50224,1,0,0:0:0:0:
64,192,50269,1,0,0:0:0:0:
192,192,50314,1,0,0:0:0:0:
448,192,50359,1,0,0:0:0:0:
320,192,50359,1,0,0:0:0:0:
64,192,50403,1,0,0:0:0:0:
192,192,50448,1,0,0:0:0:0:
320,192,50493,1,0,0:0:0:0:
448,192,50538,1,0,0:0:0:0:
192,192,50628,1,0,0:0:0:0:
64,192,50628,1,0,0:0:0:0:
448,192,50673,1,0,0:0:0:0:
320,192,50717,1,0,0:0:0:0:
192,192,50762,1,0,0:0:0:0:
64,192,50807,1,0,0:0:0:0:
320,192,50852,1,0,0:0:0:0:
448,192,50897,1,0,0:0:0:0:
192,192,50897,1,0,0:0:0:0:
64,192,50942,1,0,0:0:0:0:
320,192,50986,1,0,0:0:0:0:
448,192,51031,1,0,0:0:0:0:
192,192,51076,1,0,0:0:0:0:
320,192,51166,1,0,0:0:0:0:
64,192,51166,1,0,0:0:0:0:
448,192,51211,1,0,0:0:0:0:
320,192,51255,1,0,0:0:0:0:
192,192,51300,1,0,0:0:0:0:
64,192,51345,1,0,0:0:0:0:
448,192,51390,1,0,0:0:0:0:
320,192,51435,1,0,0:0:0:0:
192,192,51435,1,0,0:0:0:0:
64,192,51480,1,0,0:0:0:0:
448,192,51524,1,0,0:0:0:0:
192,192,51569,1,0,0:0:0:0:
64,192,51614,1,0,0:0:0:0:
320,192,51659,1,0,0:0:0:0:
192,192,51704,1,0,0:0:0:0:
64,192,51749,1,0,0:0:0:0:
320,192,51793,1,0,0:0:0:0:
448,192,51838,1,0,0:0:0:0:
64,192,51883,1,0,0:0:0:0:
320,192,51928,1,0,0:0:0:0:
192,192,51973,1,0,0:0:0:0:
448,192,52018,1,0,0:0:0:0:
320,192,52062,1,0,0:0:0:0:
192,192,52107,1,0,0:0:0:0:
448,192,52152,1,0,0:0:0:0:
320,192,52197,1,0,0:0:0:0:
192,192,52242,1,0,0:0:0:0:
64,192,52242,1,0,0:0:0:0:
448,192,52376,1,0,0:0:0:0:
192,192,52421,1,0,0:0:0:0:
320,192,52466,1,0,0:0:0:0:
64,192,52511,1,0,0:0:0:0:
192,192,52645,1,0,0:0:0:0:
320,192,52690,1,0,0:0:0:0:
448,192,52780,1,0,0:0:0:0:
64,192,52780,1,0,0:0:0:0:
192,192,52914,1,0,0:0:0:0:
64,192,52914,1,0,0:0:0:0:
320,192,52959,1,0,0:0:0:0:
448,192,53004,1,0,0:0:0:0:
192,192,53049,1,0,0:0:0:0:
64,192,53049,1,0,0:0:0:0:
448,192,53183,1,0,0:0:0:0:
320,192,53183,1,0,0:0:0:0:
192,192,53183,1,0,0:0:0:0:
320,192,53318,1,0,0:0:0:0:
448,192,53318,1,0,0:0:0:0:
64,192,53318,1,0,0:0:0:0:
192,192,53318,1,0,0:0:0:0:
192,192,53452,1,0,0:0:0:0:
64,192,53452,1,0,0:0:0:0:
192,192,53520,1,0,0:0:0:0:
448,192,53587,1,0,0:0:0:0:
320,192,53587,1,0,0:0:0:0:
64,192,53632,1,0,0:0:0:0:
192,192,53677,1,0,0:0:0:0:
448,192,53721,1,0,0:0:0:0:
320,192,53766,1,0,0:0:0:0:
192,192,53811,1,0,0:0:0:0:
64,192,53856,1,0,0:0:0:0:
192,192,53901,1,0,0:0:0:0:
320,192,53946,1,0,0:0:0:0:
448,192,53990,1,0,0:0:0:0:
192,192,54035,1,0,0:0:0:0:
320,192,54080,1,0,0:0:0:0:
64,192,54125,1,0,0:0:0:0:
448,192,54170,1,0,0:0:0:0:
320,192,54215,1,0,0:0:0:0:
192,192,54259,1,0,0:0:0:0:
64,192,54304,1,0,0:0:0:0:
448,192,54394,1,0,0:0:0:0:
192,192,54394,1,0,0:0:0:0:
64,192,54439,1,0,0:0:0:0:
320,192,54484,1,0,0:0:0:0:
192,192,54528,1,0,0:0:0:0:
64,192,54573,1,0,0:0:0:0:
320,192,54618,1,0,0:0:0:0:
448,192,54663,1,0,0:0:0:0:
192,192,54663,1,0,0:0:0:0:
64,192,54708,1,0,0:0:0:0:
320,192,54753,1,0,0:0:0:0:
448,192,54798,1,0,0:0:0:0:
192,192,54842,1,0,0:0:0:0:
448,192,54932,1,0,0:0:0:0:
64,192,54932,1,0,0:0:0:0:
192,192,54977,1,0,0:0:0:0:
320,192,55022,1,0,0:0:0:0:
448,192,55067,1,0,0:0:0:0:
64,192,55067,1,0,0:0:0:0:
192,192,55111,1,0,0:0:0:0:
320,192,55156,1,0,0:0:0:0:
448,192,55201,1,0,0:0:0:0:
448,192,55335,1,0,0:0:0:0:
64,192,55335,1,0,0:0:0:0:
192,192,55380,1,0,0:0:0:0:
320,192,55425,1,0,0:0:0:0:
448,192,55470,1,0,0:0:0:0:
64,192,55470,1,0,0:0:0:0:
448,192,55604,1,0,0:0:0:0:
320,192,55604,1,0,0:0:0:0:
64,192,55649,1,0,0:0:0:0:
192,192,55694,1,0,0:0:0:0:
448,192,55739,1,0,0:0:0:0:
64,192,55784,1,0,0:0:0:0:
192,192,55829,1,0,0:0:0:0:
320,192,55873,1,0,0:0:0:0:
64,192,55918,1,0,0:0:0:0:
448,192,55963,1,0,0:0:0:0:
320,192,56008,1,0,0:0:0:0:
64,192,56053,1,0,0:0:0:0:
448,192,56098,1,0,0:0:0:0:
192,192,56143,1,0,0:0:0:0:
64,192,56187,1,0,0:0:0:0:
448,192,56232,1,0,0:0:0:0:
320,192,56277,1,0,0:0:0:0:
192,192,56322,1,0,0:0:0:0:
64,192,56367,1,0,0:0:0:0:
320,192,56412,1,0,0:0:0:0:
192,192,56457,1,0,0:0:0:0:
64,192,56501,1,0,0:0:0:0:
448,192,56546,1,0,0:0:0:0:
320,192,56546,1,0,0:0:0:0:
192,192,56591,1,0,0:0:0:0:
64,192,56636,1,0,0:0:0:0:
448,192,56681,1,0,0:0:0:0:
320,192,56681,1,0,0:0:0:0:
192,192,56726,1,0,0:0:0:0:
64,192,56726,1,0,0:0:0:0:
448,192,56771,1,0,0:0:0:0:
320,192,56815,1,0,0:0:0:0:
448,192,56950,1,0,0:0:0:0:
192,192,56950,1,0,0:0:0:0:
320,192,56995,1,0,0:0:0:0:
64,192,56995,1,0,0:0:0:0:
448,192,57085,1,0,0:0:0:0:
320,192,57085,1,0,0:0:0:0:
192,192,57219,1,0,0:0:0:0:
64,192,57219,1,0,0:0:0:0:
448,192,57264,1,0,0:0:0:0:
320,192,57264,1,0,0:0:0:0:
64,192,57309,1,0,0:0:0:0:
192,192,57354,1,0,0:0:0:0:
448,192,57488,1,0,0:0:0:0:
192,192,57488,1,0,0:0:0:0:
64,192,57533,1,0,0:0:0:0:
320,192,57624,1,0,0:0:0:0:
192,192,57624,1,0,0:0:0:0:
448,192,57752,1,0,0:0:0:0:
320,192,57752,1,0,0:0:0:0:
192,192,57795,1,0,0:0:0:0:
64,192,57838,1,0,0:0:0:0:
448,192,57881,1,0,0:0:0:0:
320,192,57881,1,0,0:0:0:0:
192,192,57925,1,0,0:0:0:0:
64,192,57970,1,0,0:0:0:0:
320,192,58015,1,0,0:0:0:0:
448,192,58060,1,0,0:0:0:0:
64,192,58104,1,0,0:0:0:0:
192,192,58149,1,0,0:0:0:0:
448,192,58194,1,0,0:0:0:0:
64,192,58239,1,0,0:0:0:0:
320,192,58283,1,0,0:0:0:0:
448,192,58328,1,0,0:0:0:0:
64,192,58373,1,0,0:0:0:0:
192,192,58418,1,0,0:0:0:0:
320,192,58463,1,0,0:0:0:0:
448,192,58507,1,0,0:0:0:0:
192,192,58552,1,0,0:0:0:0:
320,192,58597,1,0,0:0:0:0:
448,192,58686,1,0,0:0:0:0:
64,192,58686,1,0,0:0:0:0:
192,192,58731,1,0,0:0:0:0:
320,192,58776,1,0,0:0:0:0:
448,192,58821,1,0,0:0:0:0:
64,192,58866,1,0,0:0:0:0:
192,192,58910,1,0,0:0:0:0:
448,192,58955,1,0,0:0:0:0:
320,192,58955,1,0,0:0:0:0:
64,192,59000,1,0,0:0:0:0:
192,192,59045,1,0,0:0:0:0:
448,192,59089,1,0,0:0:0:0:
320,192,59134,1,0,0:0:0:0:
448,192,59224,1,0,0:0:0:0:
64,192,59224,1,0,0:0:0:0:
320,192,59268,1,0,0:0:0:0:
192,192,59313,1,0,0:0:0:0:
448,192,59358,1,0,0:0:0:0:
64,192,59358,1,0,0:0:0:0:
320,192,59403,1,0,0:0:0:0:
192,192,59448,1,0,0:0:0:0:
448,192,59492,1,0,0:0:0:0:
320,192,59627,1,0,0:0:0:0:
192,192,59627,1,0,0:0:0:0:
64,192,59671,1,0,0:0:0:0:
448,192,59716,1,0,0:0:0:0:
320,192,59761,1,0,0:0:0:0:
192,192,59761,1,0,0:0:0:0:
448,192,59895,1,0,0:0:0:0:
320,192,59895,1,0,0:0:0:0:
64,192,59940,1,0,0:0:0:0:
192,192,59985,1,0,0:0:0:0:
320,192,60030,1,0,0:0:0:0:
64,192,60074,1,0,0:0:0:0:
192,192,60119,1,0,0:0:0:0:
320,192,60164,1,0,0:0:0:0:
64,192,60209,1,0,0:0:0:0:
448,192,60253,1,0,0:0:0:0:
192,192,60298,1,0,0:0:0:0:
64,192,60343,1,0,0:0:0:0:
448,192,60388,1,0,0:0:0:0:
320,192,60433,1,0,0:0:0:0:
192,192,60477,1,0,0:0:0:0:
64,192,60522,1,0,0:0:0:0:
320,192,60567,1,0,0:0:0:0:
192,192,60612,1,0,0:0:0:0:
448,192,60656,1,0,0:0:0:0:
320,192,60701,1,0,0:0:0:0:
64,192,60701,1,0,0:0:0:0:
192,192,60746,1,0,0:0:0:0:
448,192,60836,1,0,0:0:0:0:
320,192,60836,1,0,0:0:0:0:
448,192,60970,1,0,0:0:0:0:
64,192,60970,1,0,0:0:0:0:
320,192,61015,1,0,0:0:0:0:
192,192,61059,1,0,0:0:0:0:
448,192,61104,1,0,0:0:0:0:
64,192,61104,1,0,0:0:0:0:
192,192,61171,1,0,0:0:0:0:
448,192,61238,1,0,0:0:0:0:
320,192,61238,1,0,0:0:0:0:
64,192,61283,1,0,0:0:0:0:
448,192,61373,1,0,0:0:0:0:
192,192,61373,1,0,0:0:0:0:
320,192,61440,1,0,0:0:0:0:
192,192,61507,1,0,0:0:0:0:
64,192,61507,1,0,0:0:0:0:
320,192,61552,1,0,0:0:0:0:
448,192,61597,1,0,0:0:0:0:
192,192,61641,1,0,0:0:0:0:
64,192,61641,1,0,0:0:0:0:
448,192,61776,1,0,0:0:0:0:
320,192,61776,1,0,0:0:0:0:
192,192,61821,1,0,0:0:0:0:
448,192,61910,1,0,0:0:0:0:
320,192,61910,1,0,0:0:0:0:
64,192,61910,1,0,0:0:0:0:
448,192,62044,1,0,0:0:0:0:
320,192,62044,1,0,0:0:0:0:
192,192,62044,1,0,0:0:0:0:
448,192,62112,1,0,0:0:0:0:
320,192,62112,1,0,0:0:0:0:
192,192,62179,1,0,0:0:0:0:
64,192,62179,1,0,0:0:0:0:
448,192,62223,1,0,0:0:0:0:
320,192,62268,1,0,0:0:0:0:
192,192,62313,1,0,0:0:0:0:
64,192,62358,1,0,0:0:0:0:
320,192,62403,1,0,0:0:0:0:
192,192,62447,1,0,0:0:0:0:
64,192,62492,1,0,0:0:0:0:
320,192,62537,1,0,0:0:0:0:
192,192,62582,1,0,0:0:0:0:
64,192,62626,1,0,0:0:0:0:
320,192,62671,1,0,0:0:0:0:
448,192,62716,1,0,0:0:0:0:
64,192,62761,1,0,0:0:0:0:
192,192,62806,1,0,0:0:0:0:
320,192,62850,1,0,0:0:0:0:
64,192,62895,1,0,0:0:0:0:
448,192,62985,1,0,0:0:0:0:
320,192,62985,1,0,0:0:0:0:
192,192,63029,1,0,0:0:0:0:
64,192,63074,1,0,0:0:0:0:
448,192,63119,1,0,0:0:0:0:
192,192,63164,1,0,0:0:0:0:
64,192,63208,1,0,0:0:0:0:
448,192,63253,1,0,0:0:0:0:
320,192,63253,1,0,0:0:0:0:
192,192,63298,1,0,0:0:0:0:
320,192,63343,1,0,0:0:0:0:
448,192,63388,1,0,0:0:0:0:
64,192,63432,1,0,0:0:0:0:
448,192,63522,1,0,0:0:0:0:
192,192,63522,1,0,0:0:0:0:
320,192,63567,1,0,0:0:0:0:
64,192,63611,1,0,0:0:0:0:
448,192,63656,1,0,0:0:0:0:
192,192,63656,1,0,0:0:0:0:
320,192,63701,1,0,0:0:0:0:
64,192,63746,1,0,0:0:0:0:
448,192,63791,1,0,0:0:0:0:
320,192,63925,1,0,0:0:0:0:
64,192,63925,1,0,0:0:0:0:
192,192,63970,1,0,0:0:0:0:
320,192,64014,1,0,0:0:0:0:
448,192,64059,1,0,0:0:0:0:
64,192,64059,1,0,0:0:0:0:
192,192,64193,1,0,0:0:0:0:
64,192,64193,1,0,0:0:0:0:
320,192,64238,1,0,0:0:0:0:
448,192,64283,1,0,0:0:0:0:
192,192,64328,1,0,0:0:0:0:
320,192,64373,1,0,0:0:0:0:
448,192,64417,1,0,0:0:0:0:
192,192,64462,1,0,0:0:0:0:
64,192,64507,1,0,0:0:0:0:
320,192,64552,1,0,0:0:0:0:
448,192,64596,1,0,0:0:0:0:
64,192,64641,1,0,0:0:0:0:
320,192,64686,1,0,0:0:0:0:
192,192,64731,1,0,0:0:0:0:
64,192,64776,1,0,0:0:0:0:
320,192,64820,1,0,0:0:0:0:
192,192,64865,1,0,0:0:0:0:
448,192,64910,1,0,0:0:0:0:
320,192,64955,1,0,0:0:0:0:
192,192,64999,1,0,0:0:0:0:
320,192,65044,1,0,0:0:0:0:
448,192,65089,1,0,0:0:0:0:
192,192,65134,1,0,0:0:0:0:
64,192,65134,1,0,0:0:0:0:
64,192,65268,1,0,0:0:0:0:
320,192,65313,1,0,0:0:0:0:
192,192,65358,1,0,0:0:0:0:
448,192,65402,1,0,0:0:0:0:
192,192,65537,1,0,0:0:0:0:
64,192,65581,1,0,0:0:0:0:
448,192,65671,1,0,0:0:0:0:
192,192,65671,1,0,0:0:0:0:
448,192,65805,1,0,0:0:0:0:
320,192,65850,1,0,0:0:0:0:
192,192,65895,1,0,0:0:0:0:
448,192,65940,1,0,0:0:0:0:
64,192,65940,1,0,0:0:0:0:
320,192,65984,1,0,0:0:0:0:
192,192,66029,1,0,0:0:0:0:
64,192,66074,1,0,0:0:0:0:
320,192,66119,1,0,0:0:0:0:
448,192,66208,1,0,0:0:0:0:
64,192,66208,1,0,0:0:0:0:
192,192,66253,1,0,0:0:0:0:
320,192,66298,1,0,0:0:0:0:
64,192,66343,1,0,0:0:0:0:
192,192,66387,1,0,0:0:0:0:
320,192,66432,1,0,0:0:0:0:
448,192,66477,1,0,0:0:0:0:
64,192,66477,1,0,0:0:0:0:
192,192,66522,1,0,0:0:0:0:
320,192,66566,1,0,0:0:0:0:
448,192,66611,1,0,0:0:0:0:
192,192,66656,1,0,0:0:0:0:
64,192,66701,1,0,0:0:0:0:
448,192,66746,1,0,0:0:0:0:
320,192,66746,1,0,0:0:0:0:
192,192,66790,1,0,0:0:0:0:
64,192,66835,1,0,0:0:0:0:
320,192,66880,1,0,0:0:0:0:
192,192,66925,1,0,0:0:0:0:
64,192,66969,1,0,0:0:0:0:
448,192,67014,1,0,0:0:0:0:
192,192,67059,1,0,0:0:0:0:
320,192,67104,1,0,0:0:0:0:
448,192,67149,1,0,0:0:0:0:
192,192,67193,1,0,0:0:0:0:
448,192,67283,1,0,0:0:0:0:
64,192,67283,1,0,0:0:0:0:
192,192,67328,1,0,0:0:0:0:
320,192,67372,1,0,0:0:0:0:
448,192,67417,1,0,0:0:0:0:
192,192,67462,1,0,0:0:0:0:
320,192,67507,1,0,0:0:0:0:
448,192,67551,1,0,0:0:0:0:
64,192,67551,1,0,0:0:0:0:
192,192,67596,1,0,0:0:0:0:
320,192,67641,1,0,0:0:0:0:
64,192,67686,1,0,0:0:0:0:
448,192,67731,1,0,0:0:0:0:
192,192,67820,1,0,0:0:0:0:
64,192,67820,1,0,0:0:0:0:
448,192,67865,1,0,0:0:0:0:
320,192,67910,1,0,0:0:0:0:
192,192,67954,1,0,0:0:0:0:
448,192,67999,1,0,0:0:0:0:
64,192,68044,1,0,0:0:0:0:
320,192,68089,1,0,0:0:0:0:
192,192,68089,1,0,0:0:0:0:
448,192,68134,1,0,0:0:0:0:
64,192,68178,1,0,0:0:0:0:
192,192,68223,1,0,0:0:0:0:
448,192,68268,1,0,0:0:0:0:
320,192,68357,1,0,0:0:0:0:
192,192,68357,1,0,0:0:0:0:
64,192,68402,1,0,0:0:0:0:
448,192,68447,1,0,0:0:0:0:
192,192,68492,1,0,0:0:0:0:
320,192,68536,1,0,0:0:0:0:
448,192,68581,1,0,0:0:0:0:
192,192,68626,1,0,0:0:0:0:
64,192,68626,1,0,0:0:0:0:
320,192,68671,1,0,0:0:0:0:
448,192,68716,1,0,0:0:0:0:
192,192,68760,1,0,0:0:0:0:
320,192,68805,1,0,0:0:0:0:
448,192,68895,1,0,0:0:0:0:
64,192,68895,1,0,0:0:0:0:
192,192,68939,1,0,0:0:0:0:
320,192,68984,1,0,0:0:0:0:
64,192,69029,1,0,0:0:0:0:
192,192,69074,1,0,0:0:0:0:
320,192,69119,1,0,0:0:0:0:
448,192,69163,1,0,0:0:0:0:
192,192,69208,1,0,0:0:0:0:
320,192,69253,1,0,0:0:0:0:
64,192,69298,1,0,0:0:0:0:
192,192,69342,1,0,0:0:0:0:
320,192,69387,1,0,0:0:0:0:
448,192,69432,1,0,0:0:0:0:
192,192,69477,1,0,0:0:0:0:
320,192,69521,1,0,0:0:0:0:
448,192,69566,1,0,0:0:0:0:
192,192,69611,1,0,0:0:0:0:
320,192,69656,1,0,0:0:0:0:
64,192,69701,1,0,0:0:0:0:
192,192,69745,1,0,0:0:0:0:
320,192,69790,1,0,0:0:0:0:
448,192,69835,1,0,0:0:0:0:
192,192,69880,1,0,0:0:0:0:
320,192,69924,1,0,0:0:0:0:
64,192,69969,1,0,0:0:0:0:
192,192,70014,1,0,0:0:0:0:
320,192,70059,1,0,0:0:0:0:
64,192,70104,1,0,0:0:0:0:
192,192,70148,1,0,0:0:0:0:
320,192,70193,1,0,0:0:0:0:
448,192,70238,1,0,0:0:0:0:
64,192,70238,1,0,0:0:0:0:
192,192,70305,1,0,0:0:0:0:
448,192,70372,1,0,0:0:0:0:
320,192,70372,1,0,0:0:0:0:
448,192,70506,1,0,0:0:0:0:
320,192,70506,1,0,0:0:0:0:
64,192,70506,1,0,0:0:0:0:
448,192,70641,1,0,0:0:0:0:
320,192,70641,1,0,0:0:0:0:
192,192,70708,1,0,0:0:0:0:
64,192,70708,1,0,0:0:0:0:
320,192,70775,1,0,0:0:0:0:
448,192,70775,1,0,0:0:0:0:
64,192,70775,1,0,0:0:0:0:
192,192,70775,1,0,0:0:0:0:
320,192,70909,1,0,0:0:0:0:
64,192,70909,1,0,0:0:0:0:
448,192,71044,1,0,0:0:0:0:
192,192,71044,1,0,0:0:0:0:
64,192,71044,1,0,0:0:0:0:
320,192,71178,1,0,0:0:0:0:
64,192,71178,1,0,0:0:0:0:
320,192,71312,1,0,0:0:0:0:
192,192,71312,1,0,0:0:0:0:
448,192,71447,1,0,0:0:0:0:
192,192,71447,1,0,0:0:0:0:
448,192,71581,1,0,0:0:0:0:
320,192,71581,1,0,0:0:0:0:
64,192,71581,1,0,0:0:0:0:
320,192,71715,1,0,0:0:0:0:
448,192,71715,1,0,0:0:0:0:
64,192,71715,1,0,0:0:0:0:
192,192,71715,1,0,0:0:0:0:
192,192,71850,1,0,0:0:0:0:
320,192,71984,1,0,0:0:0:0:
64,192,71984,1,0,0:0:0:0:
448,192,72118,1,0,0:0:0:0:
320,192,72118,1,0,0:0:0:0:
192,192,72118,1,0,0:0:0:0:
192,192,72253,1,0,0:0:0:0:
64,192,72253,1,0,0:0:0:0:
320,192,72387,1,0,0:0:0:0:
192,192,72387,1,0,0:0:0:0:
448,192,72521,1,0,0:0:0:0:
320,192,72521,1,0,0:0:0:0:
320,192,72656,1,0,0:0:0:0:
448,192,72656,1,0,0:0:0:0:
64,192,72656,1,0,0:0:0:0:
192,192,72656,1,0,0:0:0:0:
192,192,72790,1,0,0:0:0:0:
320,192,72857,1,0,0:0:0:0:
448,192,72924,1,0,0:0:0:0:
192,192,72924,1,0,0:0:0:0:
320,192,73059,1,0,0:0:0:0:
64,192,73059,1,0,0:0:0:0:
448,192,73193,1,0,0:0:0:0:
192,192,73193,1,0,0:0:0:0:
64,192,73193,1,0,0:0:0:0:
320,192,73327,1,0,0:0:0:0:
64,192,73327,1,0,0:0:0:0:
320,192,73461,1,0,0:0:0:0:
192,192,73461,1,0,0:0:0:0:
448,192,73596,1,0,0:0:0:0:
192,192,73596,1,0,0:0:0:0:
448,192,73730,1,0,0:0:0:0:
320,192,73730,1,0,0:0:0:0:
64,192,73730,1,0,0:0:0:0:
320,192,73864,1,0,0:0:0:0:
448,192,73864,1,0,0:0:0:0:
64,192,73864,1,0,0:0:0:0:
192,192,73864,1,0,0:0:0:0:
64,192,73999,1,0,0:0:0:0:
320,192,74133,1,0,0:0:0:0:
192,192,74133,1,0,0:0:0:0:
448,192,74267,1,0,0:0:0:0:
192,192,74267,1,0,0:0:0:0:
64,192,74267,1,0,0:0:0:0:
320,192,74402,1,0,0:0:0:0:
192,192,74402,1,0,0:0:0:0:
448,192,74469,1,0,0:0:0:0:
192,192,74536,1,0,0:0:0:0:
64,192,74536,1,0,0:0:0:0:
320,192,74603,1,0,0:0:0:0:
448,192,74670,1,0,0:0:0:0:
192,192,74670,1,0,0:0:0:0:
64,192,74738,1,0,0:0:0:0:
448,192,74805,1,0,0:0:0:0:
320,192,74805,1,0,0:0:0:0:
192,192,74872,1,0,0:0:0:0:
64,192,74872,1,0,0:0:0:0:
448,192,74939,1,0,0:0:0:0:
320,192,74939,1,0,0:0:0:0:
192,192,75006,1,0,0:0:0:0:
64,192,75006,1,0,0:0:0:0:
320,192,75073,1,0,0:0:0:0:
448,192,75073,1,0,0:0:0:0:
64,192,75073,1,0,0:0:0:0:
192,192,75073,1,0,0:0:0:0:
320,192,75208,1,0,0:0:0:0:
64,192,75208,1,0,0:0:0:0:
448,192,75342,1,0,0:0:0:0:
320,192,75342,1,0,0:0:0:0:
192,192,75342,1,0,0:0:0:0:
448,192,75476,1,0,0:0:0:0:
64,192,75476,1,0,0:0:0:0:
320,192,75611,1,0,0:0:0:0:
192,192,75611,1,0,0:0:0:0:
448,192,75745,1,0,0:0:0:0:
192,192,75745,1,0,0:0:0:0:
448,192,75879,1,0,0:0:0:0:
192,192,75879,1,0,0:0:0:0:
64,192,75879,1,0,0:0:0:0:
320,192,76014,1,0,0:0:0:0:
448,192,76014,1,0,0:0:0:0:
64,192,76014,1,0,0:0:0:0:
192,192,76014,1,0,0:0:0:0:
192,192,76148,1,0,0:0:0:0:
320,192,76282,1,0,0:0:0:0:
64,192,76282,1,0,0:0:0:0:
448,192,76417,1,0,0:0:0:0:
320,192,76417,1,0,0:0:0:0:
192,192,76417,1,0,0:0:0:0:
192,192,76551,1,0,0:0:0:0:
64,192,76551,1,0,0:0:0:0:
320,192,76685,1,0,0:0:0:0:
192,192,76685,1,0,0:0:0:0:
448,192,76819,1,0,0:0:0:0:
192,192,76819,1,0,0:0:0:0:
448,192,76954,1,0,0:0:0:0:
320,192,76954,1,0,0:0:0:0:
64,192,76954,1,0,0:0:0:0:
192,192,77088,1,0,0:0:0:0:
320,192,77222,1,0,0:0:0:0:
64,192,77222,1,0,0:0:0:0:
320,192,77357,1,0,0:0:0:0:
192,192,77357,1,0,0:0:0:0:
64,192,77357,1,0,0:0:0:0:
448,192,77491,1,0,0:0:0:0:
320,192,77491,1,0,0:0:0:0:
192,192,77491,1,0,0:0:0:0:
320,192,77625,1,0,0:0:0:0:
64,192,77625,1,0,0:0:0:0:
448,192,77760,1,0,0:0:0:0:
192,192,77760,1,0,0:0:0:0:
320,192,77827,1,0,0:0:0:0:
448,192,77894,1,0,0:0:0:0:
64,192,77894,1,0,0:0:0:0:
192,192,77961,1,0,0:0:0:0:
448,192,78028,1,0,0:0:0:0:
192,192,78095,1,0,0:0:0:0:
320,192,78163,1,0,0:0:0:0:
448,192,78163,1,0,0:0:0:0:
64,192,78163,1,0,0:0:0:0:
192,192,78163,1,0,0:0:0:0:
320,192,78438,1,0,0:0:0:0:
192,192,78578,128,0,78712:0:0:0:0:
192,192,78779,1,0,0:0:0:0:
320,192,78846,128,0,78980:0:0:0:0:
192,192,78913,1,0,0:0:0:0:
192,192,79047,1,0,0:0:0:0:
448,192,79114,128,0,79249:0:0:0:0:
320,192,79114,1,0,0:0:0:0:
192,192,79249,1,0,0:0:0:0:
64,192,79249,1,0,0:0:0:0:
448,192,79383,1,0,0:0:0:0:
64,192,79383,1,0,0:0:0:0:
192,192,79428,1,0,0:0:0:0:
320,192,79472,1,0,0:0:0:0:
448,192,79517,1,0,0:0:0:0:
192,192,79562,1,0,0:0:0:0:
320,192,79607,1,0,0:0:0:0:
64,192,79651,1,0,0:0:0:0:
192,192,79696,1,0,0:0:0:0:
320,192,79741,1,0,0:0:0:0:
64,192,79786,1,0,0:0:0:0:
192,192,79830,1,0,0:0:0:0:
448,192,79875,1,0,0:0:0:0:
320,192,79920,1,0,0:0:0:0:
192,192,79965,1,0,0:0:0:0:
64,192,80009,1,0,0:0:0:0:
320,192,80054,1,0,0:0:0:0:
448,192,80099,1,0,0:0:0:0:
64,192,80144,1,0,0:0:0:0:
320,192,80188,1,0,0:0:0:0:
192,192,80188,1,0,0:0:0:0:
448,192,80233,1,0,0:0:0:0:
64,192,80278,1,0,0:0:0:0:
192,192,80323,1,0,0:0:0:0:
320,192,80367,1,0,0:0:0:0:
448,192,80412,1,0,0:0:0:0:
192,192,80457,1,0,0:0:0:0:
64,192,80457,1,0,0:0:0:0:
320,192,80502,1,0,0:0:0:0:
448,192,80546,1,0,0:0:0:0:
64,192,80591,1,0,0:0:0:0:
192,192,80636,1,0,0:0:0:0:
320,192,80681,1,0,0:0:0:0:
448,192,80725,1,0,0:0:0:0:
64,192,80725,1,0,0:0:0:0:
192,192,80770,1,0,0:0:0:0:
320,192,80815,1,0,0:0:0:0:
448,192,80860,1,0,0:0:0:0:
64,192,80860,1,0,0:0:0:0:
192,192,80904,1,0,0:0:0:0:
320,192,80949,1,0,0:0:0:0:
448,192,80994,1,0,0:0:0:0:
192,192,81039,1,0,0:0:0:0:
320,192,81083,1,0,0:0:0:0:
448,192,81128,1,0,0:0:0:0:
64,192,81128,1,0,0:0:0:0:
192,192,81173,1,0,0:0:0:0:
320,192,81218,1,0,0:0:0:0:
448,192,81262,1,0,0:0:0:0:
64,192,81307,1,0,0:0:0:0:
192,192,81352,1,0,0:0:0:0:
448,192,81397,1,0,0:0:0:0:
320,192,81397,1,0,0:0:0:0:
64,192,81441,1,0,0:0:0:0:
192,192,81486,1,0,0:0:0:0:
320,192,81531,1,0,0:0:0:0:
448,192,81576,1,0,0:0:0:0:
192,192,81620,1,0,0:0:0:0:
64,192,81665,1,0,0:0:0:0:
320,192,81710,1,0,0:0:0:0:
192,192,81755,1,0,0:0:0:0:
448,192,81799,1,0,0:0:0:0:
64,192,81799,1,0,0:0:0:0:
320,192,81844,1,0,0:0:0:0:
192,192,81889,1,0,0:0:0:0:
448,192,81934,1,0,0:0:0:0:
64,192,81934,1,0,0:0:0:0:
320,192,81978,1,0,0:0:0:0:
192,192,82023,1,0,0:0:0:0:
64,192,82068,1,0,0:0:0:0:
448,192,82113,1,0,0:0:0:0:
320,192,82157,1,0,0:0:0:0:
64,192,82202,1,0,0:0:0:0:
192,192,82247,1,0,0:0:0:0:
320,192,82292,1,0,0:0:0:0:
448,192,82336,1,0,0:0:0:0:
64,192,82336,1,0,0:0:0:0:
192,192,82381,1,0,0:0:0:0:
320,192,82426,1,0,0:0:0:0:
448,192,82471,1,0,0:0:0:0:
64,192,82471,1,0,0:0:0:0:
192,192,82515,1,0,0:0:0:0:
320,192,82560,1,0,0:0:0:0:
448,192,82605,1,0,0:0:0:0:
64,192,82650,1,0,0:0:0:0:
192,192,82694,1,0,0:0:0:0:
320,192,82739,1,0,0:0:0:0:
448,192,82784,1,0,0:0:0:0:
64,192,82829,1,0,0:0:0:0:
320,192,82873,1,0,0:0:0:0:
192,192,82873,1,0,0:0:0:0:
448,192,82918,1,0,0:0:0:0:
64,192,82963,1,0,0:0:0:0:
192,192,83008,1,0,0:0:0:0:
320,192,83052,1,0,0:0:0:0:
448,192,83097,1,0,0:0:0:0:
192,192,83142,1,0,0:0:0:0:
64,192,83142,1,0,0:0:0:0:
320,192,83187,1,0,0:0:0:0:
448,192,83231,1,0,0:0:0:0:
192,192,83276,1,0,0:0:0:0:
64,192,83321,1,0,0:0:0:0:
448,192,83366,1,0,0:0:0:0:
320,192,83410,1,0,0:0:0:0:
192,192,83410,1,0,0:0:0:0:
64,192,83455,1,0,0:0:0:0:
448,192,83500,1,0,0:0:0:0:
320,192,83545,1,0,0:0:0:0:
192,192,83589,1,0,0:0:0:0:
64,192,83634,1,0,0:0:0:0:
448,192,83679,1,0,0:0:0:0:
320,192,83679,1,0,0:0:0:0:
192,192,83724,1,0,0:0:0:0:
64,192,83768,1,0,0:0:0:0:
448,192,83813,1,0,0:0:0:0:
320,192,83858,1,0,0:0:0:0:
192,192,83903,1,0,0:0:0:0:
448,192,83947,1,0,0:0:0:0:
64,192,83992,1,0,0:0:0:0:
192,192,84037,1,0,0:0:0:0:
320,192,84082,1,0,0:0:0:0:
64,192,84126,1,0,0:0:0:0:
192,192,84171,1,0,0:0:0:0:
320,192,84216,1,0,0:0:0:0:
448,192,84261,1,0,0:0:0:0:
64,192,84305,1,0,0:0:0:0:
192,192,84350,1,0,0:0:0:0:
320,192,84395,1,0,0:0:0:0:
448,192,84440,1,0,0:0:0:0:
192,192,84484,1,0,0:0:0:0:
64,192,84484,1,0,0:0:0:0:
320,192,84529,1,0,0:0:0:0:
448,192,84574,1,0,0:0:0:0:
64,192,84619,1,0,0:0:0:0:
320,192,84663,1,0,0:0:0:0:
448,192,84708,1,0,0:0:0:0:
192,192,84753,1,0,0:0:0:0:
64,192,84753,1,0,0:0:0:0:
320,192,84798,1,0,0:0:0:0:
448,192,84842,1,0,0:0:0:0:
64,192,84887,1,0,0:0:0:0:
192,192,84932,1,0,0:0:0:0:
320,192,84977,1,0,0:0:0:0:
448,192,85021,1,0,0:0:0:0:
64,192,85021,1,0,0:0:0:0:
192,192,85066,1,0,0:0:0:0:
320,192,85111,1,0,0:0:0:0:
448,192,85156,1,0,0:0:0:0:
64,192,85156,1,0,0:0:0:0:
192,192,85200,1,0,0:0:0:0:
320,192,85245,1,0,0:0:0:0:
64,192,85290,1,0,0:0:0:0:
192,192,85335,1,0,0:0:0:0:
320,192,85379,1,0,0:0:0:0:
448,192,85424,1,0,0:0:0:0:
64,192,85424,1,0,0:0:0:0:
192,192,85469,1,0,0:0:0:0:
320,192,85514,1,0,0:0:0:0:
448,192,85559,1,0,0:0:0:0:
64,192,85603,1,0,0:0:0:0:
192,192,85648,1,0,0:0:0:0:
448,192,85693,1,0,0:0:0:0:
320,192,85693,1,0,0:0:0:0:
64,192,85738,1,0,0:0:0:0:
192,192,85782,1,0,0:0:0:0:
448,192,85828,1,0,0:0:0:0:
320,192,85872,1,0,0:0:0:0:
192,192,85917,1,0,0:0:0:0:
64,192,85962,1,0,0:0:0:0:
448,192,86006,1,0,0:0:0:0:
320,192,86051,1,0,0:0:0:0:
192,192,86096,1,0,0:0:0:0:
64,192,86141,1,0,0:0:0:0:
320,192,86185,1,0,0:0:0:0:
192,192,86230,1,0,0:0:0:0:
448,192,86275,1,0,0:0:0:0:
64,192,86320,1,0,0:0:0:0:
192,192,86364,1,0,0:0:0:0:
448,192,86409,1,0,0:0:0:0:
320,192,86454,1,0,0:0:0:0:
64,192,86499,1,0,0:0:0:0:
192,192,86543,1,0,0:0:0:0:
448,192,86588,1,0,0:0:0:0:
64,192,86633,1,0,0:0:0:0:
320,192,86678,1,0,0:0:0:0:
448,192,86722,1,0,0:0:0:0:
64,192,86767,1,0,0:0:0:0:
320,192,86812,1,0,0:0:0:0:
448,192,86857,1,0,0:0:0:0:
64,192,86901,1,0,0:0:0:0:
192,192,86946,1,0,0:0:0:0:
320,192,86991,1,0,0:0:0:0:
64,192,87036,1,0,0:0:0:0:
192,192,87080,1,0,0:0:0:0:
320,192,87125,1,0,0:0:0:0:
448,192,87170,1,0,0:0:0:0:
192,192,87215,1,0,0:0:0:0:
320,192,87259,1,0,0:0:0:0:
64,192,87304,1,0,0:0:0:0:
192,192,87349,1,0,0:0:0:0:
320,192,87394,1,0,0:0:0:0:
448,192,87438,1,0,0:0:0:0:
64,192,87438,1,0,0:0:0:0:
192,192,87483,1,0,0:0:0:0:
320,192,87528,1,0,0:0:0:0:
64,192,87573,1,0,0:0:0:0:
192,192,87617,1,0,0:0:0:0:
320,192,87662,1,0,0:0:0:0:
448,192,87707,1,0,0:0:0:0:
64,192,87707,1,0,0:0:0:0:
192,192,87752,1,0,0:0:0:0:
320,192,87796,1,0,0:0:0:0:
64,192,87841,1,0,0:0:0:0:
192,192,87886,1,0,0:0:0:0:
320,192,87931,1,0,0:0:0:0:
448,192,87975,1,0,0:0:0:0:
64,192,87975,1,0,0:0:0:0:
192,192,88020,1,0,0:0:0:0:
320,192,88065,1,0,0:0:0:0:
448,192,88110,1,0,0:0:0:0:
320,192,88154,1,0,0:0:0:0:
192,192,88199,1,0,0:0:0:0:
64,192,88244,1,0,0:0:0:0:
192,192,88289,1,0,0:0:0:0:
320,192,88333,1,0,0:0:0:0:
448,192,88378,1,0,0:0:0:0:
320,192,88423,1,0,0:0:0:0:
192,192,88468,1,0,0:0:0:0:
64,192,88512,1,0,0:0:0:0:
448,192,88557,1,0,0:0:0:0:
320,192,88602,1,0,0:0:0:0:
192,192,88647,1,0,0:0:0:0:
448,192,88691,1,0,0:0:0:0:
320,192,88736,1,0,0:0:0:0:
192,192,88781,1,0,0:0:0:0:
64,192,88781,1,0,0:0:0:0:
448,192,88826,1,0,0:0:0:0:
320,192,88870,1,0,0:0:0:0:
192,192,88915,1,0,0:0:0:0:
64,192,88960,1,0,0:0:0:0:
448,192,89005,1,0,0:0:0:0:
320,192,89049,1,0,0:0:0:0:
192,192,89049,1,0,0:0:0:0:
64,192,89094,1,0,0:0:0:0:
448,192,89139,1,0,0:0:0:0:
320,192,89184,1,0,0:0:0:0:
192,192,89228,1,0,0:0:0:0:
64,192,89273,1,0,0:0:0:0:
448,192,89318,1,0,0:0:0:0:
320,192,89318,1,0,0:0:0:0:
192,192,89363,1,0,0:0:0:0:
64,192,89407,1,0,0:0:0:0:
448,192,89452,1,0,0:0:0:0:
320,192,89452,1,0,0:0:0:0:
192,192,89497,1,0,0:0:0:0:
64,192,89542,1,0,0:0:0:0:
448,192,89586,1,0,0:0:0:0:
320,192,89631,1,0,0:0:0:0:
192,192,89676,1,0,0:0:0:0:
448,192,89721,1,0,0:0:0:0:
64,192,89721,1,0,0:0:0:0:
320,192,89765,1,0,0:0:0:0:
192,192,89810,1,0,0:0:0:0:
448,192,89855,1,0,0:0:0:0:
320,192,89900,1,0,0:0:0:0:
192,192,89944,1,0,0:0:0:0:
448,192,89989,1,0,0:0:0:0:
64,192,89989,1,0,0:0:0:0:
320,192,90034,1,0,0:0:0:0:
192,192,90079,1,0,0:0:0:0:
64,192,90123,1,0,0:0:0:0:
448,192,90168,1,0,0:0:0:0:
192,192,90213,1,0,0:0:0:0:
64,192,90258,1,0,0:0:0:0:
320,192,90302,1,0,0:0:0:0:
448,192,90347,1,0,0:0:0:0:
192,192,90392,1,0,0:0:0:0:
320,192,90437,1,0,0:0:0:0:
448,192,90481,1,0,0:0:0:0:
192,192,90526,1,0,0:0:0:0:
64,192,90526,1,0,0:0:0:0:
320,192,90571,1,0,0:0:0:0:
448,192,90616,1,0,0:0:0:0:
64,192,90660,1,0,0:0:0:0:
192,192,90705,1,0,0:0:0:0:
320,192,90750,1,0,0:0:0:0:
448,192,90795,1,0,0:0:0:0:
192,192,90839,1,0,0:0:0:0:
320,192,90884,1,0,0:0:0:0:
64,192,90929,1,0,0:0:0:0:
192,192,90974,1,0,0:0:0:0:
320,192,91018,1,0,0:0:0:0:
448,192,91063,1,0,0:0:0:0:
64,192,91063,1,0,0:0:0:0:
192,192,91108,1,0,0:0:0:0:
320,192,91153,1,0,0:0:0:0:
448,192,91197,1,0,0:0:0:0:
192,192,91242,1,0,0:0:0:0:
320,192,91287,1,0,0:0:0:0:
64,192,91332,1,0,0:0:0:0:
192,192,91376,1,0,0:0:0:0:
320,192,91421,1,0,0:0:0:0:
64,192,91466,1,0,0:0:0:0:
192,192,91511,1,0,0:0:0:0:
320,192,91555,1,0,0:0:0:0:
448,192,91600,1,0,0:0:0:0:
192,192,91645,1,0,0:0:0:0:
320,192,91690,1,0,0:0:0:0:
448,192,91734,1,0,0:0:0:0:
64,192,91734,1,0,0:0:0:0:
192,192,91779,1,0,0:0:0:0:
320,192,91824,1,0,0:0:0:0:
64,192,91869,1,0,0:0:0:0:
192,192,91913,1,0,0:0:0:0:
320,192,91958,1,0,0:0:0:0:
448,192,92003,1,0,0:0:0:0:
64,192,92003,1,0,0:0:0:0:
192,192,92048,1,0,0:0:0:0:
320,192,92092,1,0,0:0:0:0:
448,192,92137,1,0,0:0:0:0:
192,192,92182,1,0,0:0:0:0:
320,192,92227,1,0,0:0:0:0:
448,192,92271,1,0,0:0:0:0:
64,192,92271,1,0,0:0:0:0:
192,192,92316,1,0,0:0:0:0:
320,192,92361,1,0,0:0:0:0:
448,192,92406,1,0,0:0:0:0:
64,192,92450,1,0,0:0:0:0:
320,192,92495,1,0,0:0:0:0:
192,192,92540,1,0,0:0:0:0:
64,192,92585,1,0,0:0:0:0:
320,192,92629,1,0,0:0:0:0:
192,192,92674,1,0,0:0:0:0:
448,192,92719,1,0,0:0:0:0:
320,192,92764,1,0,0:0:0:0:
192,192,92809,1,0,0:0:0:0:
448,192,92853,1,0,0:0:0:0:
320,192,92898,1,0,0:0:0:0:
64,192,92943,1,0,0:0:0:0:
192,192,92988,1,0,0:0:0:0:
320,192,93032,1,0,0:0:0:0:
448,192,93078,1,0,0:0:0:0:
64,192,93078,1,0,0:0:0:0:
192,192,93122,1,0,0:0:0:0:
320,192,93167,1,0,0:0:0:0:
448,192,93212,1,0,0:0:0:0:
192,192,93256,1,0,0:0:0:0:
320,192,93301,1,0,0:0:0:0:
448,192,93346,1,0,0:0:0:0:
64,192,93346,1,0,0:0:0:0:
192,192,93391,1,0,0:0:0:0:
320,192,93435,1,0,0:0:0:0:
64,192,93480,1,0,0:0:0:0:
448,192,93525,1,0,0:0:0:0:
320,192,93570,1,0,0:0:0:0:
192,192,93614,1,0,0:0:0:0:
64,192,93614,1,0,0:0:0:0:
448,192,93659,1,0,0:0:0:0:
320,192,93704,1,0,0:0:0:0:
192,192,93749,1,0,0:0:0:0:
64,192,93793,1,0,0:0:0:0:
448,192,93838,1,0,0:0:0:0:
320,192,93883,1,0,0:0:0:0:
192,192,93883,1,0,0:0:0:0:
64,192,93928,1,0,0:0:0:0:
448,192,93972,1,0,0:0:0:0:
320,192,94017,1,0,0:0:0:0:
192,192,94062,1,0,0:0:0:0:
64,192,94107,1,0,0:0:0:0:
448,192,94151,1,0,0:0:0:0:
320,192,94151,1,0,0:0:0:0:
192,192,94196,1,0,0:0:0:0:
64,192,94241,1,0,0:0:0:0:
448,192,94286,1,0,0:0:0:0:
320,192,94330,1,0,0:0:0:0:
192,192,94375,1,0,0:0:0:0:
448,192,94420,1,0,0:0:0:0:
64,192,94420,1,0,0:0:0:0:
320,192,94465,1,0,0:0:0:0:
192,192,94509,1,0,0:0:0:0:
64,192,94554,1,0,0:0:0:0:
448,192,94599,1,0,0:0:0:0:
320,192,94644,1,0,0:0:0:0:
192,192,94688,1,0,0:0:0:0:
64,192,94688,1,0,0:0:0:0:
448,192,94733,1,0,0:0:0:0:
320,192,94778,1,0,0:0:0:0:
192,192,94823,1,0,0:0:0:0:
448,192,94867,1,0,0:0:0:0:
320,192,94912,1,0,0:0:0:0:
64,192,94957,1,0,0:0:0:0:
192,192,95001,1,0,0:0:0:0:
320,192,95046,1,0,0:0:0:0:
64,192,95091,1,0,0:0:0:0:
448,192,95136,1,0,0:0:0:0:
320,192,95180,1,0,0:0:0:0:
192,192,95225,1,0,0:0:0:0:
448,192,95269,1,0,0:0:0:0:
320,192,95314,1,0,0:0:0:0:
64,192,95359,1,0,0:0:0:0:
448,192,95403,1,0,0:0:0:0:
320,192,95448,1,0,0:0:0:0:
64,192,95493,1,0,0:0:0:0:
192,192,95538,1,0,0:0:0:0:
448,192,95582,1,0,0:0:0:0:
320,192,95627,1,0,0:0:0:0:
64,192,95672,1,0,0:0:0:0:
192,192,95717,1,0,0:0:0:0:
448,192,95761,1,0,0:0:0:0:
320,192,95761,1,0,0:0:0:0:
64,192,95806,1,0,0:0:0:0:
192,192,95851,1,0,0:0:0:0:
320,192,95896,1,0,0:0:0:0:
448,192,95940,1,0,0:0:0:0:
320,192,95985,1,0,0:0:0:0:
192,192,96030,1,0,0:0:0:0:
64,192,96030,1,0,0:0:0:0:
448,192,96097,1,0,0:0:0:0:
320,192,96097,1,0,0:0:0:0:
192,192,96164,1,0,0:0:0:0:
64,192,96164,1,0,0:0:0:0:
448,192,96231,1,0,0:0:0:0:
320,192,96231,1,0,0:0:0:0:
448,192,96298,1,0,0:0:0:0:
64,192,96298,1,0,0:0:0:0:
192,192,96433,1,0,0:0:0:0:
64,192,96433,1,0,0:0:0:0:
448,192,96567,1,0,0:0:0:0:
320,192,96567,1,0,0:0:0:0:
64,192,96567,1,0,0:0:0:0:
192,192,96612,1,0,0:0:0:0:
320,192,96656,1,0,0:0:0:0:
448,192,96701,1,0,0:0:0:0:
64,192,96746,1,0,0:0:0:0:
320,192,96791,1,0,0:0:0:0:
192,192,96835,1,0,0:0:0:0:
64,192,96880,1,0,0:0:0:0:
320,192,96925,1,0,0:0:0:0:
192,192,96970,1,0,0:0:0:0:
64,192,97014,1,0,0:0:0:0:
448,192,97059,1,0,0:0:0:0:
320,192,97104,1,0,0:0:0:0:
192,192,97149,1,0,0:0:0:0:
64,192,97193,1,0,0:0:0:0:
448,192,97238,1,0,0:0:0:0:
192,192,97283,1,0,0:0:0:0:
320,192,97328,1,0,0:0:0:0:
448,192,97372,1,0,0:0:0:0:
64,192,97372,1,0,0:0:0:0:
192,192,97417,1,0,0:0:0:0:
320,192,97462,1,0,0:0:0:0:
448,192,97507,1,0,0:0:0:0:
192,192,97551,1,0,0:0:0:0:
320,192,97596,1,0,0:0:0:0:
448,192,97641,1,0,0:0:0:0:
64,192,97641,1,0,0:0:0:0:
192,192,97686,1,0,0:0:0:0:
320,192,97730,1,0,0:0:0:0:
64,192,97775,1,0,0:0:0:0:
192,192,97820,1,0,0:0:0:0:
448,192,97865,1,0,0:0:0:0:
320,192,97909,1,0,0:0:0:0:
64,192,97909,1,0,0:0:0:0:
192,192,97954,1,0,0:0:0:0:
448,192,97999,1,0,0:0:0:0:
320,192,98044,1,0,0:0:0:0:
64,192,98044,1,0,0:0:0:0:
192,192,98088,1,0,0:0:0:0:
448,192,98133,1,0,0:0:0:0:
320,192,98178,1,0,0:0:0:0:
192,192,98223,1,0,0:0:0:0:
64,192,98267,1,0,0:0:0:0:
448,192,98312,1,0,0:0:0:0:
320,192,98312,1,0,0:0:0:0:
192,192,98357,1,0,0:0:0:0:
64,192,98402,1,0,0:0:0:0:
448,192,98446,1,0,0:0:0:0:
320,192,98491,1,0,0:0:0:0:
192,192,98536,1,0,0:0:0:0:
448,192,98581,1,0,0:0:0:0:
64,192,98581,1,0,0:0:0:0:
320,192,98625,1,0,0:0:0:0:
192,192,98670,1,0,0:0:0:0:
64,192,98716,1,0,0:0:0:0:
448,192,98759,1,0,0:0:0:0:
320,192,98802,1,0,0:0:0:0:
64,192,98845,1,0,0:0:0:0:
192,192,98889,1,0,0:0:0:0:
320,192,98932,1,0,0:0:0:0:
448,192,98975,1,0,0:0:0:0:
192,192,99019,1,0,0:0:0:0:
320,192,99064,1,0,0:0:0:0:
448,192,99109,1,0,0:0:0:0:
192,192,99153,1,0,0:0:0:0:
64,192,99198,1,0,0:0:0:0:
320,192,99243,1,0,0:0:0:0:
448,192,99288,1,0,0:0:0:0:
192,192,99332,1,0,0:0:0:0:
64,192,99377,128,0,99511:0:0:0:0:
320,192,99422,1,0,0:0:0:0:
448,192,99511,1,0,0:0:0:0:
192,192,99511,1,0,0:0:0:0:
448,192,99645,128,0,99780:0:0:0:0:
320,192,99690,1,0,0:0:0:0:
64,192,99735,1,0,0:0:0:0:
192,192,99780,1,0,0:0:0:0:
64,192,99914,1,0,0:0:0:0:
192,192,99959,1,0,0:0:0:0:
448,192,100048,1,0,0:0:0:0:
320,192,100048,128,0,100182:0:0:0:0:
192,192,100182,128,0,100316:0:0:0:0:
64,192,100227,1,0,0:0:0:0:
448,192,100272,1,0,0:0:0:0:
320,192,100316,128,0,100451:0:0:0:0:
448,192,100451,128,0,100585:0:0:0:0:
192,192,100495,1,0,0:0:0:0:
320,192,100585,1,0,0:0:0:0:
64,192,100585,1,0,0:0:0:0:
448,192,100719,1,0,0:0:0:0:
320,192,100764,1,0,0:0:0:0:
192,192,100809,1,0,0:0:0:0:
448,192,100853,1,0,0:0:0:0:
64,192,100853,1,0,0:0:0:0:
320,192,100898,1,0,0:0:0:0:
192,192,100943,1,0,0:0:0:0:
64,192,100987,1,0,0:0:0:0:
448,192,101032,1,0,0:0:0:0:
320,192,101077,1,0,0:0:0:0:
192,192,101122,1,0,0:0:0:0:
448,192,101166,1,0,0:0:0:0:
320,192,101211,1,0,0:0:0:0:
192,192,101256,1,0,0:0:0:0:
64,192,101301,1,0,0:0:0:0:
448,192,101345,1,0,0:0:0:0:
192,192,101390,1,0,0:0:0:0:
64,192,101435,1,0,0:0:0:0:
448,192,101480,1,0,0:0:0:0:
320,192,101524,1,0,0:0:0:0:
192,192,101569,1,0,0:0:0:0:
64,192,101614,1,0,0:0:0:0:
448,192,101658,1,0,0:0:0:0:
320,192,101658,1,0,0:0:0:0:
192,192,101703,1,0,0:0:0:0:
64,192,101748,1,0,0:0:0:0:
320,192,101793,1,0,0:0:0:0:
448,192,101837,1,0,0:0:0:0:
64,192,101882,1,0,0:0:0:0:
320,192,101927,1,0,0:0:0:0:
192,192,101927,1,0,0:0:0:0:
448,192,101972,1,0,0:0:0:0:
64,192,102016,1,0,0:0:0:0:
192,192,102061,1,0,0:0:0:0:
320,192,102106,1,0,0:0:0:0:
448,192,102150,1,0,0:0:0:0:
192,192,102195,1,0,0:0:0:0:
64,192,102195,1,0,0:0:0:0:
320,192,102240,1,0,0:0:0:0:
448,192,102285,1,0,0:0:0:0:
192,192,102329,1,0,0:0:0:0:
64,192,102329,1,0,0:0:0:0:
320,192,102374,1,0,0:0:0:0:
448,192,102419,1,0,0:0:0:0:
64,192,102464,1,0,0:0:0:0:
192,192,102508,1,0,0:0:0:0:
320,192,102553,1,0,0:0:0:0:
448,192,102598,1,0,0:0:0:0:
64,192,102598,1,0,0:0:0:0:
192,192,102643,1,0,0:0:0:0:
320,192,102687,1,0,0:0:0:0:
448,192,102732,1,0,0:0:0:0:
64,192,102777,1,0,0:0:0:0:
192,192,102821,1,0,0:0:0:0:
448,192,102866,1,0,0:0:0:0:
320,192,102866,1,0,0:0:0:0:
64,192,102911,1,0,0:0:0:0:
192,192,102956,1,0,0:0:0:0:
448,192,103000,1,0,0:0:0:0:
320,192,103045,1,0,0:0:0:0:
192,192,103090,1,0,0:0:0:0:
64,192,103135,1,0,0:0:0:0:
320,192,103179,1,0,0:0:0:0:
192,192,103224,1,0,0:0:0:0:
448,192,103269,1,0,0:0:0:0:
64,192,103269,1,0,0:0:0:0:
320,192,103403,128,0,103470:0:0:0:0:
192,192,103448,1,0,0:0:0:0:
64,192,103492,1,0,0:0:0:0:
320,192,103537,128,0,103604:0:0:0:0:
320,192,103671,128,0,103806:0:0:0:0:
192,192,103716,1,0,0:0:0:0:
448,192,103806,1,0,0:0:0:0:
64,192,103806,1,0,0:0:0:0:
320,192,103940,128,0,104074:0:0:0:0:
192,192,103985,1,0,0:0:0:0:
448,192,104029,1,0,0:0:0:0:
64,192,104074,1,0,0:0:0:0:
192,192,104208,128,0,104342:0:0:0:0:
320,192,104253,1,0,0:0:0:0:
448,192,104342,1,0,0:0:0:0:
64,192,104342,128,0,104477:0:0:0:0:
320,192,104477,128,0,104611:0:0:0:0:
448,192,104521,1,0,0:0:0:0:
64,192,104566,1,0,0:0:0:0:
192,192,104611,1,0,0:0:0:0:
448,192,104745,1,0,0:0:0:0:
64,192,104745,1,0,0:0:0:0:
320,192,104790,1,0,0:0:0:0:
448,192,104879,1,0,0:0:0:0:
64,192,104879,1,0,0:0:0:0:
192,192,105013,1,0,0:0:0:0:
64,192,105013,1,0,0:0:0:0:
448,192,105080,1,0,0:0:0:0:
320,192,105080,1,0,0:0:0:0:
192,192,105148,1,0,0:0:0:0:
64,192,105148,1,0,0:0:0:0:
320,192,105192,1,0,0:0:0:0:
448,192,105237,1,0,0:0:0:0:
64,192,105282,1,0,0:0:0:0:
192,192,105326,1,0,0:0:0:0:
320,192,105371,1,0,0:0:0:0:
448,192,105417,1,0,0:0:0:0:
192,192,105461,1,0,0:0:0:0:
320,192,105506,1,0,0:0:0:0:
64,192,105551,1,0,0:0:0:0:
192,192,105595,1,0,0:0:0:0:
448,192,105640,1,0,0:0:0:0:
64,192,105685,1,0,0:0:0:0:
192,192,105730,1,0,0:0:0:0:
320,192,105774,1,0,0:0:0:0:
448,192,105819,1,0,0:0:0:0:
192,192,105864,1,0,0:0:0:0:
64,192,105909,1,0,0:0:0:0:
448,192,105953,1,0,0:0:0:0:
320,192,105953,1,0,0:0:0:0:
192,192,105998,1,0,0:0:0:0:
64,192,106043,1,0,0:0:0:0:
448,192,106087,1,0,0:0:0:0:
320,192,106132,1,0,0:0:0:0:
192,192,106177,1,0,0:0:0:0:
448,192,106222,1,0,0:0:0:0:
64,192,106222,1,0,0:0:0:0:
320,192,106266,1,0,0:0:0:0:
192,192,106311,1,0,0:0:0:0:
64,192,106356,1,0,0:0:0:0:
320,192,106401,1,0,0:0:0:0:
448,192,106445,1,0,0:0:0:0:
192,192,106490,1,0,0:0:0:0:
64,192,106490,1,0,0:0:0:0:
320,192,106535,1,0,0:0:0:0:
448,192,106580,1,0,0:0:0:0:
192,192,106624,1,0,0:0:0:0:
64,192,106624,1,0,0:0:0:0:
320,192,106669,1,0,0:0:0:0:
448,192,106714,1,0,0:0:0:0:
64,192,106758,1,0,0:0:0:0:
192,192,106803,1,0,0:0:0:0:
320,192,106848,1,0,0:0:0:0:
448,192,106893,1,0,0:0:0:0:
64,192,106893,1,0,0:0:0:0:
192,192,106937,1,0,0:0:0:0:
320,192,106982,1,0,0:0:0:0:
448,192,107027,1,0,0:0:0:0:
64,192,107072,1,0,0:0:0:0:
192,192,107116,1,0,0:0:0:0:
448,192,107161,1,0,0:0:0:0:
320,192,107161,1,0,0:0:0:0:
64,192,107206,1,0,0:0:0:0:
192,192,107251,1,0,0:0:0:0:
448,192,107295,1,0,0:0:0:0:
320,192,107429,128,0,107564:0:0:0:0:
192,192,107474,1,0,0:0:0:0:
448,192,107564,1,0,0:0:0:0:
64,192,107564,1,0,0:0:0:0:
192,192,107698,128,0,107832:0:0:0:0:
320,192,107743,1,0,0:0:0:0:
64,192,107787,1,0,0:0:0:0:
448,192,107832,1,0,0:0:0:0:
320,192,107966,128,0,108100:0:0:0:0:
448,192,108011,1,0,0:0:0:0:
192,192,108100,1,0,0:0:0:0:
64,192,108100,1,0,0:0:0:0:
320,192,108235,1,0,0:0:0:0:
448,192,108235,128,0,108369:0:0:0:0:
64,192,108235,1,0,0:0:0:0:
192,192,108235,1,0,0:0:0:0:
320,192,108369,1,0,0:0:0:0:
64,192,108503,128,0,108637:0:0:0:0:
448,192,108637,128,0,108771:0:0:0:0:
192,192,108637,1,0,0:0:0:0:
320,192,108771,1,0,0:0:0:0:
64,192,108771,1,0,0:0:0:0:
192,192,108816,1,0,0:0:0:0:
64,192,108861,1,0,0:0:0:0:
448,192,108906,1,0,0:0:0:0:
320,192,108906,1,0,0:0:0:0:
192,192,109040,1,0,0:0:0:0:
320,192,109085,1,0,0:0:0:0:
448,192,109174,1,0,0:0:0:0:
64,192,109174,128,0,109208:0:0:0:0:
320,192,109308,128,0,109342:0:0:0:0:
192,192,109353,1,0,0:0:0:0:
64,192,109398,1,0,0:0:0:0:
448,192,109442,1,0,0:0:0:0:
320,192,109442,1,0,0:0:0:0:
192,192,109487,1,0,0:0:0:0:
64,192,109532,1,0,0:0:0:0:
320,192,109577,1,0,0:0:0:0:
192,192,109621,1,0,0:0:0:0:
448,192,109666,1,0,0:0:0:0:
320,192,109711,1,0,0:0:0:0:
192,192,109756,1,0,0:0:0:0:
448,192,109800,1,0,0:0:0:0:
320,192,109845,1,0,0:0:0:0:
192,192,109890,1,0,0:0:0:0:
448,192,109934,1,0,0:0:0:0:
64,192,109934,1,0,0:0:0:0:
320,192,109979,1,0,0:0:0:0:
192,192,110024,1,0,0:0:0:0:
448,192,110069,1,0,0:0:0:0:
64,192,110113,1,0,0:0:0:0:
192,192,110158,1,0,0:0:0:0:
320,192,110203,1,0,0:0:0:0:
448,192,110248,1,0,0:0:0:0:
64,192,110248,1,0,0:0:0:0:
192,192,110292,1,0,0:0:0:0:
320,192,110337,1,0,0:0:0:0:
64,192,110382,1,0,0:0:0:0:
192,192,110427,1,0,0:0:0:0:
448,192,110471,1,0,0:0:0:0:
320,192,110516,1,0,0:0:0:0:
64,192,110516,1,0,0:0:0:0:
192,192,110561,1,0,0:0:0:0:
448,192,110605,1,0,0:0:0:0:
320,192,110650,1,0,0:0:0:0:
192,192,110695,1,0,0:0:0:0:
64,192,110740,1,0,0:0:0:0:
448,192,110784,1,0,0:0:0:0:
320,192,110784,1,0,0:0:0:0:
192,192,110829,1,0,0:0:0:0:
64,192,110874,1,0,0:0:0:0:
320,192,110919,1,0,0:0:0:0:
448,192,110963,1,0,0:0:0:0:
64,192,111008,1,0,0:0:0:0:
320,192,111053,1,0,0:0:0:0:
192,192,111053,1,0,0:0:0:0:
448,192,111098,1,0,0:0:0:0:
192,192,111142,1,0,0:0:0:0:
320,192,111187,1,0,0:0:0:0:
64,192,111232,1,0,0:0:0:0:
192,192,111276,1,0,0:0:0:0:
448,192,111321,1,0,0:0:0:0:
320,192,111321,1,0,0:0:0:0:
64,192,111366,1,0,0:0:0:0:
192,192,111411,1,0,0:0:0:0:
320,192,111455,1,0,0:0:0:0:
448,192,111500,1,0,0:0:0:0:
64,192,111545,1,0,0:0:0:0:
320,192,111590,1,0,0:0:0:0:
192,192,111590,1,0,0:0:0:0:
448,192,111634,1,0,0:0:0:0:
64,192,111679,1,0,0:0:0:0:
192,192,111724,1,0,0:0:0:0:
320,192,111768,1,0,0:0:0:0:
448,192,111813,1,0,0:0:0:0:
64,192,111858,1,0,0:0:0:0:
192,192,111902,1,0,0:0:0:0:
320,192,111947,1,0,0:0:0:0:
448,192,111992,1,0,0:0:0:0:
64,192,112059,1,0,0:0:0:0:
320,192,112126,1,0,0:0:0:0:
192,192,112193,1,0,0:0:0:0:
448,192,112260,1,0,0:0:0:0:
320,192,112260,1,0,0:0:0:0:
192,192,112327,1,0,0:0:0:0:
448,192,112394,1,0,0:0:0:0:
64,192,112394,1,0,0:0:0:0:
320,192,112461,1,0,0:0:0:0:
192,192,112528,1,0,0:0:0:0:
448,192,112596,1,0,0:0:0:0:
320,192,112663,1,0,0:0:0:0:
192,192,112663,1,0,0:0:0:0:
64,192,112663,1,0,0:0:0:0:
448,192,112797,1,0,0:0:0:0:
192,192,112931,1,0,0:0:0:0:
64,192,113065,1,0,0:0:0:0:
192,192,113099,1,0,0:0:0:0:
320,192,113132,1,0,0:0:0:0:
448,192,113166,1,0,0:0:0:0:
320,192,113334,1,0,0:0:0:0:
192,192,113401,1,0,0:0:0:0:
448,192,113468,1,0,0:0:0:0:
64,192,113468,1,0,0:0:0:0:
192,192,113602,1,0,0:0:0:0:
320,192,113669,1,0,0:0:0:0:
448,192,113737,128,0,113870:0:0:0:0:
64,192,113737,1,0,0:0:0:0:
320,192,113870,1,0,0:0:0:0:
448,192,114004,1,0,0:0:0:0:
192,192,114004,1,0,0:0:0:0:
320,192,114138,1,0,0:0:0:0:
192,192,114205,1,0,0:0:0:0:
64,192,114272,128,0,114451:0:0:0:0:
320,192,114406,1,0,0:0:0:0:
448,192,114540,1,0,0:0:0:0:
64,192,114540,1,0,0:0:0:0:
192,192,114674,128,0,114808:0:0:0:0:
320,192,114808,128,0,114942:0:0:0:0:
448,192,114942,1,0,0:0:0:0:
192,192,115076,1,0,0:0:0:0:
64,192,115076,1,0,0:0:0:0:
448,192,115210,128,0,115344:0:0:0:0:
192,192,115344,1,0,0:0:0:0:
64,192,115478,128,0,115612:0:0:0:0:
320,192,115612,1,0,0:0:0:0:
192,192,115612,128,0,115746:0:0:0:0:
448,192,115746,128,0,115880:0:0:0:0:
320,192,115880,128,0,116014:0:0:0:0:
64,192,116014,1,0,0:0:0:0:
320,192,116148,128,0,116215:0:0:0:0:
192,192,116148,1,0,0:0:0:0:
320,192,116282,128,0,116416:0:0:0:0:
192,192,116416,128,0,116550:0:0:0:0:
448,192,116550,1,0,0:0:0:0:
320,192,116683,128,0,116750:0:0:0:0:
64,192,116683,1,0,0:0:0:0:
448,192,116750,128,0,116817:0:0:0:0:
192,192,116817,1,0,0:0:0:0:
320,192,116951,1,0,0:0:0:0:
448,192,117085,1,0,0:0:0:0:
192,192,117219,1,0,0:0:0:0:
64,192,117219,1,0,0:0:0:0:
320,192,117353,128,0,117487:0:0:0:0:
192,192,117487,128,0,117621:0:0:0:0:
64,192,117621,128,0,117755:0:0:0:0:
448,192,117755,1,0,0:0:0:0:
320,192,117755,1,0,0:0:0:0:
192,192,117889,128,0,118157:0:0:0:0:
64,192,118023,1,0,0:0:0:0:
448,192,118157,1,0,0:0:0:0:
320,192,118224,1,0,0:0:0:0:
192,192,118291,1,0,0:0:0:0:
64,192,118291,1,0,0:0:0:0:
320,192,118425,1,0,0:0:0:0:
192,192,118492,128,0,118625:0:0:0:0:
64,192,118559,1,0,0:0:0:0:
320,192,118692,1,0,0:0:0:0:
448,192,118827,1,0,0:0:0:0:
192,192,118827,1,0,0:0:0:0:
64,192,118960,128,0,119027:0:0:0:0:
320,192,119094,128,0,119228:0:0:0:0:
192,192,119228,1,0,0:0:0:0:
448,192,119362,1,0,0:0:0:0:
64,192,119362,1,0,0:0:0:0:
192,192,119496,1,0,0:0:0:0:
448,192,119630,128,0,119697:0:0:0:0:
64,192,119697,128,0,119764:0:0:0:0:
320,192,119764,128,0,119831:0:0:0:0:
320,192,119898,1,0,0:0:0:0:
192,192,119898,1,0,0:0:0:0:
448,192,120032,128,0,120099:0:0:0:0:
64,192,120099,128,0,120166:0:0:0:0:
320,192,120166,128,0,120233:0:0:0:0:
192,192,120300,128,0,120367:0:0:0:0:
64,192,120367,128,0,120434:0:0:0:0:
448,192,120434,1,0,0:0:0:0:
320,192,120434,1,0,0:0:0:0:
192,192,120501,128,0,120568:0:0:0:0:
64,192,120568,128,0,120635:0:0:0:0:
320,192,120702,128,0,120769:0:0:0:0:
448,192,120769,128,0,120836:0:0:0:0:
192,192,120836,128,0,120903:0:0:0:0:
192,192,120970,128,0,121037:0:0:0:0:
64,192,120970,1,0,0:0:0:0:
320,192,121037,128,0,121104:0:0:0:0:
192,192,121104,128,0,121171:0:0:0:0:
320,192,121238,128,0,121305:0:0:0:0:
448,192,121305,128,0,121372:0:0:0:0:
192,192,121372,128,0,121439:0:0:0:0:
448,192,121506,1,0,0:0:0:0:
64,192,121506,1,0,0:0:0:0:
192,192,121640,128,0,121706:0:0:0:0:
320,192,121773,128,0,121840:0:0:0:0:
448,192,121907,128,0,121974:0:0:0:0:
192,192,121907,1,0,0:0:0:0:
320,192,122041,1,0,0:0:0:0:
64,192,122041,1,0,0:0:0:0:
192,192,122175,1,0,0:0:0:0:
448,192,122309,128,0,122376:0:0:0:0:
320,192,122443,1,0,0:0:0:0:
448,192,122577,1,0,0:0:0:0:
192,192,122577,1,0,0:0:0:0:
192,192,122711,1,0,0:0:0:0:
64,192,122711,128,0,122778:0:0:0:0:
448,192,122778,1,0,0:0:0:0:
320,192,122778,128,0,122845:0:0:0:0:
192,192,122845,1,0,0:0:0:0:
320,192,122979,1,0,0:0:0:0:
192,192,123113,1,0,0:0:0:0:
64,192,123113,128,0,123247:0:0:0:0:
448,192,123247,128,0,123381:0:0:0:0:
320,192,123247,1,0,0:0:0:0:
192,192,123381,1,0,0:0:0:0:
320,192,123515,128,0,123582:0:0:0:0:
448,192,123649,128,0,123715:0:0:0:0:
64,192,123649,1,0,0:0:0:0:
320,192,123715,128,0,123782:0:0:0:0:
192,192,123782,128,0,123849:0:0:0:0:
64,192,123918,128,0,124051:0:0:0:0:
448,192,124051,128,0,124185:0:0:0:0:
320,192,124185,128,0,124319:0:0:0:0:
192,192,124185,1,0,0:0:0:0:
64,192,124319,128,0,124453:0:0:0:0:
448,192,124453,1,0,0:0:0:0:
192,192,124587,1,0,0:0:0:0:
320,192,124654,1,0,0:0:0:0:
448,192,124721,1,0,0:0:0:0:
64,192,124721,1,0,0:0:0:0:
192,192,124788,128,0,124922:0:0:0:0:
320,192,124855,1,0,0:0:0:0:
320,192,124989,128,0,125123:0:0:0:0:
448,192,125123,128,0,125257:0:0:0:0:
192,192,125257,1,0,0:0:0:0:
64,192,125257,1,0,0:0:0:0:
448,192,125391,128,0,125525:0:0:0:0:
192,192,125525,1,0,0:0:0:0:
64,192,125659,1,0,0:0:0:0:
448,192,125793,1,0,0:0:0:0:
192,192,125793,128,0,125860:0:0:0:0:
64,192,125860,128,0,125927:0:0:0:0:
320,192,125927,128,0,125994:0:0:0:0:
448,192,126061,128,0,126195:0:0:0:0:
64,192,126195,128,0,126463:0:0:0:0:
448,192,126329,1,0,0:0:0:0:
320,192,126329,1,0,0:0:0:0:
192,192,126463,128,0,126530:0:0:0:0:
320,192,126597,128,0,126664:0:0:0:0:
448,192,126664,128,0,126731:0:0:0:0:
64,192,126731,128,0,126797:0:0:0:0:
320,192,126864,1,0,0:0:0:0:
192,192,126864,1,0,0:0:0:0:
320,192,126998,128,0,127065:0:0:0:0:
448,192,127065,128,0,127132:0:0:0:0:
64,192,127132,128,0,127199:0:0:0:0:
320,192,127266,1,0,0:0:0:0:
320,192,127400,128,0,127467:0:0:0:0:
192,192,127400,1,0,0:0:0:0:
448,192,127467,128,0,127534:0:0:0:0:
64,192,127534,128,0,127601:0:0:0:0:
448,192,127668,128,0,127735:0:0:0:0:
320,192,127735,128,0,127802:0:0:0:0:
192,192,127802,128,0,127869:0:0:0:0:
192,192,127936,1,0,0:0:0:0:
64,192,127936,1,0,0:0:0:0:
320,192,128067,128,0,128133:0:0:0:0:
448,192,128133,128,0,128199:0:0:0:0:
192,192,128199,128,0,128265:0:0:0:0:
64,192,128331,1,0,0:0:0:0:
448,192,128463,1,0,0:0:0:0:
192,192,128463,128,0,128529:0:0:0:0:
320,192,128529,128,0,128594:0:0:0:0:
448,192,128594,128,0,128660:0:0:0:0:
192,192,128726,128,0,128792:0:0:0:0:
320,192,128792,128,0,128858:0:0:0:0:
448,192,128858,128,0,128924:0:0:0:0:
448,192,128990,1,0,0:0:0:0:
64,192,128990,1,0,0:0:0:0:
192,192,129122,128,0,129188:0:0:0:0:
64,192,129188,128,0,129253:0:0:0:0:
320,192,129253,128,0,129319:0:0:0:0:
192,192,129385,1,0,0:0:0:0:
320,192,129517,128,0,129583:0:0:0:0:
64,192,129517,1,0,0:0:0:0:
448,192,129583,128,0,129649:0:0:0:0:
192,192,129649,1,0,0:0:0:0:
448,192,129781,1,0,0:0:0:0:
320,192,129912,1,0,0:0:0:0:
64,192,129956,1,0,0:0:0:0:
192,192,130000,1,0,0:0:0:0:
448,192,130044,1,0,0:0:0:0:
320,192,130044,1,0,0:0:0:0:
64,192,130176,1,0,0:0:0:0:
320,192,130308,128,0,130440:0:0:0:0:
192,192,130440,1,0,0:0:0:0:
448,192,130571,1,0,0:0:0:0:
320,192,130571,1,0,0:0:0:0:
64,192,130571,1,0,0:0:0:0:
64,192,130642,1,0,0:0:0:0:
320,192,130714,1,0,0:0:0:0:
320,192,130786,1,0,0:0:0:0:
448,192,130859,1,0,0:0:0:0:
192,192,130859,1,0,0:0:0:0:
64,192,130859,1,0,0:0:0:0:
448,192,130924,1,0,0:0:0:0:
320,192,130990,1,0,0:0:0:0:
64,192,130990,1,0,0:0:0:0:
192,192,131056,1,0,0:0:0:0:
448,192,131122,1,0,0:0:0:0:
320,192,131122,1,0,0:0:0:0:
64,192,131122,1,0,0:0:0:0:
192,192,131188,1,0,0:0:0:0:
448,192,131254,1,0,0:0:0:0:
320,192,131254,1,0,0:0:0:0:
192,192,131320,1,0,0:0:0:0:
448,192,131386,1,0,0:0:0:0:
320,192,131386,1,0,0:0:0:0:
320,192,131452,1,0,0:0:0:0:
448,192,131517,1,0,0:0:0:0:
192,192,131517,1,0,0:0:0:0:
64,192,131583,1,0,0:0:0:0:
448,192,131649,1,0,0:0:0:0:
320,192,131649,1,0,0:0:0:0:
192,192,131649,1,0,0:0:0:0:
64,192,131715,1,0,0:0:0:0:
448,192,131781,1,0,0:0:0:0:
192,192,131781,1,0,0:0:0:0:
320,192,131847,1,0,0:0:0:0:
448,192,131913,1,0,0:0:0:0:
64,192,131913,1,0,0:0:0:0:
448,192,131979,1,0,0:0:0:0:
320,192,132045,1,0,0:0:0:0:
192,192,132045,1,0,0:0:0:0:
64,192,132111,1,0,0:0:0:0:
448,192,132176,1,0,0:0:0:0:
320,192,132176,1,0,0:0:0:0:
192,192,132176,1,0,0:0:0:0:
64,192,132242,1,0,0:0:0:0:
448,192,132308,1,0,0:0:0:0:
192,192,132308,1,0,0:0:0:0:
320,192,132374,1,0,0:0:0:0:
448,192,132440,1,0,0:0:0:0:
64,192,132440,1,0,0:0:0:0:
448,192,132506,1,0,0:0:0:0:
192,192,132572,1,0,0:0:0:0:
64,192,132572,1,0,0:0:0:0:
320,192,132638,1,0,0:0:0:0:
448,192,132704,1,0,0:0:0:0:
192,192,132704,1,0,0:0:0:0:
64,192,132704,1,0,0:0:0:0:
320,192,132769,1,0,0:0:0:0:
448,192,132835,1,0,0:0:0:0:
64,192,132835,1,0,0:0:0:0:
320,192,132901,1,0,0:0:0:0:
192,192,132901,1,0,0:0:0:0:
448,192,132967,1,0,0:0:0:0:
64,192,132967,1,0,0:0:0:0:
448,192,133033,1,0,0:0:0:0:
320,192,133099,1,0,0:0:0:0:
64,192,133099,1,0,0:0:0:0:
192,192,133165,1,0,0:0:0:0:
448,192,133231,1,0,0:0:0:0:
320,192,133231,1,0,0:0:0:0:
64,192,133231,1,0,0:0:0:0:
192,192,133297,1,0,0:0:0:0:
448,192,133363,1,0,0:0:0:0:
320,192,133363,1,0,0:0:0:0:
192,192,133428,1,0,0:0:0:0:
448,192,133494,1,0,0:0:0:0:
64,192,133494,1,0,0:0:0:0:
448,192,133560,1,0,0:0:0:0:
320,192,133626,1,0,0:0:0:0:
64,192,133626,1,0,0:0:0:0:
192,192,133692,1,0,0:0:0:0:
448,192,133758,1,0,0:0:0:0:
320,192,133758,1,0,0:0:0:0:
64,192,133758,1,0,0:0:0:0:
192,192,133824,1,0,0:0:0:0:
448,192,133890,1,0,0:0:0:0:
320,192,133890,1,0,0:0:0:0:
64,192,133956,1,0,0:0:0:0:
448,192,134021,1,0,0:0:0:0:
320,192,134021,1,0,0:0:0:0:
320,192,134087,1,0,0:0:0:0:
192,192,134153,1,0,0:0:0:0:
64,192,134153,1,0,0:0:0:0:
448,192,134219,1,0,0:0:0:0:
448,192,134285,1,0,0:0:0:0:
192,192,134285,1,0,0:0:0:0:
64,192,134285,1,0,0:0:0:0:
320,192,134351,1,0,0:0:0:0:
192,192,134417,1,0,0:0:0:0:
64,192,134417,1,0,0:0:0:0:
192,192,134483,1,0,0:0:0:0:
448,192,134549,1,0,0:0:0:0:
320,192,134549,1,0,0:0:0:0:
320,192,134615,1,0,0:0:0:0:
448,192,134680,1,0,0:0:0:0:
192,192,134680,1,0,0:0:0:0:
64,192,134746,1,0,0:0:0:0:
448,192,134812,1,0,0:0:0:0:
320,192,134812,1,0,0:0:0:0:
64,192,134812,1,0,0:0:0:0:
192,192,134878,1,0,0:0:0:0:
448,192,134944,1,0,0:0:0:0:
320,192,134944,1,0,0:0:0:0:
192,192,134988,1,0,0:0:0:0:
64,192,135032,1,0,0:0:0:0:
448,192,135076,1,0,0:0:0:0:
320,192,135076,1,0,0:0:0:0:
320,192,135142,1,0,0:0:0:0:
448,192,135208,1,0,0:0:0:0:
192,192,135208,1,0,0:0:0:0:
64,192,135273,1,0,0:0:0:0:
448,192,135339,1,0,0:0:0:0:
320,192,135339,1,0,0:0:0:0:
192,192,135339,1,0,0:0:0:0:
64,192,135405,1,0,0:0:0:0:
448,192,135471,1,0,0:0:0:0:
192,192,135471,1,0,0:0:0:0:
320,192,135537,1,0,0:0:0:0:
448,192,135603,1,0,0:0:0:0:
64,192,135603,1,0,0:0:0:0:
64,192,135669,1,0,0:0:0:0:
448,192,135735,1,0,0:0:0:0:
320,192,135735,1,0,0:0:0:0:
192,192,135801,1,0,0:0:0:0:
448,192,135867,1,0,0:0:0:0:
320,192,135867,1,0,0:0:0:0:
64,192,135867,1,0,0:0:0:0:
192,192,135932,1,0,0:0:0:0:
448,192,135998,1,0,0:0:0:0:
64,192,135998,1,0,0:0:0:0:
320,192,136064,1,0,0:0:0:0:
448,192,136130,1,0,0:0:0:0:
192,192,136130,1,0,0:0:0:0:
192,192,136196,1,0,0:0:0:0:
448,192,136262,1,0,0:0:0:0:
320,192,136262,1,0,0:0:0:0:
64,192,136328,1,0,0:0:0:0:
448,192,136394,1,0,0:0:0:0:
320,192,136394,1,0,0:0:0:0:
192,192,136394,1,0,0:0:0:0:
64,192,136460,1,0,0:0:0:0:
448,192,136525,1,0,0:0:0:0:
192,192,136525,1,0,0:0:0:0:
320,192,136591,1,0,0:0:0:0:
448,192,136657,1,0,0:0:0:0:
192,192,136657,1,0,0:0:0:0:
192,192,136723,1,0,0:0:0:0:
448,192,136789,1,0,0:0:0:0:
64,192,136789,1,0,0:0:0:0:
192,192,136855,1,0,0:0:0:0:
448,192,136921,1,0,0:0:0:0:
320,192,136921,1,0,0:0:0:0:
64,192,136921,1,0,0:0:0:0:
192,192,136987,1,0,0:0:0:0:
320,192,137053,1,0,0:0:0:0:
64,192,137053,1,0,0:0:0:0:
448,192,137119,1,0,0:0:0:0:
192,192,137184,1,0,0:0:0:0:
64,192,137184,1,0,0:0:0:0:
192,192,137250,1,0,0:0:0:0:
448,192,137316,1,0,0:0:0:0:
64,192,137316,1,0,0:0:0:0:
320,192,137382,1,0,0:0:0:0:
192,192,137382,1,0,0:0:0:0:
448,192,137448,1,0,0:0:0:0:
64,192,137448,1,0,0:0:0:0:
320,192,137514,1,0,0:0:0:0:
192,192,137580,1,0,0:0:0:0:
64,192,137580,1,0,0:0:0:0:
448,192,137646,1,0,0:0:0:0:
320,192,137646,1,0,0:0:0:0:
192,192,137712,1,0,0:0:0:0:
64,192,137712,1,0,0:0:0:0:
448,192,137777,1,0,0:0:0:0:
320,192,137777,1,0,0:0:0:0:
192,192,137843,1,0,0:0:0:0:
64,192,137843,1,0,0:0:0:0:
320,192,137909,1,0,0:0:0:0:
448,192,137975,1,0,0:0:0:0:
192,192,137975,1,0,0:0:0:0:
64,192,137975,1,0,0:0:0:0:
320,192,138041,1,0,0:0:0:0:
192,192,138107,1,0,0:0:0:0:
64,192,138107,1,0,0:0:0:0:
448,192,138173,1,0,0:0:0:0:
320,192,138173,1,0,0:0:0:0:
192,192,138239,1,0,0:0:0:0:
64,192,138239,1,0,0:0:0:0:
448,192,138305,1,0,0:0:0:0:
320,192,138305,1,0,0:0:0:0:
192,192,138371,1,0,0:0:0:0:
64,192,138371,1,0,0:0:0:0:
448,192,138436,1,0,0:0:0:0:
320,192,138502,1,0,0:0:0:0:
192,192,138502,1,0,0:0:0:0:
64,192,138502,1,0,0:0:0:0:
448,192,138568,1,0,0:0:0:0:
192,192,138634,1,0,0:0:0:0:
64,192,138634,1,0,0:0:0:0:
192,192,138700,1,0,0:0:0:0:
64,192,138700,1,0,0:0:0:0:
448,192,138766,1,0,0:0:0:0:
320,192,138766,1,0,0:0:0:0:
448,192,138832,1,0,0:0:0:0:
320,192,138832,1,0,0:0:0:0:
192,192,138898,1,0,0:0:0:0:
64,192,138898,1,0,0:0:0:0:
448,192,138964,1,0,0:0:0:0:
320,192,138964,1,0,0:0:0:0:
192,192,139029,1,0,0:0:0:0:
64,192,139029,1,0,0:0:0:0:
448,192,139095,1,0,0:0:0:0:
320,192,139095,1,0,0:0:0:0:
192,192,139161,1,0,0:0:0:0:
64,192,139161,1,0,0:0:0:0:
448,192,139227,1,0,0:0:0:0:
320,192,139227,1,0,0:0:0:0:
448,192,139293,1,0,0:0:0:0:
192,192,139293,1,0,0:0:0:0:
64,192,139293,1,0,0:0:0:0:
320,192,139425,1,0,0:0:0:0:
448,192,139557,1,0,0:0:0:0:
192,192,139557,1,0,0:0:0:0:
64,192,139557,1,0,0:0:0:0:
320,192,139688,1,0,0:0:0:0:
448,192,139688,1,0,0:0:0:0:
64,192,139688,1,0,0:0:0:0:
192,192,139688,1,0,0:0:0:0:
192,192,139820,1,0,0:0:0:0:
320,192,139952,1,0,0:0:0:0:
448,192,140084,1,0,0:0:0:0:
320,192,140084,1,0,0:0:0:0:
192,192,140150,1,0,0:0:0:0:
64,192,140150,1,0,0:0:0:0:
448,192,140216,1,0,0:0:0:0:
320,192,140216,1,0,0:0:0:0:
64,192,140281,1,0,0:0:0:0:
320,192,140348,1,0,0:0:0:0:
192,192,140348,1,0,0:0:0:0:
448,192,140413,1,0,0:0:0:0:
64,192,140413,1,0,0:0:0:0:
320,192,140479,1,0,0:0:0:0:
192,192,140479,1,0,0:0:0:0:
448,192,140545,1,0,0:0:0:0:
320,192,140611,1,0,0:0:0:0:
192,192,140611,1,0,0:0:0:0:
64,192,140611,1,0,0:0:0:0:
192,192,140676,1,0,0:0:0:0:
448,192,140742,1,0,0:0:0:0:
64,192,140742,1,0,0:0:0:0:
320,192,140808,1,0,0:0:0:0:
192,192,140874,1,0,0:0:0:0:
64,192,140874,1,0,0:0:0:0:
448,192,140940,1,0,0:0:0:0:
320,192,140940,1,0,0:0:0:0:
192,192,141006,1,0,0:0:0:0:
64,192,141006,1,0,0:0:0:0:
320,192,141072,1,0,0:0:0:0:
448,192,141138,1,0,0:0:0:0:
192,192,141138,1,0,0:0:0:0:
64,192,141138,1,0,0:0:0:0:
448,192,141204,1,0,0:0:0:0:
192,192,141269,1,0,0:0:0:0:
64,192,141269,1,0,0:0:0:0:
448,192,141335,1,0,0:0:0:0:
320,192,141401,1,0,0:0:0:0:
192,192,141401,1,0,0:0:0:0:
64,192,141401,1,0,0:0:0:0:
192,192,141467,1,0,0:0:0:0:
64,192,141467,1,0,0:0:0:0:
448,192,141533,1,0,0:0:0:0:
320,192,141533,1,0,0:0:0:0:
64,192,141599,1,0,0:0:0:0:
448,192,141665,1,0,0:0:0:0:
320,192,141665,1,0,0:0:0:0:
192,192,141731,1,0,0:0:0:0:
64,192,141731,1,0,0:0:0:0:
448,192,141797,1,0,0:0:0:0:
320,192,141797,1,0,0:0:0:0:
192,192,141863,1,0,0:0:0:0:
448,192,141928,1,0,0:0:0:0:
64,192,141928,1,0,0:0:0:0:
320,192,141994,1,0,0:0:0:0:
192,192,141994,1,0,0:0:0:0:
448,192,142060,1,0,0:0:0:0:
64,192,142060,1,0,0:0:0:0:
192,192,142126,1,0,0:0:0:0:
448,192,142192,1,0,0:0:0:0:
320,192,142192,1,0,0:0:0:0:
64,192,142192,1,0,0:0:0:0:
448,192,142258,1,0,0:0:0:0:
192,192,142324,1,0,0:0:0:0:
64,192,142324,1,0,0:0:0:0:
448,192,142390,1,0,0:0:0:0:
320,192,142390,1,0,0:0:0:0:
192,192,142456,1,0,0:0:0:0:
64,192,142456,1,0,0:0:0:0:
448,192,142521,1,0,0:0:0:0:
320,192,142587,1,0,0:0:0:0:
192,192,142587,1,0,0:0:0:0:
64,192,142653,1,0,0:0:0:0:
448,192,142719,1,0,0:0:0:0:
320,192,142719,1,0,0:0:0:0:
192,192,142719,1,0,0:0:0:0:
64,192,142785,1,0,0:0:0:0:
448,192,142851,1,0,0:0:0:0:
320,192,142851,1,0,0:0:0:0:
448,192,142917,1,0,0:0:0:0:
320,192,142917,1,0,0:0:0:0:
192,192,142983,1,0,0:0:0:0:
64,192,142983,1,0,0:0:0:0:
320,192,143049,1,0,0:0:0:0:
192,192,143115,1,0,0:0:0:0:
64,192,143115,1,0,0:0:0:0:
320,192,143180,1,0,0:0:0:0:
448,192,143246,1,0,0:0:0:0:
192,192,143246,1,0,0:0:0:0:
64,192,143246,1,0,0:0:0:0:
320,192,143312,1,0,0:0:0:0:
448,192,143378,1,0,0:0:0:0:
192,192,143378,1,0,0:0:0:0:
64,192,143444,1,0,0:0:0:0:
448,192,143510,1,0,0:0:0:0:
320,192,143510,1,0,0:0:0:0:
192,192,143576,1,0,0:0:0:0:
320,192,143642,1,0,0:0:0:0:
64,192,143642,1,0,0:0:0:0:
448,192,143708,1,0,0:0:0:0:
320,192,143773,1,0,0:0:0:0:
64,192,143773,1,0,0:0:0:0:
64,192,143839,1,0,0:0:0:0:
448,192,143905,1,0,0:0:0:0:
192,192,143905,1,0,0:0:0:0:
320,192,143971,1,0,0:0:0:0:
448,192,144037,1,0,0:0:0:0:
192,192,144037,1,0,0:0:0:0:
64,192,144037,1,0,0:0:0:0:
320,192,144103,1,0,0:0:0:0:
448,192,144169,1,0,0:0:0:0:
192,192,144169,1,0,0:0:0:0:
64,192,144235,1,0,0:0:0:0:
448,192,144301,1,0,0:0:0:0:
320,192,144301,1,0,0:0:0:0:
192,192,144367,1,0,0:0:0:0:
448,192,144432,1,0,0:0:0:0:
320,192,144432,1,0,0:0:0:0:
192,192,144498,1,0,0:0:0:0:
448,192,144564,1,0,0:0:0:0:
320,192,144564,1,0,0:0:0:0:
64,192,144564,1,0,0:0:0:0:
64,192,144630,1,0,0:0:0:0:
320,192,144696,1,0,0:0:0:0:
192,192,144696,1,0,0:0:0:0:
448,192,144762,1,0,0:0:0:0:
192,192,144828,1,0,0:0:0:0:
64,192,144828,1,0,0:0:0:0:
320,192,144894,1,0,0:0:0:0:
192,192,144960,1,0,0:0:0:0:
64,192,144960,1,0,0:0:0:0:
320,192,145025,1,0,0:0:0:0:
448,192,145091,1,0,0:0:0:0:
64,192,145091,1,0,0:0:0:0:
448,192,145157,1,0,0:0:0:0:
320,192,145223,1,0,0:0:0:0:
192,192,145223,1,0,0:0:0:0:
64,192,145289,1,0,0:0:0:0:
448,192,145355,1,0,0:0:0:0:
320,192,145355,1,0,0:0:0:0:
192,192,145355,1,0,0:0:0:0:
320,192,145421,1,0,0:0:0:0:
192,192,145487,1,0,0:0:0:0:
64,192,145487,1,0,0:0:0:0:
448,192,145553,1,0,0:0:0:0:
320,192,145619,1,0,0:0:0:0:
64,192,145619,1,0,0:0:0:0:
192,192,145682,1,0,0:0:0:0:
448,192,145745,1,0,0:0:0:0:
320,192,145745,1,0,0:0:0:0:
64,192,145808,1,0,0:0:0:0:
448,192,145871,1,0,0:0:0:0:
320,192,145871,1,0,0:0:0:0:
192,192,145871,1,0,0:0:0:0:
192,192,145936,1,0,0:0:0:0:
320,192,146002,1,0,0:0:0:0:
64,192,146002,1,0,0:0:0:0:
448,192,146068,1,0,0:0:0:0:
192,192,146134,1,0,0:0:0:0:
64,192,146134,1,0,0:0:0:0:
448,192,146200,1,0,0:0:0:0:
320,192,146200,1,0,0:0:0:0:
192,192,146266,1,0,0:0:0:0:
64,192,146266,1,0,0:0:0:0:
448,192,146332,1,0,0:0:0:0:
320,192,146398,1,0,0:0:0:0:
192,192,146398,1,0,0:0:0:0:
64,192,146398,1,0,0:0:0:0:
448,192,146464,1,0,0:0:0:0:
192,192,146529,1,0,0:0:0:0:
64,192,146529,1,0,0:0:0:0:
64,192,146595,1,0,0:0:0:0:
448,192,146662,1,0,0:0:0:0:
320,192,146662,1,0,0:0:0:0:
320,192,146724,1,0,0:0:0:0:
192,192,146787,1,0,0:0:0:0:
64,192,146787,1,0,0:0:0:0:
320,192,146850,1,0,0:0:0:0:
448,192,146914,1,0,0:0:0:0:
192,192,146914,1,0,0:0:0:0:
64,192,146914,1,0,0:0:0:0:
320,192,146979,1,0,0:0:0:0:
192,192,147045,1,0,0:0:0:0:
64,192,147045,1,0,0:0:0:0:
448,192,147111,1,0,0:0:0:0:
320,192,147177,1,0,0:0:0:0:
192,192,147177,1,0,0:0:0:0:
64,192,147243,1,0,0:0:0:0:
448,192,147309,1,0,0:0:0:0:
320,192,147309,1,0,0:0:0:0:
192,192,147375,1,0,0:0:0:0:
64,192,147375,1,0,0:0:0:0:
448,192,147441,1,0,0:0:0:0:
320,192,147441,1,0,0:0:0:0:
192,192,147507,1,0,0:0:0:0:
64,192,147507,1,0,0:0:0:0:
448,192,147572,1,0,0:0:0:0:
320,192,147572,1,0,0:0:0:0:
192,192,147638,1,0,0:0:0:0:
64,192,147638,1,0,0:0:0:0:
448,192,147704,1,0,0:0:0:0:
320,192,147704,1,0,0:0:0:0:
192,192,147770,1,0,0:0:0:0:
448,192,147836,1,0,0:0:0:0:
64,192,147836,1,0,0:0:0:0:
64,192,147902,1,0,0:0:0:0:
448,192,147968,1,0,0:0:0:0:
320,192,147968,1,0,0:0:0:0:
192,192,147968,1,0,0:0:0:0:
64,192,148034,1,0,0:0:0:0:
448,192,148100,1,0,0:0:0:0:
320,192,148100,1,0,0:0:0:0:
192,192,148166,1,0,0:0:0:0:
448,192,148231,1,0,0:0:0:0:
320,192,148231,1,0,0:0:0:0:
320,192,148297,1,0,0:0:0:0:
448,192,148363,1,0,0:0:0:0:
192,192,148363,1,0,0:0:0:0:
64,192,148429,1,0,0:0:0:0:
448,192,148495,1,0,0:0:0:0:
320,192,148495,1,0,0:0:0:0:
192,192,148495,1,0,0:0:0:0:
64,192,148561,1,0,0:0:0:0:
448,192,148627,1,0,0:0:0:0:
320,192,148627,1,0,0:0:0:0:
320,192,148693,1,0,0:0:0:0:
192,192,148759,1,0,0:0:0:0:
64,192,148759,1,0,0:0:0:0:
448,192,148824,1,0,0:0:0:0:
320,192,148890,1,0,0:0:0:0:
192,192,148890,1,0,0:0:0:0:
64,192,148956,1,0,0:0:0:0:
448,192,149022,1,0,0:0:0:0:
320,192,149022,1,0,0:0:0:0:
192,192,149022,1,0,0:0:0:0:
320,192,149088,1,0,0:0:0:0:
448,192,149154,1,0,0:0:0:0:
192,192,149154,1,0,0:0:0:0:
64,192,149220,1,0,0:0:0:0:
448,192,149286,1,0,0:0:0:0:
320,192,149286,1,0,0:0:0:0:
192,192,149352,1,0,0:0:0:0:
448,192,149418,1,0,0:0:0:0:
320,192,149418,1,0,0:0:0:0:
192,192,149483,1,0,0:0:0:0:
448,192,149549,1,0,0:0:0:0:
320,192,149549,1,0,0:0:0:0:
64,192,149549,1,0,0:0:0:0:
192,192,149615,1,0,0:0:0:0:
64,192,149681,1,0,0:0:0:0:
448,192,149725,1,0,0:0:0:0:
320,192,149769,1,0,0:0:0:0:
192,192,149813,1,0,0:0:0:0:
64,192,149813,1,0,0:0:0:0:
192,192,149879,1,0,0:0:0:0:
448,192,149945,1,0,0:0:0:0:
64,192,149945,1,0,0:0:0:0:
320,192,150011,1,0,0:0:0:0:
448,192,150077,1,0,0:0:0:0:
192,192,150077,1,0,0:0:0:0:
64,192,150077,1,0,0:0:0:0:
320,192,150142,1,0,0:0:0:0:
448,192,150208,1,0,0:0:0:0:
64,192,150208,1,0,0:0:0:0:
192,192,150274,1,0,0:0:0:0:
448,192,150340,1,0,0:0:0:0:
64,192,150340,1,0,0:0:0:0:
64,192,150405,1,0,0:0:0:0:
448,192,150471,1,0,0:0:0:0:
320,192,150471,1,0,0:0:0:0:
64,192,150537,1,0,0:0:0:0:
448,192,150603,1,0,0:0:0:0:
320,192,150603,1,0,0:0:0:0:
192,192,150603,1,0,0:0:0:0:
192,192,150668,1,0,0:0:0:0:
448,192,150734,1,0,0:0:0:0:
320,192,150734,1,0,0:0:0:0:
192,192,150800,1,0,0:0:0:0:
448,192,150866,1,0,0:0:0:0:
64,192,150866,1,0,0:0:0:0:
448,192,150932,1,0,0:0:0:0:
320,192,150997,1,0,0:0:0:0:
64,192,150997,1,0,0:0:0:0:
192,192,151063,1,0,0:0:0:0:
448,192,151129,1,0,0:0:0:0:
320,192,151129,1,0,0:0:0:0:
64,192,151129,1,0,0:0:0:0:
448,192,151195,1,0,0:0:0:0:
192,192,151260,1,0,0:0:0:0:
64,192,151260,1,0,0:0:0:0:
320,192,151326,1,0,0:0:0:0:
448,192,151392,1,0,0:0:0:0:
64,192,151392,1,0,0:0:0:0:
64,192,151458,1,0,0:0:0:0:
448,192,151524,1,0,0:0:0:0:
320,192,151524,1,0,0:0:0:0:
192,192,151589,1,0,0:0:0:0:
448,192,151655,1,0,0:0:0:0:
320,192,151655,1,0,0:0:0:0:
64,192,151655,1,0,0:0:0:0:
320,192,151721,1,0,0:0:0:0:
448,192,151787,1,0,0:0:0:0:
64,192,151787,1,0,0:0:0:0:
192,192,151852,1,0,0:0:0:0:
448,192,151918,1,0,0:0:0:0:
320,192,151918,1,0,0:0:0:0:
448,192,151984,1,0,0:0:0:0:
192,192,152050,1,0,0:0:0:0:
64,192,152050,1,0,0:0:0:0:
64,192,152115,1,0,0:0:0:0:
448,192,152181,1,0,0:0:0:0:
320,192,152181,1,0,0:0:0:0:
192,192,152181,1,0,0:0:0:0:
320,192,152247,1,0,0:0:0:0:
192,192,152313,1,0,0:0:0:0:
64,192,152313,1,0,0:0:0:0:
64,192,152379,1,0,0:0:0:0:
448,192,152444,1,0,0:0:0:0:
320,192,152444,1,0,0:0:0:0:
192,192,152510,1,0,0:0:0:0:
448,192,152576,1,0,0:0:0:0:
64,192,152576,1,0,0:0:0:0:
320,192,152642,1,0,0:0:0:0:
448,192,152707,1,0,0:0:0:0:
192,192,152707,1,0,0:0:0:0:
64,192,152707,1,0,0:0:0:0:
448,192,152773,1,0,0:0:0:0:
320,192,152839,1,0,0:0:0:0:
64,192,152839,1,0,0:0:0:0:
192,192,152905,1,0,0:0:0:0:
320,192,152971,1,0,0:0:0:0:
64,192,152971,1,0,0:0:0:0:
448,192,153036,1,0,0:0:0:0:
64,192,153036,1,0,0:0:0:0:
320,192,153102,1,0,0:0:0:0:
192,192,153102,1,0,0:0:0:0:
64,192,153168,1,0,0:0:0:0:
448,192,153234,1,0,0:0:0:0:
320,192,153234,1,0,0:0:0:0:
192,192,153234,1,0,0:0:0:0:
192,192,153299,1,0,0:0:0:0:
320,192,153365,1,0,0:0:0:0:
64,192,153365,1,0,0:0:0:0:
448,192,153431,1,0,0:0:0:0:
320,192,153497,1,0,0:0:0:0:
64,192,153497,1,0,0:0:0:0:
320,192,153562,1,0,0:0:0:0:
192,192,153628,1,0,0:0:0:0:
64,192,153628,1,0,0:0:0:0:
320,192,153694,1,0,0:0:0:0:
448,192,153760,1,0,0:0:0:0:
192,192,153760,1,0,0:0:0:0:
64,192,153760,1,0,0:0:0:0:
448,192,153826,1,0,0:0:0:0:
320,192,153891,1,0,0:0:0:0:
64,192,153891,1,0,0:0:0:0:
192,192,153957,1,0,0:0:0:0:
320,192,154023,1,0,0:0:0:0:
64,192,154023,1,0,0:0:0:0:
64,192,154089,1,0,0:0:0:0:
448,192,154154,1,0,0:0:0:0:
320,192,154154,1,0,0:0:0:0:
64,192,154220,1,0,0:0:0:0:
448,192,154286,1,0,0:0:0:0:
320,192,154286,1,0,0:0:0:0:
192,192,154286,1,0,0:0:0:0:
320,192,154352,1,0,0:0:0:0:
192,192,154418,1,0,0:0:0:0:
64,192,154418,1,0,0:0:0:0:
448,192,154483,1,0,0:0:0:0:
192,192,154549,1,0,0:0:0:0:
64,192,154549,1,0,0:0:0:0:
192,192,154615,1,0,0:0:0:0:
448,192,154681,1,0,0:0:0:0:
320,192,154681,1,0,0:0:0:0:
64,192,154746,1,0,0:0:0:0:
448,192,154812,1,0,0:0:0:0:
320,192,154812,1,0,0:0:0:0:
192,192,154812,1,0,0:0:0:0:
448,192,154878,1,0,0:0:0:0:
192,192,154944,1,0,0:0:0:0:
64,192,154944,1,0,0:0:0:0:
320,192,155009,1,0,0:0:0:0:
192,192,155075,1,0,0:0:0:0:
64,192,155075,1,0,0:0:0:0:
64,192,155140,1,0,0:0:0:0:
448,192,155206,1,0,0:0:0:0:
192,192,155206,1,0,0:0:0:0:
320,192,155272,1,0,0:0:0:0:
448,192,155338,1,0,0:0:0:0:
192,192,155338,1,0,0:0:0:0:
64,192,155338,1,0,0:0:0:0:
192,192,155403,1,0,0:0:0:0:
448,192,155469,1,0,0:0:0:0:
320,192,155469,1,0,0:0:0:0:
64,192,155535,1,0,0:0:0:0:
448,192,155601,1,0,0:0:0:0:
320,192,155601,1,0,0:0:0:0:
320,192,155666,1,0,0:0:0:0:
192,192,155732,1,0,0:0:0:0:
64,192,155732,1,0,0:0:0:0:
448,192,155798,1,0,0:0:0:0:
320,192,155798,1,0,0:0:0:0:
192,192,155865,1,0,0:0:0:0:
64,192,155865,1,0,0:0:0:0:
192,192,155930,1,0,0:0:0:0:
64,192,155930,1,0,0:0:0:0:
448,192,155996,1,0,0:0:0:0:
320,192,155996,1,0,0:0:0:0:
192,192,156062,1,0,0:0:0:0:
448,192,156128,1,0,0:0:0:0:
320,192,156128,1,0,0:0:0:0:
64,192,156128,1,0,0:0:0:0:
448,192,156215,1,0,0:0:0:0:
320,192,156215,1,0,0:0:0:0:
192,192,156303,1,0,0:0:0:0:
64,192,156303,1,0,0:0:0:0:
448,192,156391,1,0,0:0:0:0:
192,192,156391,1,0,0:0:0:0:
64,192,156391,1,0,0:0:0:0:
320,192,156456,1,0,0:0:0:0:
448,192,156522,1,0,0:0:0:0:
64,192,156522,1,0,0:0:0:0:
320,192,156588,1,0,0:0:0:0:
192,192,156588,1,0,0:0:0:0:
448,192,156654,1,0,0:0:0:0:
64,192,156654,1,0,0:0:0:0:
448,192,156720,1,0,0:0:0:0:
320,192,156785,1,0,0:0:0:0:
64,192,156785,1,0,0:0:0:0:
192,192,156851,1,0,0:0:0:0:
448,192,156917,1,0,0:0:0:0:
320,192,156917,1,0,0:0:0:0:
64,192,156917,1,0,0:0:0:0:
192,192,156983,1,0,0:0:0:0:
448,192,157048,1,0,0:0:0:0:
320,192,157048,1,0,0:0:0:0:
64,192,157048,1,0,0:0:0:0:
192,192,157114,1,0,0:0:0:0:
448,192,157180,1,0,0:0:0:0:
320,192,157180,1,0,0:0:0:0:
448,192,157246,1,0,0:0:0:0:
192,192,157246,1,0,0:0:0:0:
64,192,157312,1,0,0:0:0:0:
320,192,157377,1,0,0:0:0:0:
448,192,157443,1,0,0:0:0:0:
192,192,157443,1,0,0:0:0:0:
448,192,157509,1,0,0:0:0:0:
320,192,157509,1,0,0:0:0:0:
64,192,157575,1,0,0:0:0:0:
320,192,157640,1,0,0:0:0:0:
448,192,157706,1,0,0:0:0:0:
64,192,157706,1,0,0:0:0:0:
64,192,157772,1,0,0:0:0:0:
320,192,157838,1,0,0:0:0:0:
192,192,157838,1,0,0:0:0:0:
448,192,157903,1,0,0:0:0:0:
192,192,157969,1,0,0:0:0:0:
64,192,157969,1,0,0:0:0:0:
320,192,158035,1,0,0:0:0:0:
192,192,158035,1,0,0:0:0:0:
448,192,158101,1,0,0:0:0:0:
320,192,158167,1,0,0:0:0:0:
448,192,158232,1,0,0:0:0:0:
64,192,158232,1,0,0:0:0:0:
192,192,158298,1,0,0:0:0:0:
64,192,158298,1,0,0:0:0:0:
320,192,158364,1,0,0:0:0:0:
192,192,158430,1,0,0:0:0:0:
448,192,158495,1,0,0:0:0:0:
64,192,158495,1,0,0:0:0:0:
448,192,158561,1,0,0:0:0:0:
320,192,158561,1,0,0:0:0:0:
192,192,158627,1,0,0:0:0:0:
64,192,158671,1,0,0:0:0:0:
448,192,158715,1,0,0:0:0:0:
320,192,158759,1,0,0:0:0:0:
192,192,158759,1,0,0:0:0:0:
192,192,158824,1,0,0:0:0:0:
448,192,158890,1,0,0:0:0:0:
64,192,158890,1,0,0:0:0:0:
320,192,158934,1,0,0:0:0:0:
192,192,158978,1,0,0:0:0:0:
448,192,159022,1,0,0:0:0:0:
64,192,159022,1,0,0:0:0:0:
320,192,159087,1,0,0:0:0:0:
448,192,159153,1,0,0:0:0:0:
192,192,159153,1,0,0:0:0:0:
64,192,159153,1,0,0:0:0:0:
320,192,159219,1,0,0:0:0:0:
192,192,159285,1,0,0:0:0:0:
64,192,159285,1,0,0:0:0:0:
192,192,159350,1,0,0:0:0:0:
448,192,159416,1,0,0:0:0:0:
320,192,159416,1,0,0:0:0:0:
320,192,159482,1,0,0:0:0:0:
448,192,159548,1,0,0:0:0:0:
192,192,159548,1,0,0:0:0:0:
64,192,159548,1,0,0:0:0:0:
64,192,159614,1,0,0:0:0:0:
448,192,159679,1,0,0:0:0:0:
320,192,159679,1,0,0:0:0:0:
448,192,159745,1,0,0:0:0:0:
320,192,159745,1,0,0:0:0:0:
192,192,159811,1,0,0:0:0:0:
64,192,159811,1,0,0:0:0:0:
64,192,159877,1,0,0:0:0:0:
448,192,159942,1,0,0:0:0:0:
320,192,159942,1,0,0:0:0:0:
192,192,159942,1,0,0:0:0:0:
448,192,160008,1,0,0:0:0:0:
320,192,160074,1,0,0:0:0:0:
192,192,160074,1,0,0:0:0:0:
64,192,160074,1,0,0:0:0:0:
192,192,160140,1,0,0:0:0:0:
64,192,160140,1,0,0:0:0:0:
448,192,160206,1,0,0:0:0:0:
320,192,160206,1,0,0:0:0:0:
192,192,160271,1,0,0:0:0:0:
64,192,160271,1,0,0:0:0:0:
448,192,160337,1,0,0:0:0:0:
320,192,160337,1,0,0:0:0:0:
64,192,160469,1,0,0:0:0:0:
192,192,160512,1,0,0:0:0:0:
448,192,160600,1,0,0:0:0:0:
320,192,160600,1,0,0:0:0:0:
192,192,160600,1,0,0:0:0:0:
192,192,160732,1,0,0:0:0:0:
64,192,160732,1,0,0:0:0:0:
320,192,160776,1,0,0:0:0:0:
448,192,160864,1,0,0:0:0:0:
64,192,160864,1,0,0:0:0:0:
192,192,160995,1,0,0:0:0:0:
64,192,161039,1,0,0:0:0:0:
448,192,161127,1,0,0:0:0:0:
320,192,161127,1,0,0:0:0:0:
192,192,161127,1,0,0:0:0:0:
320,192,161258,1,0,0:0:0:0:
448,192,161258,1,0,0:0:0:0:
64,192,161258,1,0,0:0:0:0:
192,192,161258,1,0,0:0:0:0:
448,192,161390,1,0,0:0:0:0:
192,192,161390,1,0,0:0:0:0:
192,192,161521,1,0,0:0:0:0:
64,192,161521,1,0,0:0:0:0:
320,192,161653,1,0,0:0:0:0:
448,192,161653,1,0,0:0:0:0:
64,192,161653,1,0,0:0:0:0:
192,192,161653,1,0,0:0:0:0:
448,192,161784,1,0,0:0:0:0:
320,192,161784,1,0,0:0:0:0:
448,192,161916,1,0,0:0:0:0:
192,192,161916,1,0,0:0:0:0:
64,192,161916,1,0,0:0:0:0:
320,192,162047,1,0,0:0:0:0:
192,192,162047,1,0,0:0:0:0:
64,192,162047,1,0,0:0:0:0:
320,192,162179,1,0,0:0:0:0:
448,192,162179,1,0,0:0:0:0:
64,192,162179,1,0,0:0:0:0:
192,192,162179,1,0,0:0:0:0:
320,192,162310,1,0,0:0:0:0:
64,192,162310,1,0,0:0:0:0:
448,192,162442,1,0,0:0:0:0:
320,192,162442,1,0,0:0:0:0:
320,192,162573,1,0,0:0:0:0:
192,192,162573,1,0,0:0:0:0:
192,192,162705,1,0,0:0:0:0:
64,192,162705,1,0,0:0:0:0:
448,192,162836,1,0,0:0:0:0:
320,192,162836,1,0,0:0:0:0:
320,192,162968,1,0,0:0:0:0:
192,192,162968,1,0,0:0:0:0:
448,192,163100,1,0,0:0:0:0:
192,192,163100,1,0,0:0:0:0:
64,192,163100,1,0,0:0:0:0:
320,192,163231,1,0,0:0:0:0:
448,192,163231,1,0,0:0:0:0:
64,192,163231,1,0,0:0:0:0:
192,192,163231,1,0,0:0:0:0:
448,192,163363,1,0,0:0:0:0:
192,192,163363,1,0,0:0:0:0:
64,192,163363,1,0,0:0:0:0:
448,192,163494,1,0,0:0:0:0:
320,192,163494,1,0,0:0:0:0:
64,192,163494,1,0,0:0:0:0:
192,192,163560,1,0,0:0:0:0:
448,192,163626,1,0,0:0:0:0:
64,192,163626,1,0,0:0:0:0:
320,192,163691,1,0,0:0:0:0:
448,192,163757,1,0,0:0:0:0:
64,192,163757,1,0,0:0:0:0:
192,192,163823,1,0,0:0:0:0:
448,192,163889,1,0,0:0:0:0:
320,192,163889,1,0,0:0:0:0:
192,192,163955,1,0,0:0:0:0:
320,192,164020,1,0,0:0:0:0:
64,192,164020,1,0,0:0:0:0:
448,192,164086,1,0,0:0:0:0:
320,192,164152,1,0,0:0:0:0:
192,192,164152,1,0,0:0:0:0:
64,192,164218,1,0,0:0:0:0:
448,192,164284,1,0,0:0:0:0:
320,192,164284,1,0,0:0:0:0:
192,192,164359,1,0,0:0:0:0:
448,192,164434,1,0,0:0:0:0:
320,192,164434,1,0,0:0:0:0:
64,192,164509,1,0,0:0:0:0:
448,192,164585,1,0,0:0:0:0:
320,192,164585,1,0,0:0:0:0:
192,192,164585,1,0,0:0:0:0:
64,192,164737,1,0,0:0:0:0:
192,192,164872,1,0,0:0:0:0:
320,192,165007,1,0,0:0:0:0:
448,192,165142,1,0,0:0:0:0:
64,192,165142,1,0,0:0:0:0:
320,192,165277,1,0,0:0:0:0:
192,192,165413,1,0,0:0:0:0:
64,192,165548,1,0,0:0:0:0:
448,192,165683,1,0,0:0:0:0:
192,192,165683,1,0,0:0:0:0:
320,192,165818,1,0,0:0:0:0:
448,192,165953,1,0,0:0:0:0:
64,192,165953,1,0,0:0:0:0:
320,192,166089,1,0,0:0:0:0:
64,192,166134,1,0,0:0:0:0:
448,192,166179,1,0,0:0:0:0:
320,192,166224,1,0,0:0:0:0:
192,192,166224,1,0,0:0:0:0:
64,192,166359,1,0,0:0:0:0:
192,192,166494,1,0,0:0:0:0:
320,192,166630,1,0,0:0:0:0:
448,192,166793,1,0,0:0:0:0:
64,192,166793,1,0,0:0:0:0:
192,192,166838,1,0,0:0:0:0:
448,192,166883,1,0,0:0:0:0:
320,192,166928,1,0,0:0:0:0:
192,192,167063,1,0,0:0:0:0:
64,192,167199,1,0,0:0:0:0:
320,192,167244,1,0,0:0:0:0:
448,192,167289,1,0,0:0:0:0:
320,192,167334,1,0,0:0:0:0:
192,192,167334,1,0,0:0:0:0:
64,192,167446,1,0,0:0:0:0:
192,192,167582,1,0,0:0:0:0:
320,192,167717,1,0,0:0:0:0:
448,192,167762,1,0,0:0:0:0:
320,192,167807,1,0,0:0:0:0:
192,192,167852,1,0,0:0:0:0:
64,192,167852,1,0,0:0:0:0:
320,192,167987,1,0,0:0:0:0:
448,192,168122,1,0,0:0:0:0:
320,192,168168,1,0,0:0:0:0:
192,192,168213,1,0,0:0:0:0:
320,192,168258,1,0,0:0:0:0:
64,192,168303,1,0,0:0:0:0:
448,192,168348,1,0,0:0:0:0:
320,192,168393,1,0,0:0:0:0:
192,192,168393,1,0,0:0:0:0:
320,192,168528,1,0,0:0:0:0:
64,192,168528,1,0,0:0:0:0:
192,192,168663,1,0,0:0:0:0:
448,192,168798,1,0,0:0:0:0:
320,192,168798,1,0,0:0:0:0:
192,192,168933,1,0,0:0:0:0:
64,192,168933,1,0,0:0:0:0:
64,192,169068,1,0,0:0:0:0:
192,192,169203,1,0,0:0:0:0:
320,192,169339,1,0,0:0:0:0:
192,192,169339,1,0,0:0:0:0:
448,192,169474,1,0,0:0:0:0:
64,192,169474,1,0,0:0:0:0:
320,192,169609,1,0,0:0:0:0:
448,192,169744,1,0,0:0:0:0:
192,192,169744,1,0,0:0:0:0:
64,192,169879,1,0,0:0:0:0:
320,192,169925,1,0,0:0:0:0:
448,192,169970,1,0,0:0:0:0:
192,192,170015,1,0,0:0:0:0:
64,192,170015,1,0,0:0:0:0:
320,192,170150,1,0,0:0:0:0:
64,192,170150,1,0,0:0:0:0:
448,192,170285,1,0,0:0:0:0:
320,192,170420,1,0,0:0:0:0:
320,192,170556,1,0,0:0:0:0:
192,192,170556,1,0,0:0:0:0:
64,192,170691,1,0,0:0:0:0:
448,192,170826,1,0,0:0:0:0:
192,192,170826,1,0,0:0:0:0:
320,192,170961,1,0,0:0:0:0:
448,192,171096,1,0,0:0:0:0:
64,192,171096,1,0,0:0:0:0:
320,192,171232,1,0,0:0:0:0:
192,192,171367,1,0,0:0:0:0:
64,192,171502,1,0,0:0:0:0:
192,192,171547,1,0,0:0:0:0:
320,192,171592,1,0,0:0:0:0:
448,192,171637,1,0,0:0:0:0:
192,192,171637,1,0,0:0:0:0:
64,192,171772,1,0,0:0:0:0:
192,192,171908,1,0,0:0:0:0:
320,192,172043,1,0,0:0:0:0:
192,192,172178,1,0,0:0:0:0:
64,192,172178,1,0,0:0:0:0:
320,192,172308,1,0,0:0:0:0:
192,192,172308,1,0,0:0:0:0:
448,192,172426,1,0,0:0:0:0:
64,192,172426,1,0,0:0:0:0:
320,192,172561,1,0,0:0:0:0:
448,192,172696,1,0,0:0:0:0:
192,192,172696,1,0,0:0:0:0:
64,192,172832,1,0,0:0:0:0:
192,192,172968,1,0,0:0:0:0:
320,192,173103,1,0,0:0:0:0:
320,192,173238,1,0,0:0:0:0:
192,192,173238,1,0,0:0:0:0:
64,192,173238,1,0,0:0:0:0:
64,192,173374,1,0,0:0:0:0:
448,192,173511,1,0,0:0:0:0:
192,192,173511,1,0,0:0:0:0:
320,192,173647,1,0,0:0:0:0:
192,192,173647,1,0,0:0:0:0:
64,192,173647,1,0,0:0:0:0:
448,192,173784,1,0,0:0:0:0:
64,192,173784,1,0,0:0:0:0:
320,192,173920,1,0,0:0:0:0:
192,192,173920,1,0,0:0:0:0:
448,192,174057,1,0,0:0:0:0:
64,192,174057,1,0,0:0:0:0:
320,192,174102,1,0,0:0:0:0:
192,192,174148,1,0,0:0:0:0:
448,192,174193,1,0,0:0:0:0:
64,192,174193,1,0,0:0:0:0:
320,192,174261,1,0,0:0:0:0:
448,192,174330,1,0,0:0:0:0:
192,192,174330,1,0,0:0:0:0:
64,192,174330,1,0,0:0:0:0:
320,192,174466,1,0,0:0:0:0:
192,192,174466,1,0,0:0:0:0:
448,192,174603,1,0,0:0:0:0:
64,192,174603,1,0,0:0:0:0:
448,192,174739,1,0,0:0:0:0:
320,192,174739,1,0,0:0:0:0:
192,192,174739,1,0,0:0:0:0:
192,192,174876,1,0,0:0:0:0:
320,192,175012,1,0,0:0:0:0:
192,192,175012,1,0,0:0:0:0:
64,192,175012,1,0,0:0:0:0:
448,192,175149,1,0,0:0:0:0:
320,192,175149,1,0,0:0:0:0:
192,192,175149,1,0,0:0:0:0:
448,192,175285,1,0,0:0:0:0:
320,192,175285,1,0,0:0:0:0:
192,192,175331,1,0,0:0:0:0:
448,192,175422,1,0,0:0:0:0:
320,192,175422,1,0,0:0:0:0:
64,192,175422,1,0,0:0:0:0:
320,192,175558,1,0,0:0:0:0:
64,192,175558,1,0,0:0:0:0:
448,192,175695,1,0,0:0:0:0:
192,192,175695,1,0,0:0:0:0:
320,192,175831,1,0,0:0:0:0:
192,192,175831,1,0,0:0:0:0:
64,192,175831,1,0,0:0:0:0:
448,192,175968,1,0,0:0:0:0:
192,192,175968,1,0,0:0:0:0:
320,192,176104,1,0,0:0:0:0:
64,192,176104,1,0,0:0:0:0:
448,192,176241,1,0,0:0:0:0:
320,192,176241,1,0,0:0:0:0:
192,192,176241,1,0,0:0:0:0:
448,192,176377,1,0,0:0:0:0:
64,192,176377,1,0,0:0:0:0:
192,192,176423,1,0,0:0:0:0:
320,192,176468,1,0,0:0:0:0:
448,192,176514,1,0,0:0:0:0:
192,192,176514,1,0,0:0:0:0:
64,192,176514,1,0,0:0:0:0:
320,192,176650,1,0,0:0:0:0:
192,192,176650,1,0,0:0:0:0:
64,192,176650,1,0,0:0:0:0:
448,192,176787,1,0,0:0:0:0:
320,192,176787,1,0,0:0:0:0:
64,192,176787,1,0,0:0:0:0:
448,192,176923,1,0,0:0:0:0:
320,192,176923,1,0,0:0:0:0:
192,192,176923,1,0,0:0:0:0:
192,192,177060,1,0,0:0:0:0:
64,192,177060,1,0,0:0:0:0:
320,192,177196,1,0,0:0:0:0:
64,192,177196,1,0,0:0:0:0:
192,192,177333,1,0,0:0:0:0:
64,192,177333,1,0,0:0:0:0:
448,192,177379,1,0,0:0:0:0:
320,192,177424,1,0,0:0:0:0:
192,192,177470,1,0,0:0:0:0:
64,192,177470,1,0,0:0:0:0:
320,192,177538,1,0,0:0:0:0:
448,192,177606,1,0,0:0:0:0:
192,192,177606,1,0,0:0:0:0:
64,192,177606,1,0,0:0:0:0:
320,192,177743,1,0,0:0:0:0:
64,192,177743,1,0,0:0:0:0:
320,192,177879,1,0,0:0:0:0:
192,192,177879,1,0,0:0:0:0:
448,192,178016,1,0,0:0:0:0:
320,192,178016,1,0,0:0:0:0:
192,192,178016,1,0,0:0:0:0:
448,192,178152,1,0,0:0:0:0:
64,192,178152,1,0,0:0:0:0:
320,192,178289,1,0,0:0:0:0:
64,192,178289,1,0,0:0:0:0:
192,192,178425,1,0,0:0:0:0:
64,192,178425,1,0,0:0:0:0:
320,192,178471,1,0,0:0:0:0:
448,192,178516,1,0,0:0:0:0:
192,192,178562,1,0,0:0:0:0:
64,192,178562,1,0,0:0:0:0:
320,192,178630,1,0,0:0:0:0:
448,192,178698,1,0,0:0:0:0:
192,192,178698,1,0,0:0:0:0:
64,192,178698,1,0,0:0:0:0:
320,192,178835,1,0,0:0:0:0:
192,192,178835,1,0,0:0:0:0:
448,192,178971,1,0,0:0:0:0:
320,192,178971,1,0,0:0:0:0:
320,192,179108,1,0,0:0:0:0:
192,192,179108,1,0,0:0:0:0:
64,192,179108,1,0,0:0:0:0:
320,192,179244,1,0,0:0:0:0:
192,192,179244,1,0,0:0:0:0:
448,192,179381,1,0,0:0:0:0:
320,192,179381,1,0,0:0:0:0:
64,192,179381,1,0,0:0:0:0:
448,192,179517,1,0,0:0:0:0:
320,192,179517,1,0,0:0:0:0:
192,192,179563,1,0,0:0:0:0:
64,192,179608,1,0,0:0:0:0:
448,192,179654,1,0,0:0:0:0:
320,192,179654,1,0,0:0:0:0:
192,192,179722,1,0,0:0:0:0:
448,192,179790,1,0,0:0:0:0:
320,192,179790,1,0,0:0:0:0:
64,192,179790,1,0,0:0:0:0:
448,192,179927,1,0,0:0:0:0:
320,192,179927,1,0,0:0:0:0:
192,192,180063,1,0,0:0:0:0:
64,192,180063,1,0,0:0:0:0:
448,192,180200,1,0,0:0:0:0:
192,192,180200,1,0,0:0:0:0:
64,192,180200,1,0,0:0:0:0:
320,192,180336,1,0,0:0:0:0:
192,192,180336,1,0,0:0:0:0:
320,192,180473,1,0,0:0:0:0:
64,192,180473,1,0,0:0:0:0:
448,192,180609,1,0,0:0:0:0:
320,192,180609,1,0,0:0:0:0:
192,192,180609,1,0,0:0:0:0:
448,192,180746,1,0,0:0:0:0:
64,192,180746,1,0,0:0:0:0:
448,192,180814,1,0,0:0:0:0:
320,192,180882,1,0,0:0:0:0:
192,192,180882,1,0,0:0:0:0:
64,192,180882,1,0,0:0:0:0:
320,192,181019,1,0,0:0:0:0:
192,192,181019,1,0,0:0:0:0:
64,192,181019,1,0,0:0:0:0:
448,192,181155,1,0,0:0:0:0:
192,192,181155,1,0,0:0:0:0:
64,192,181155,1,0,0:0:0:0:
448,192,181292,1,0,0:0:0:0:
320,192,181292,1,0,0:0:0:0:
64,192,181292,1,0,0:0:0:0:
320,192,181429,1,0,0:0:0:0:
192,192,181429,1,0,0:0:0:0:
448,192,181565,1,0,0:0:0:0:
64,192,181565,1,0,0:0:0:0:
320,192,181702,1,0,0:0:0:0:
192,192,181702,1,0,0:0:0:0:
64,192,181702,1,0,0:0:0:0:
448,192,181838,1,0,0:0:0:0:
320,192,181838,1,0,0:0:0:0:
448,192,181975,1,0,0:0:0:0:
320,192,181975,1,0,0:0:0:0:
192,192,181975,1,0,0:0:0:0:
64,192,182064,1,0,0:0:0:0:
320,192,182109,1,0,0:0:0:0:
64,192,182153,1,0,0:0:0:0:
320,192,182243,1,0,0:0:0:0:
192,192,182243,1,0,0:0:0:0:
448,192,182332,1,0,0:0:0:0:
320,192,182377,1,0,0:0:0:0:
448,192,182421,1,0,0:0:0:0:
320,192,182511,1,0,0:0:0:0:
64,192,182511,1,0,0:0:0:0:
192,192,182600,1,0,0:0:0:0:
320,192,182645,1,0,0:0:0:0:
192,192,182690,1,0,0:0:0:0:
448,192,182779,1,0,0:0:0:0:
64,192,182779,1,0,0:0:0:0:
320,192,182868,1,0,0:0:0:0:
448,192,182913,1,0,0:0:0:0:
320,192,182958,1,0,0:0:0:0:
192,192,183047,1,0,0:0:0:0:
64,192,183047,1,0,0:0:0:0:
320,192,183136,1,0,0:0:0:0:
192,192,183181,1,0,0:0:0:0:
320,192,183226,1,0,0:0:0:0:
448,192,183315,1,0,0:0:0:0:
64,192,183315,1,0,0:0:0:0:
192,192,183405,1,0,0:0:0:0:
320,192,183449,1,0,0:0:0:0:
192,192,183494,1,0,0:0:0:0:
320,192,183583,1,0,0:0:0:0:
64,192,183583,1,0,0:0:0:0:
448,192,183673,1,0,0:0:0:0:
64,192,183717,1,0,0:0:0:0:
448,192,183762,1,0,0:0:0:0:
320,192,183852,1,0,0:0:0:0:
192,192,183852,1,0,0:0:0:0:
64,192,183941,1,0,0:0:0:0:
320,192,183986,1,0,0:0:0:0:
64,192,184030,1,0,0:0:0:0:
320,192,184120,1,0,0:0:0:0:
192,192,184120,1,0,0:0:0:0:
448,192,184209,1,0,0:0:0:0:
320,192,184254,1,0,0:0:0:0:
448,192,184298,1,0,0:0:0:0:
192,192,184388,1,0,0:0:0:0:
64,192,184388,1,0,0:0:0:0:
320,192,184477,1,0,0:0:0:0:
64,192,184522,1,0,0:0:0:0:
320,192,184567,1,0,0:0:0:0:
192,192,184656,1,0,0:0:0:0:
64,192,184656,1,0,0:0:0:0:
448,192,184745,1,0,0:0:0:0:
64,192,184790,1,0,0:0:0:0:
448,192,184835,1,0,0:0:0:0:
320,192,184924,1,0,0:0:0:0:
192,192,184924,1,0,0:0:0:0:
64,192,185014,1,0,0:0:0:0:
320,192,185058,1,0,0:0:0:0:
64,192,185103,1,0,0:0:0:0:
320,192,185192,1,0,0:0:0:0:
192,192,185192,1,0,0:0:0:0:
448,192,185282,1,0,0:0:0:0:
320,192,185326,1,0,0:0:0:0:
448,192,185371,1,0,0:0:0:0:
320,192,185460,1,0,0:0:0:0:
64,192,185460,1,0,0:0:0:0:
192,192,185550,1,0,0:0:0:0:
320,192,185595,1,0,0:0:0:0:
192,192,185639,1,0,0:0:0:0:
448,192,185729,1,0,0:0:0:0:
64,192,185729,1,0,0:0:0:0:
320,192,185818,1,0,0:0:0:0:
64,192,185863,1,0,0:0:0:0:
320,192,185907,1,0,0:0:0:0:
192,192,185997,1,0,0:0:0:0:
64,192,185997,1,0,0:0:0:0:
448,192,186086,1,0,0:0:0:0:
320,192,186131,1,0,0:0:0:0:
448,192,186176,1,0,0:0:0:0:
320,192,186265,1,0,0:0:0:0:
64,192,186265,1,0,0:0:0:0:
192,192,186354,1,0,0:0:0:0:
64,192,186399,1,0,0:0:0:0:
192,192,186444,1,0,0:0:0:0:
448,192,186533,1,0,0:0:0:0:
320,192,186533,1,0,0:0:0:0:
192,192,186622,1,0,0:0:0:0:
320,192,186667,1,0,0:0:0:0:
192,192,186712,1,0,0:0:0:0:
448,192,186801,1,0,0:0:0:0:
64,192,186801,1,0,0:0:0:0:
192,192,186891,1,0,0:0:0:0:
320,192,186935,1,0,0:0:0:0:
192,192,186980,1,0,0:0:0:0:
448,192,187069,1,0,0:0:0:0:
64,192,187069,1,0,0:0:0:0:
320,192,187159,1,0,0:0:0:0:
64,192,187203,1,0,0:0:0:0:
320,192,187248,1,0,0:0:0:0:
192,192,187337,1,0,0:0:0:0:
64,192,187337,1,0,0:0:0:0:
448,192,187427,1,0,0:0:0:0:
320,192,187472,1,0,0:0:0:0:
448,192,187516,1,0,0:0:0:0:
192,192,187606,1,0,0:0:0:0:
64,192,187606,1,0,0:0:0:0:
448,192,187695,1,0,0:0:0:0:
320,192,187740,1,0,0:0:0:0:
448,192,187784,1,0,0:0:0:0:
192,192,187874,1,0,0:0:0:0:
64,192,187874,1,0,0:0:0:0:
320,192,187963,1,0,0:0:0:0:
64,192,188008,1,0,0:0:0:0:
320,192,188053,1,0,0:0:0:0:
448,192,188142,1,0,0:0:0:0:
192,192,188142,1,0,0:0:0:0:
64,192,188231,1,0,0:0:0:0:
320,192,188276,1,0,0:0:0:0:
64,192,188321,1,0,0:0:0:0:
448,192,188410,1,0,0:0:0:0:
320,192,188410,1,0,0:0:0:0:
64,192,188499,1,0,0:0:0:0:
320,192,188544,1,0,0:0:0:0:
64,192,188589,1,0,0:0:0:0:
448,192,188678,1,0,0:0:0:0:
320,192,188678,1,0,0:0:0:0:
192,192,188812,1,0,0:0:0:0:
64,192,188812,1,0,0:0:0:0:
448,192,188947,1,0,0:0:0:0:
64,192,188947,1,0,0:0:0:0:
320,192,189074,1,0,0:0:0:0:
192,192,189074,1,0,0:0:0:0:
448,192,189203,1,0,0:0:0:0:
320,192,189203,1,0,0:0:0:0:
192,192,189336,1,0,0:0:0:0:
64,192,189336,1,0,0:0:0:0:
320,192,189470,1,0,0:0:0:0:
192,192,189470,1,0,0:0:0:0:
64,192,189470,1,0,0:0:0:0:
448,192,189604,1,0,0:0:0:0:
320,192,189604,1,0,0:0:0:0:
192,192,189737,1,0,0:0:0:0:
320,192,189871,1,0,0:0:0:0:
448,192,189871,1,0,0:0:0:0:
64,192,189871,1,0,0:0:0:0:
192,192,189871,1,0,0:0:0:0:
320,192,190005,1,0,0:0:0:0:
192,192,190139,1,0,0:0:0:0:
64,192,190139,1,0,0:0:0:0:
448,192,190272,1,0,0:0:0:0:
320,192,190272,1,0,0:0:0:0:
192,192,190272,1,0,0:0:0:0:
448,192,190406,1,0,0:0:0:0:
320,192,190406,1,0,0:0:0:0:
64,192,190540,1,0,0:0:0:0:
320,192,190674,1,0,0:0:0:0:
192,192,190674,1,0,0:0:0:0:
64,192,190741,1,0,0:0:0:0:
448,192,190807,1,0,0:0:0:0:
320,192,190874,1,0,0:0:0:0:
192,192,190941,1,0,0:0:0:0:
64,192,190941,1,0,0:0:0:0:
320,192,191008,1,0,0:0:0:0:
448,192,191075,1,0,0:0:0:0:
448,192,191209,1,0,0:0:0:0:
64,192,191209,1,0,0:0:0:0:
192,192,191276,1,0,0:0:0:0:
320,192,191343,1,0,0:0:0:0:
320,192,191462,1,0,0:0:0:0:
192,192,191462,1,0,0:0:0:0:
320,192,191582,1,0,0:0:0:0:
192,192,191582,1,0,0:0:0:0:
64,192,191582,1,0,0:0:0:0:
448,192,191626,1,0,0:0:0:0:
320,192,191671,1,0,0:0:0:0:
192,192,191715,1,0,0:0:0:0:
64,192,191760,1,0,0:0:0:0:
448,192,191804,1,0,0:0:0:0:
320,192,191849,1,0,0:0:0:0:
192,192,191849,1,0,0:0:0:0:
64,192,191894,1,0,0:0:0:0:
448,192,191938,1,0,0:0:0:0:
320,192,191983,1,0,0:0:0:0:
64,192,192027,1,0,0:0:0:0:
192,192,192072,1,0,0:0:0:0:
448,192,192116,1,0,0:0:0:0:
64,192,192161,1,0,0:0:0:0:
192,192,192206,1,0,0:0:0:0:
320,192,192250,1,0,0:0:0:0:
448,192,192295,1,0,0:0:0:0:
192,192,192339,1,0,0:0:0:0:
320,192,192384,1,0,0:0:0:0:
64,192,192384,1,0,0:0:0:0:
448,192,192429,1,0,0:0:0:0:
192,192,192473,1,0,0:0:0:0:
320,192,192518,1,0,0:0:0:0:
448,192,192562,1,0,0:0:0:0:
192,192,192607,1,0,0:0:0:0:
64,192,192651,1,0,0:0:0:0:
448,192,192696,1,0,0:0:0:0:
320,192,192741,1,0,0:0:0:0:
192,192,192785,1,0,0:0:0:0:
320,192,192830,1,0,0:0:0:0:
192,192,192874,1,0,0:0:0:0:
448,192,192920,1,0,0:0:0:0:
64,192,192920,1,0,0:0:0:0:
320,192,192967,1,0,0:0:0:0:
192,192,193015,1,0,0:0:0:0:
448,192,193062,1,0,0:0:0:0:
320,192,193110,1,0,0:0:0:0:
192,192,193157,1,0,0:0:0:0:
64,192,193205,1,0,0:0:0:0:
320,192,193249,1,0,0:0:0:0:
192,192,193294,1,0,0:0:0:0:
64,192,193338,1,0,0:0:0:0:
448,192,193383,1,0,0:0:0:0:
192,192,193427,1,0,0:0:0:0:
320,192,193472,1,0,0:0:0:0:
64,192,193472,1,0,0:0:0:0:
448,192,193516,1,0,0:0:0:0:
192,192,193560,1,0,0:0:0:0:
320,192,193604,1,0,0:0:0:0:
64,192,193648,1,0,0:0:0:0:
192,192,193692,1,0,0:0:0:0:
320,192,193737,1,0,0:0:0:0:
64,192,193781,1,0,0:0:0:0:
448,192,193826,1,0,0:0:0:0:
192,192,193870,1,0,0:0:0:0:
320,192,193915,1,0,0:0:0:0:
64,192,193959,1,0,0:0:0:0:
448,192,194005,1,0,0:0:0:0:
192,192,194005,1,0,0:0:0:0:
320,192,194051,1,0,0:0:0:0:
64,192,194098,1,0,0:0:0:0:
192,192,194145,1,0,0:0:0:0:
448,192,194192,1,0,0:0:0:0:
320,192,194239,1,0,0:0:0:0:
64,192,194285,1,0,0:0:0:0:
192,192,194329,1,0,0:0:0:0:
320,192,194374,1,0,0:0:0:0:
448,192,194418,1,0,0:0:0:0:
64,192,194463,1,0,0:0:0:0:
192,192,194507,1,0,0:0:0:0:
448,192,194552,1,0,0:0:0:0:
320,192,194552,1,0,0:0:0:0:
64,192,194597,1,0,0:0:0:0:
192,192,194641,1,0,0:0:0:0:
448,192,194686,1,0,0:0:0:0:
320,192,194730,1,0,0:0:0:0:
192,192,194775,1,0,0:0:0:0:
64,192,194819,1,0,0:0:0:0:
448,192,194864,1,0,0:0:0:0:
320,192,194909,1,0,0:0:0:0:
192,192,194953,1,0,0:0:0:0:
64,192,194998,1,0,0:0:0:0:
448,192,195042,1,0,0:0:0:0:
320,192,195087,1,0,0:0:0:0:
192,192,195087,1,0,0:0:0:0:
64,192,195132,1,0,0:0:0:0:
448,192,195176,1,0,0:0:0:0:
320,192,195221,1,0,0:0:0:0:
192,192,195265,1,0,0:0:0:0:
448,192,195310,1,0,0:0:0:0:
320,192,195354,1,0,0:0:0:0:
64,192,195354,1,0,0:0:0:0:
192,192,195399,1,0,0:0:0:0:
448,192,195444,1,0,0:0:0:0:
64,192,195488,1,0,0:0:0:0:
192,192,195533,1,0,0:0:0:0:
320,192,195577,1,0,0:0:0:0:
448,192,195622,1,0,0:0:0:0:
64,192,195622,1,0,0:0:0:0:
192,192,195667,1,0,0:0:0:0:
320,192,195711,1,0,0:0:0:0:
448,192,195756,1,0,0:0:0:0:
64,192,195800,1,0,0:0:0:0:
320,192,195845,1,0,0:0:0:0:
192,192,195889,1,0,0:0:0:0:
448,192,195934,1,0,0:0:0:0:
320,192,195979,1,0,0:0:0:0:
64,192,196023,1,0,0:0:0:0:
192,192,196068,1,0,0:0:0:0:
320,192,196112,1,0,0:0:0:0:
448,192,196157,1,0,0:0:0:0:
64,192,196157,1,0,0:0:0:0:
192,192,196201,1,0,0:0:0:0:
320,192,196246,1,0,0:0:0:0:
64,192,196291,1,0,0:0:0:0:
192,192,196335,1,0,0:0:0:0:
320,192,196380,1,0,0:0:0:0:
448,192,196424,1,0,0:0:0:0:
192,192,196469,1,0,0:0:0:0:
64,192,196514,1,0,0:0:0:0:
448,192,196558,1,0,0:0:0:0:
320,192,196603,1,0,0:0:0:0:
192,192,196647,1,0,0:0:0:0:
448,192,196692,1,0,0:0:0:0:
64,192,196692,1,0,0:0:0:0:
320,192,196736,1,0,0:0:0:0:
192,192,196781,1,0,0:0:0:0:
448,192,196826,1,0,0:0:0:0:
64,192,196870,1,0,0:0:0:0:
192,192,196915,1,0,0:0:0:0:
320,192,196959,1,0,0:0:0:0:
448,192,197004,1,0,0:0:0:0:
64,192,197049,1,0,0:0:0:0:
192,192,197093,1,0,0:0:0:0:
320,192,197138,1,0,0:0:0:0:
448,192,197182,1,0,0:0:0:0:
192,192,197227,1,0,0:0:0:0:
64,192,197227,1,0,0:0:0:0:
320,192,197271,1,0,0:0:0:0:
448,192,197316,1,0,0:0:0:0:
64,192,197361,1,0,0:0:0:0:
192,192,197405,1,0,0:0:0:0:
320,192,197450,1,0,0:0:0:0:
448,192,197495,1,0,0:0:0:0:
192,192,197539,1,0,0:0:0:0:
64,192,197584,1,0,0:0:0:0:
320,192,197628,1,0,0:0:0:0:
448,192,197673,1,0,0:0:0:0:
64,192,197717,1,0,0:0:0:0:
320,192,197762,1,0,0:0:0:0:
192,192,197762,1,0,0:0:0:0:
448,192,197806,1,0,0:0:0:0:
64,192,197851,1,0,0:0:0:0:
192,192,197895,1,0,0:0:0:0:
320,192,197940,1,0,0:0:0:0:
448,192,197984,1,0,0:0:0:0:
192,192,198029,1,0,0:0:0:0:
320,192,198074,1,0,0:0:0:0:
64,192,198118,1,0,0:0:0:0:
448,192,198163,1,0,0:0:0:0:
192,192,198207,1,0,0:0:0:0:
320,192,198252,1,0,0:0:0:0:
448,192,198296,1,0,0:0:0:0:
64,192,198296,1,0,0:0:0:0:
192,192,198341,1,0,0:0:0:0:
320,192,198386,1,0,0:0:0:0:
448,192,198430,1,0,0:0:0:0:
64,192,198475,1,0,0:0:0:0:
192,192,198519,1,0,0:0:0:0:
320,192,198564,1,0,0:0:0:0:
64,192,198609,1,0,0:0:0:0:
448,192,198653,1,0,0:0:0:0:
320,192,198698,1,0,0:0:0:0:
192,192,198742,1,0,0:0:0:0:
64,192,198787,1,0,0:0:0:0:
448,192,198831,1,0,0:0:0:0:
320,192,198831,1,0,0:0:0:0:
192,192,198876,1,0,0:0:0:0:
64,192,198921,1,0,0:0:0:0:
448,192,198965,1,0,0:0:0:0:
192,192,199010,1,0,0:0:0:0:
320,192,199054,1,0,0:0:0:0:
64,192,199099,1,0,0:0:0:0:
192,192,199144,1,0,0:0:0:0:
320,192,199188,1,0,0:0:0:0:
448,192,199233,1,0,0:0:0:0:
192,192,199277,1,0,0:0:0:0:
320,192,199322,1,0,0:0:0:0:
448,192,199366,1,0,0:0:0:0:
192,192,199366,1,0,0:0:0:0:
64,192,199366,1,0,0:0:0:0:
320,192,199500,1,0,0:0:0:0:
448,192,199634,1,0,0:0:0:0:
192,192,199768,1,0,0:0:0:0:
320,192,199835,1,0,0:0:0:0:
448,192,199902,1,0,0:0:0:0:
320,192,199967,1,0,0:0:0:0:
64,192,200032,1,0,0:0:0:0:
192,192,200097,1,0,0:0:0:0:
448,192,200163,1,0,0:0:0:0:
320,192,200163,1,0,0:0:0:0:
64,192,200207,1,0,0:0:0:0:
192,192,200252,1,0,0:0:0:0:
320,192,200297,1,0,0:0:0:0:
448,192,200342,1,0,0:0:0:0:
64,192,200387,1,0,0:0:0:0:
320,192,200432,1,0,0:0:0:0:
192,192,200432,1,0,0:0:0:0:
448,192,200477,1,0,0:0:0:0:
64,192,200522,1,0,0:0:0:0:
192,192,200567,1,0,0:0:0:0:
320,192,200612,1,0,0:0:0:0:
448,192,200656,1,0,0:0:0:0:
64,192,200701,1,0,0:0:0:0:
320,192,200746,1,0,0:0:0:0:
192,192,200791,1,0,0:0:0:0:
448,192,200836,1,0,0:0:0:0:
320,192,200881,1,0,0:0:0:0:
192,192,200926,1,0,0:0:0:0:
448,192,200971,1,0,0:0:0:0:
64,192,200971,1,0,0:0:0:0:
320,192,201016,1,0,0:0:0:0:
192,192,201061,1,0,0:0:0:0:
448,192,201106,1,0,0:0:0:0:
64,192,201150,1,0,0:0:0:0:
192,192,201195,1,0,0:0:0:0:
320,192,201240,1,0,0:0:0:0:
448,192,201285,1,0,0:0:0:0:
192,192,201330,1,0,0:0:0:0:
320,192,201375,1,0,0:0:0:0:
64,192,201420,1,0,0:0:0:0:
192,192,201465,1,0,0:0:0:0:
448,192,201510,1,0,0:0:0:0:
320,192,201510,1,0,0:0:0:0:
64,192,201555,1,0,0:0:0:0:
192,192,201600,1,0,0:0:0:0:
320,192,201644,1,0,0:0:0:0:
448,192,201689,1,0,0:0:0:0:
192,192,201734,1,0,0:0:0:0:
320,192,201779,1,0,0:0:0:0:
64,192,201824,1,0,0:0:0:0:
448,192,201869,1,0,0:0:0:0:
320,192,201914,1,0,0:0:0:0:
192,192,201959,1,0,0:0:0:0:
64,192,202004,1,0,0:0:0:0:
448,192,202049,1,0,0:0:0:0:
320,192,202049,1,0,0:0:0:0:
192,192,202093,1,0,0:0:0:0:
64,192,202138,1,0,0:0:0:0:
448,192,202183,1,0,0:0:0:0:
192,192,202228,1,0,0:0:0:0:
320,192,202273,1,0,0:0:0:0:
64,192,202318,1,0,0:0:0:0:
448,192,202363,1,0,0:0:0:0:
192,192,202408,1,0,0:0:0:0:
320,192,202453,1,0,0:0:0:0:
64,192,202498,1,0,0:0:0:0:
192,192,202543,1,0,0:0:0:0:
448,192,202587,1,0,0:0:0:0:
320,192,202587,1,0,0:0:0:0:
64,192,202632,1,0,0:0:0:0:
192,192,202677,1,0,0:0:0:0:
320,192,202722,1,0,0:0:0:0:
448,192,202767,1,0,0:0:0:0:
192,192,202812,1,0,0:0:0:0:
320,192,202857,1,0,0:0:0:0:
64,192,202902,1,0,0:0:0:0:
448,192,202947,1,0,0:0:0:0:
320,192,202992,1,0,0:0:0:0:
192,192,203037,1,0,0:0:0:0:
64,192,203081,1,0,0:0:0:0:
448,192,203126,1,0,0:0:0:0:
320,192,203126,1,0,0:0:0:0:
448,192,203261,1,0,0:0:0:0:
320,192,203261,1,0,0:0:0:0:
192,192,203261,1,0,0:0:0:0:
320,192,203396,1,0,0:0:0:0:
448,192,203531,1,0,0:0:0:0:
320,192,203666,1,0,0:0:0:0:
192,192,203666,1,0,0:0:0:0:
64,192,203666,1,0,0:0:0:0:
320,192,203800,1,0,0:0:0:0:
64,192,203935,1,0,0:0:0:0:
192,192,203979,1,0,0:0:0:0:
320,192,204024,1,0,0:0:0:0:
64,192,204069,1,0,0:0:0:0:
448,192,204114,1,0,0:0:0:0:
320,192,204159,1,0,0:0:0:0:
192,192,204204,1,0,0:0:0:0:
64,192,204204,1,0,0:0:0:0:
448,192,204249,1,0,0:0:0:0:
320,192,204294,1,0,0:0:0:0:
192,192,204339,1,0,0:0:0:0:
64,192,204384,1,0,0:0:0:0:
320,192,204428,1,0,0:0:0:0:
192,192,204473,1,0,0:0:0:0:
448,192,204518,1,0,0:0:0:0:
64,192,204563,1,0,0:0:0:0:
192,192,204608,1,0,0:0:0:0:
320,192,204653,1,0,0:0:0:0:
448,192,204698,1,0,0:0:0:0:
192,192,204743,1,0,0:0:0:0:
64,192,204743,1,0,0:0:0:0:
320,192,204788,1,0,0:0:0:0:
448,192,204833,1,0,0:0:0:0:
192,192,204878,1,0,0:0:0:0:
64,192,204922,1,0,0:0:0:0:
448,192,204967,1,0,0:0:0:0:
320,192,205012,1,0,0:0:0:0:
192,192,205057,1,0,0:0:0:0:
64,192,205102,1,0,0:0:0:0:
448,192,205147,1,0,0:0:0:0:
192,192,205192,1,0,0:0:0:0:
320,192,205237,1,0,0:0:0:0:
448,192,205282,1,0,0:0:0:0:
64,192,205282,1,0,0:0:0:0:
192,192,205327,1,0,0:0:0:0:
320,192,205372,1,0,0:0:0:0:
64,192,205416,1,0,0:0:0:0:
448,192,205461,1,0,0:0:0:0:
192,192,205506,1,0,0:0:0:0:
320,192,205551,1,0,0:0:0:0:
64,192,205596,1,0,0:0:0:0:
192,192,205641,1,0,0:0:0:0:
320,192,205686,1,0,0:0:0:0:
448,192,205731,1,0,0:0:0:0:
64,192,205776,1,0,0:0:0:0:
320,192,205821,1,0,0:0:0:0:
192,192,205821,1,0,0:0:0:0:
448,192,205865,1,0,0:0:0:0:
64,192,205910,1,0,0:0:0:0:
192,192,205955,1,0,0:0:0:0:
320,192,206000,1,0,0:0:0:0:
64,192,206045,1,0,0:0:0:0:
448,192,206090,1,0,0:0:0:0:
320,192,206135,1,0,0:0:0:0:
192,192,206180,1,0,0:0:0:0:
64,192,206225,1,0,0:0:0:0:
448,192,206270,1,0,0:0:0:0:
192,192,206315,1,0,0:0:0:0:
320,192,206359,1,0,0:0:0:0:
64,192,206359,1,0,0:0:0:0:
448,192,206404,1,0,0:0:0:0:
192,192,206449,1,0,0:0:0:0:
320,192,206494,1,0,0:0:0:0:
64,192,206539,1,0,0:0:0:0:
192,192,206584,1,0,0:0:0:0:
320,192,206629,1,0,0:0:0:0:
448,192,206674,1,0,0:0:0:0:
192,192,206719,1,0,0:0:0:0:
64,192,206764,1,0,0:0:0:0:
448,192,206809,1,0,0:0:0:0:
320,192,206853,1,0,0:0:0:0:
192,192,206898,1,0,0:0:0:0:
64,192,206898,1,0,0:0:0:0:
448,192,206943,1,0,0:0:0:0:
320,192,206988,1,0,0:0:0:0:
64,192,207033,1,0,0:0:0:0:
192,192,207078,1,0,0:0:0:0:
320,192,207123,1,0,0:0:0:0:
448,192,207168,1,0,0:0:0:0:
64,192,207213,1,0,0:0:0:0:
192,192,207258,1,0,0:0:0:0:
320,192,207303,1,0,0:0:0:0:
448,192,207347,1,0,0:0:0:0:
192,192,207392,1,0,0:0:0:0:
320,192,207438,1,0,0:0:0:0:
64,192,207438,1,0,0:0:0:0:
448,192,207572,1,0,0:0:0:0:
320,192,207572,1,0,0:0:0:0:
192,192,207572,1,0,0:0:0:0:
320,192,207842,1,0,0:0:0:0:
448,192,207977,1,0,0:0:0:0:
192,192,207977,128,0,208246:0:0:0:0:
64,192,207977,1,0,0:0:0:0:
320,192,208246,128,0,208516:0:0:0:0:
64,192,208314,1,0,0:0:0:0:
192,192,208381,1,0,0:0:0:0:
64,192,208448,1,0,0:0:0:0:
448,192,208516,128,0,208785:0:0:0:0:
192,192,208516,1,0,0:0:0:0:
192,192,208651,1,0,0:0:0:0:
192,192,208785,1,0,0:0:0:0:
64,192,208785,1,0,0:0:0:0:
320,192,208829,1,0,0:0:0:0:
448,192,208874,1,0,0:0:0:0:
64,192,208919,1,0,0:0:0:0:
192,192,208964,1,0,0:0:0:0:
320,192,209008,1,0,0:0:0:0:
448,192,209053,1,0,0:0:0:0:
64,192,209098,1,0,0:0:0:0:
320,192,209143,1,0,0:0:0:0:
448,192,209187,1,0,0:0:0:0:
64,192,209232,1,0,0:0:0:0:
192,192,209277,1,0,0:0:0:0:
320,192,209322,1,0,0:0:0:0:
448,192,209367,1,0,0:0:0:0:
64,192,209411,1,0,0:0:0:0:
320,192,209456,1,0,0:0:0:0:
192,192,209501,1,0,0:0:0:0:
448,192,209590,1,0,0:0:0:0:
64,192,209590,1,0,0:0:0:0:
320,192,209635,1,0,0:0:0:0:
192,192,209680,1,0,0:0:0:0:
448,192,209725,1,0,0:0:0:0:
64,192,209770,1,0,0:0:0:0:
320,192,209814,1,0,0:0:0:0:
448,192,209859,1,0,0:0:0:0:
192,192,209859,1,0,0:0:0:0:
64,192,209904,1,0,0:0:0:0:
192,192,209949,1,0,0:0:0:0:
320,192,209993,1,0,0:0:0:0:
448,192,210038,1,0,0:0:0:0:
192,192,210128,1,0,0:0:0:0:
64,192,210128,1,0,0:0:0:0:
448,192,210172,1,0,0:0:0:0:
320,192,210217,1,0,0:0:0:0:
192,192,210262,1,0,0:0:0:0:
64,192,210262,1,0,0:0:0:0:
448,192,210307,1,0,0:0:0:0:
320,192,210352,1,0,0:0:0:0:
64,192,210396,1,0,0:0:0:0:
448,192,210531,1,0,0:0:0:0:
64,192,210531,1,0,0:0:0:0:
320,192,210575,1,0,0:0:0:0:
192,192,210620,1,0,0:0:0:0:
448,192,210665,1,0,0:0:0:0:
448,192,210799,1,0,0:0:0:0:
64,192,210799,1,0,0:0:0:0:
320,192,210844,1,0,0:0:0:0:
192,192,210889,1,0,0:0:0:0:
320,192,210934,1,0,0:0:0:0:
64,192,210978,1,0,0:0:0:0:
192,192,211023,1,0,0:0:0:0:
320,192,211068,1,0,0:0:0:0:
64,192,211113,1,0,0:0:0:0:
192,192,211157,1,0,0:0:0:0:
448,192,211202,1,0,0:0:0:0:
64,192,211247,1,0,0:0:0:0:
192,192,211292,1,0,0:0:0:0:
320,192,211337,1,0,0:0:0:0:
64,192,211381,1,0,0:0:0:0:
192,192,211426,1,0,0:0:0:0:
320,192,211471,1,0,0:0:0:0:
448,192,211516,1,0,0:0:0:0:
64,192,211560,1,0,0:0:0:0:
192,192,211605,1,0,0:0:0:0:
448,192,211650,1,0,0:0:0:0:
64,192,211695,1,0,0:0:0:0:
320,192,211740,1,0,0:0:0:0:
192,192,211740,1,0,0:0:0:0:
320,192,211874,1,0,0:0:0:0:
192,192,211919,1,0,0:0:0:0:
64,192,211963,1,0,0:0:0:0:
448,192,212008,1,0,0:0:0:0:
64,192,212142,1,0,0:0:0:0:
192,192,212187,1,0,0:0:0:0:
448,192,212277,1,0,0:0:0:0:
64,192,212277,1,0,0:0:0:0:
320,192,212322,1,0,0:0:0:0:
192,192,212366,1,0,0:0:0:0:
64,192,212411,1,0,0:0:0:0:
448,192,212456,1,0,0:0:0:0:
320,192,212501,1,0,0:0:0:0:
192,192,212545,1,0,0:0:0:0:
64,192,212545,1,0,0:0:0:0:
448,192,212590,1,0,0:0:0:0:
320,192,212635,1,0,0:0:0:0:
64,192,212680,1,0,0:0:0:0:
192,192,212725,1,0,0:0:0:0:
448,192,212814,1,0,0:0:0:0:
64,192,212814,1,0,0:0:0:0:
192,192,212859,1,0,0:0:0:0:
320,192,212904,1,0,0:0:0:0:
448,192,212948,1,0,0:0:0:0:
64,192,212993,1,0,0:0:0:0:
192,192,213038,1,0,0:0:0:0:
448,192,213083,1,0,0:0:0:0:
320,192,213083,1,0,0:0:0:0:
64,192,213127,1,0,0:0:0:0:
192,192,213172,1,0,0:0:0:0:
448,192,213217,1,0,0:0:0:0:
64,192,213262,1,0,0:0:0:0:
320,192,213307,1,0,0:0:0:0:
192,192,213351,1,0,0:0:0:0:
64,192,213396,1,0,0:0:0:0:
448,192,213441,1,0,0:0:0:0:
320,192,213486,1,0,0:0:0:0:
192,192,213530,1,0,0:0:0:0:
64,192,213575,1,0,0:0:0:0:
320,192,213620,1,0,0:0:0:0:
448,192,213665,1,0,0:0:0:0:
64,192,213710,1,0,0:0:0:0:
192,192,213754,1,0,0:0:0:0:
448,192,213799,1,0,0:0:0:0:
192,192,213889,1,0,0:0:0:0:
64,192,213889,1,0,0:0:0:0:
320,192,213933,1,0,0:0:0:0:
448,192,213978,1,0,0:0:0:0:
64,192,214023,1,0,0:0:0:0:
320,192,214068,1,0,0:0:0:0:
192,192,214112,1,0,0:0:0:0:
448,192,214157,1,0,0:0:0:0:
64,192,214157,1,0,0:0:0:0:
320,192,214202,1,0,0:0:0:0:
192,192,214247,1,0,0:0:0:0:
64,192,214292,1,0,0:0:0:0:
448,192,214336,1,0,0:0:0:0:
192,192,214426,1,0,0:0:0:0:
64,192,214426,1,0,0:0:0:0:
320,192,214471,1,0,0:0:0:0:
448,192,214515,1,0,0:0:0:0:
192,192,214560,1,0,0:0:0:0:
64,192,214560,1,0,0:0:0:0:
320,192,214605,1,0,0:0:0:0:
448,192,214650,1,0,0:0:0:0:
64,192,214695,1,0,0:0:0:0:
448,192,214829,1,0,0:0:0:0:
320,192,214829,1,0,0:0:0:0:
64,192,214874,1,0,0:0:0:0:
192,192,214918,1,0,0:0:0:0:
320,192,214963,1,0,0:0:0:0:
448,192,215097,1,0,0:0:0:0:
320,192,215097,1,0,0:0:0:0:
64,192,215142,1,0,0:0:0:0:
192,192,215187,1,0,0:0:0:0:
448,192,215232,128,0,215254:0:0:0:0:
320,192,215232,128,0,215254:0:0:0:0:
64,192,215277,1,0,0:0:0:0:
192,192,215321,1,0,0:0:0:0:
320,192,215366,1,0,0:0:0:0:
448,192,215411,1,0,0:0:0:0:
192,192,215456,1,0,0:0:0:0:
64,192,215500,1,0,0:0:0:0:
448,192,215545,1,0,0:0:0:0:
320,192,215590,1,0,0:0:0:0:
192,192,215635,1,0,0:0:0:0:
448,192,215680,1,0,0:0:0:0:
320,192,215724,1,0,0:0:0:0:
64,192,215769,1,0,0:0:0:0:
448,192,215814,1,0,0:0:0:0:
192,192,215859,1,0,0:0:0:0:
64,192,215903,1,0,0:0:0:0:
448,192,215948,1,0,0:0:0:0:
320,192,215993,1,0,0:0:0:0:
192,192,216038,1,0,0:0:0:0:
448,192,216082,1,0,0:0:0:0:
320,192,216127,1,0,0:0:0:0:
64,192,216172,1,0,0:0:0:0:
448,192,216217,1,0,0:0:0:0:
320,192,216262,1,0,0:0:0:0:
192,192,216306,1,0,0:0:0:0:
64,192,216351,1,0,0:0:0:0:
448,192,216396,1,0,0:0:0:0:
320,192,216441,1,0,0:0:0:0:
192,192,216485,1,0,0:0:0:0:
448,192,216575,1,0,0:0:0:0:
64,192,216575,1,0,0:0:0:0:
448,192,216709,1,0,0:0:0:0:
64,192,216754,1,0,0:0:0:0:
192,192,216799,1,0,0:0:0:0:
448,192,216844,1,0,0:0:0:0:
320,192,216844,1,0,0:0:0:0:
64,192,216888,1,0,0:0:0:0:
192,192,216933,1,0,0:0:0:0:
320,192,216978,1,0,0:0:0:0:
448,192,217023,1,0,0:0:0:0:
192,192,217112,1,0,0:0:0:0:
64,192,217112,1,0,0:0:0:0:
448,192,217157,1,0,0:0:0:0:
320,192,217202,1,0,0:0:0:0:
192,192,217247,1,0,0:0:0:0:
64,192,217291,1,0,0:0:0:0:
192,192,217336,1,0,0:0:0:0:
448,192,217381,1,0,0:0:0:0:
320,192,217381,1,0,0:0:0:0:
64,192,217426,1,0,0:0:0:0:
192,192,217470,1,0,0:0:0:0:
320,192,217515,1,0,0:0:0:0:
64,192,217560,1,0,0:0:0:0:
448,192,217605,1,0,0:0:0:0:
320,192,217650,1,0,0:0:0:0:
192,192,217694,1,0,0:0:0:0:
64,192,217739,1,0,0:0:0:0:
320,192,217784,1,0,0:0:0:0:
192,192,217829,1,0,0:0:0:0:
448,192,217873,1,0,0:0:0:0:
320,192,217918,1,0,0:0:0:0:
192,192,217963,1,0,0:0:0:0:
448,192,218008,1,0,0:0:0:0:
64,192,218053,1,0,0:0:0:0:
192,192,218097,1,0,0:0:0:0:
448,192,218187,1,0,0:0:0:0:
320,192,218187,1,0,0:0:0:0:
64,192,218232,1,0,0:0:0:0:
192,192,218276,1,0,0:0:0:0:
448,192,218321,1,0,0:0:0:0:
320,192,218366,1,0,0:0:0:0:
192,192,218411,1,0,0:0:0:0:
448,192,218455,1,0,0:0:0:0:
64,192,218455,1,0,0:0:0:0:
320,192,218500,1,0,0:0:0:0:
192,192,218545,1,0,0:0:0:0:
448,192,218590,1,0,0:0:0:0:
64,192,218635,1,0,0:0:0:0:
448,192,218724,1,0,0:0:0:0:
320,192,218724,1,0,0:0:0:0:
64,192,218769,1,0,0:0:0:0:
192,192,218814,1,0,0:0:0:0:
448,192,218858,1,0,0:0:0:0:
320,192,218858,1,0,0:0:0:0:
64,192,218903,1,0,0:0:0:0:
192,192,218948,1,0,0:0:0:0:
320,192,218993,1,0,0:0:0:0:
448,192,219127,1,0,0:0:0:0:
320,192,219127,1,0,0:0:0:0:
64,192,219172,1,0,0:0:0:0:
192,192,219217,1,0,0:0:0:0:
448,192,219261,1,0,0:0:0:0:
448,192,219396,1,0,0:0:0:0:
64,192,219396,1,0,0:0:0:0:
320,192,219440,1,0,0:0:0:0:
192,192,219485,1,0,0:0:0:0:
448,192,219530,1,0,0:0:0:0:
320,192,219575,1,0,0:0:0:0:
192,192,219620,1,0,0:0:0:0:
64,192,219664,1,0,0:0:0:0:
320,192,219709,1,0,0:0:0:0:
192,192,219754,1,0,0:0:0:0:
448,192,219799,1,0,0:0:0:0:
320,192,219843,1,0,0:0:0:0:
192,192,219888,1,0,0:0:0:0:
64,192,219933,1,0,0:0:0:0:
320,192,219978,1,0,0:0:0:0:
192,192,220023,1,0,0:0:0:0:
64,192,220067,1,0,0:0:0:0:
320,192,220112,1,0,0:0:0:0:
448,192,220157,1,0,0:0:0:0:
192,192,220202,1,0,0:0:0:0:
320,192,220246,1,0,0:0:0:0:
448,192,220291,1,0,0:0:0:0:
64,192,220336,1,0,0:0:0:0:
320,192,220381,1,0,0:0:0:0:
448,192,220425,1,0,0:0:0:0:
192,192,220470,1,0,0:0:0:0:
320,192,220515,1,0,0:0:0:0:
448,192,220560,1,0,0:0:0:0:
64,192,220605,1,0,0:0:0:0:
320,192,220739,1,0,0:0:0:0:
192,192,220784,1,0,0:0:0:0:
448,192,220873,1,0,0:0:0:0:
320,192,220873,1,0,0:0:0:0:
64,192,221008,1,0,0:0:0:0:
320,192,221052,1,0,0:0:0:0:
192,192,221097,1,0,0:0:0:0:
448,192,221142,1,0,0:0:0:0:
64,192,221142,1,0,0:0:0:0:
320,192,221187,1,0,0:0:0:0:
192,192,221231,1,0,0:0:0:0:
448,192,221276,1,0,0:0:0:0:
320,192,221321,1,0,0:0:0:0:
192,192,221410,1,0,0:0:0:0:
64,192,221410,1,0,0:0:0:0:
320,192,221455,1,0,0:0:0:0:
448,192,221500,1,0,0:0:0:0:
192,192,221545,1,0,0:0:0:0:
320,192,221590,1,0,0:0:0:0:
448,192,221634,1,0,0:0:0:0:
64,192,221679,1,0,0:0:0:0:
320,192,221724,1,0,0:0:0:0:
448,192,221769,1,0,0:0:0:0:
64,192,221813,1,0,0:0:0:0:
320,192,221858,1,0,0:0:0:0:
192,192,221903,1,0,0:0:0:0:
448,192,221948,1,0,0:0:0:0:
320,192,221993,1,0,0:0:0:0:
192,192,222037,1,0,0:0:0:0:
64,192,222082,1,0,0:0:0:0:
192,192,222127,1,0,0:0:0:0:
448,192,222172,1,0,0:0:0:0:
320,192,222216,1,0,0:0:0:0:
192,192,222261,1,0,0:0:0:0:
64,192,222306,1,0,0:0:0:0:
320,192,222351,1,0,0:0:0:0:
192,192,222395,1,0,0:0:0:0:
448,192,222485,1,0,0:0:0:0:
64,192,222485,1,0,0:0:0:0:
192,192,222530,1,0,0:0:0:0:
320,192,222575,1,0,0:0:0:0:
448,192,222619,1,0,0:0:0:0:
64,192,222664,1,0,0:0:0:0:
192,192,222709,1,0,0:0:0:0:
448,192,222754,1,0,0:0:0:0:
320,192,222754,1,0,0:0:0:0:
64,192,222798,1,0,0:0:0:0:
192,192,222843,1,0,0:0:0:0:
448,192,222888,1,0,0:0:0:0:
320,192,222933,1,0,0:0:0:0:
192,192,223022,1,0,0:0:0:0:
64,192,223022,1,0,0:0:0:0:
448,192,223067,1,0,0:0:0:0:
192,192,223112,1,0,0:0:0:0:
320,192,223157,1,0,0:0:0:0:
64,192,223201,1,0,0:0:0:0:
192,192,223246,1,0,0:0:0:0:
448,192,223291,1,0,0:0:0:0:
320,192,223291,1,0,0:0:0:0:
64,192,223336,1,0,0:0:0:0:
192,192,223380,1,0,0:0:0:0:
448,192,223425,1,0,0:0:0:0:
64,192,223470,1,0,0:0:0:0:
448,192,223560,1,0,0:0:0:0:
320,192,223560,1,0,0:0:0:0:
192,192,223604,1,0,0:0:0:0:
64,192,223649,1,0,0:0:0:0:
448,192,223694,1,0,0:0:0:0:
192,192,223739,1,0,0:0:0:0:
320,192,223783,1,0,0:0:0:0:
448,192,223828,1,0,0:0:0:0:
64,192,223828,1,0,0:0:0:0:
192,192,223873,1,0,0:0:0:0:
320,192,223918,1,0,0:0:0:0:
448,192,223963,1,0,0:0:0:0:
64,192,224007,1,0,0:0:0:0:
320,192,224052,1,0,0:0:0:0:
192,192,224097,1,0,0:0:0:0:
64,192,224142,1,0,0:0:0:0:
320,192,224186,1,0,0:0:0:0:
448,192,224231,1,0,0:0:0:0:
64,192,224276,1,0,0:0:0:0:
320,192,224321,1,0,0:0:0:0:
192,192,224365,1,0,0:0:0:0:
448,192,224410,1,0,0:0:0:0:
64,192,224455,1,0,0:0:0:0:
192,192,224500,1,0,0:0:0:0:
320,192,224545,1,0,0:0:0:0:
192,192,224589,1,0,0:0:0:0:
448,192,224634,1,0,0:0:0:0:
320,192,224679,1,0,0:0:0:0:
192,192,224724,1,0,0:0:0:0:
64,192,224768,1,0,0:0:0:0:
320,192,224813,1,0,0:0:0:0:
448,192,224858,1,0,0:0:0:0:
64,192,224903,1,0,0:0:0:0:
192,192,224948,1,0,0:0:0:0:
320,192,224992,1,0,0:0:0:0:
448,192,225037,1,0,0:0:0:0:
192,192,225082,1,0,0:0:0:0:
320,192,225127,1,0,0:0:0:0:
448,192,225171,1,0,0:0:0:0:
64,192,225171,1,0,0:0:0:0:
192,192,225306,1,0,0:0:0:0:
64,192,225306,1,0,0:0:0:0:
320,192,225350,1,0,0:0:0:0:
448,192,225395,1,0,0:0:0:0:
192,192,225440,1,0,0:0:0:0:
64,192,225440,1,0,0:0:0:0:
320,192,225574,1,0,0:0:0:0:
192,192,225574,1,0,0:0:0:0:
448,192,225709,1,0,0:0:0:0:
320,192,225709,1,0,0:0:0:0:
64,192,225709,1,0,0:0:0:0:
192,192,225843,1,0,0:0:0:0:
64,192,225843,1,0,0:0:0:0:
320,192,225978,1,0,0:0:0:0:
448,192,225978,1,0,0:0:0:0:
64,192,225978,1,0,0:0:0:0:
192,192,225978,1,0,0:0:0:0:
320,192,226112,1,0,0:0:0:0:
64,192,226112,1,0,0:0:0:0:
448,192,226247,1,0,0:0:0:0:
192,192,226247,1,0,0:0:0:0:
64,192,226247,1,0,0:0:0:0:
320,192,226382,1,0,0:0:0:0:
64,192,226382,1,0,0:0:0:0:
320,192,226517,1,0,0:0:0:0:
192,192,226517,1,0,0:0:0:0:
448,192,226652,1,0,0:0:0:0:
192,192,226652,1,0,0:0:0:0:
448,192,226787,1,0,0:0:0:0:
320,192,226787,1,0,0:0:0:0:
64,192,226787,1,0,0:0:0:0:
320,192,226922,1,0,0:0:0:0:
448,192,226922,1,0,0:0:0:0:
64,192,226922,1,0,0:0:0:0:
192,192,226922,1,0,0:0:0:0:
192,192,227057,1,0,0:0:0:0:
320,192,227125,1,0,0:0:0:0:
192,192,227192,1,0,0:0:0:0:
64,192,227192,1,0,0:0:0:0:
448,192,227327,1,0,0:0:0:0:
320,192,227327,1,0,0:0:0:0:
192,192,227327,1,0,0:0:0:0:
192,192,227462,1,0,0:0:0:0:
64,192,227462,1,0,0:0:0:0:
320,192,227597,1,0,0:0:0:0:
192,192,227597,1,0,0:0:0:0:
448,192,227732,1,0,0:0:0:0:
320,192,227732,1,0,0:0:0:0:
320,192,227867,1,0,0:0:0:0:
448,192,227867,1,0,0:0:0:0:
64,192,227867,1,0,0:0:0:0:
192,192,227867,1,0,0:0:0:0:
192,192,228002,1,0,0:0:0:0:
320,192,228070,1,0,0:0:0:0:
448,192,228137,1,0,0:0:0:0:
192,192,228137,1,0,0:0:0:0:
320,192,228272,1,0,0:0:0:0:
64,192,228272,1,0,0:0:0:0:
448,192,228407,1,0,0:0:0:0:
192,192,228407,1,0,0:0:0:0:
64,192,228407,1,0,0:0:0:0:
320,192,228542,1,0,0:0:0:0:
64,192,228542,1,0,0:0:0:0:
320,192,228677,1,0,0:0:0:0:
192,192,228677,1,0,0:0:0:0:
448,192,228812,1,0,0:0:0:0:
192,192,228812,1,0,0:0:0:0:
448,192,228947,1,0,0:0:0:0:
320,192,228947,1,0,0:0:0:0:
64,192,228947,1,0,0:0:0:0:
320,192,229082,1,0,0:0:0:0:
448,192,229082,1,0,0:0:0:0:
64,192,229082,1,0,0:0:0:0:
192,192,229082,1,0,0:0:0:0:
64,192,229217,1,0,0:0:0:0:
448,192,229285,1,0,0:0:0:0:
320,192,229352,1,0,0:0:0:0:
192,192,229352,1,0,0:0:0:0:
448,192,229487,1,0,0:0:0:0:
192,192,229487,1,0,0:0:0:0:
64,192,229487,1,0,0:0:0:0:
320,192,229622,1,0,0:0:0:0:
192,192,229622,1,0,0:0:0:0:
320,192,229758,1,0,0:0:0:0:
64,192,229758,1,0,0:0:0:0:
448,192,229892,1,0,0:0:0:0:
192,192,229892,1,0,0:0:0:0:
448,192,230028,1,0,0:0:0:0:
320,192,230028,1,0,0:0:0:0:
64,192,230028,1,0,0:0:0:0:
192,192,230162,1,0,0:0:0:0:
448,192,230230,1,0,0:0:0:0:
320,192,230297,1,0,0:0:0:0:
192,192,230297,1,0,0:0:0:0:
64,192,230297,1,0,0:0:0:0:
320,192,230432,1,0,0:0:0:0:
64,192,230432,1,0,0:0:0:0:
448,192,230567,1,0,0:0:0:0:
320,192,230567,1,0,0:0:0:0:
192,192,230567,1,0,0:0:0:0:
448,192,230702,1,0,0:0:0:0:
64,192,230702,1,0,0:0:0:0:
320,192,230837,1,0,0:0:0:0:
192,192,230837,1,0,0:0:0:0:
448,192,230972,1,0,0:0:0:0:
192,192,230972,1,0,0:0:0:0:
448,192,231107,1,0,0:0:0:0:
320,192,231107,1,0,0:0:0:0:
64,192,231107,1,0,0:0:0:0:
320,192,231242,1,0,0:0:0:0:
448,192,231242,1,0,0:0:0:0:
64,192,231242,1,0,0:0:0:0:
192,192,231242,1,0,0:0:0:0:
192,192,231377,1,0,0:0:0:0:
448,192,231445,1,0,0:0:0:0:
320,192,231512,1,0,0:0:0:0:
64,192,231512,1,0,0:0:0:0:
448,192,231647,1,0,0:0:0:0:
192,192,231647,1,0,0:0:0:0:
64,192,231647,1,0,0:0:0:0:
320,192,231782,1,0,0:0:0:0:
64,192,231782,1,0,0:0:0:0:
320,192,231917,1,0,0:0:0:0:
192,192,231917,1,0,0:0:0:0:
448,192,232052,1,0,0:0:0:0:
192,192,232052,1,0,0:0:0:0:
448,192,232187,1,0,0:0:0:0:
320,192,232187,1,0,0:0:0:0:
64,192,232187,1,0,0:0:0:0:
192,192,232322,1,0,0:0:0:0:
448,192,232390,1,0,0:0:0:0:
320,192,232457,1,0,0:0:0:0:
64,192,232457,1,0,0:0:0:0:
320,192,232592,1,0,0:0:0:0:
192,192,232592,1,0,0:0:0:0:
64,192,232592,1,0,0:0:0:0:
448,192,232727,1,0,0:0:0:0:
320,192,232727,1,0,0:0:0:0:
192,192,232727,1,0,0:0:0:0:
320,192,232862,1,0,0:0:0:0:
64,192,232862,1,0,0:0:0:0:
320,192,232997,1,0,0:0:0:0:
192,192,232997,1,0,0:0:0:0:
448,192,233130,1,0,0:0:0:0:
192,192,233130,1,0,0:0:0:0:
448,192,233263,1,0,0:0:0:0:
320,192,233263,1,0,0:0:0:0:
192,192,233263,1,0,0:0:0:0:
448,192,233397,1,0,0:0:0:0:
64,192,233397,1,0,0:0:0:0:
64,192,233530,1,0,0:0:0:0:
320,192,233663,1,0,0:0:0:0:
192,192,233663,1,0,0:0:0:0:
448,192,233797,1,0,0:0:0:0:
192,192,233797,1,0,0:0:0:0:
64,192,233797,1,0,0:0:0:0:
320,192,233863,1,0,0:0:0:0:
192,192,233930,1,0,0:0:0:0:
64,192,233930,1,0,0:0:0:0:
448,192,233997,1,0,0:0:0:0:
320,192,234063,1,0,0:0:0:0:
192,192,234063,1,0,0:0:0:0:
64,192,234130,1,0,0:0:0:0:
448,192,234197,1,0,0:0:0:0:
320,192,234197,1,0,0:0:0:0:
64,192,234263,1,0,0:0:0:0:
192,192,234330,1,0,0:0:0:0:
448,192,234397,1,0,0:0:0:0:
192,192,234463,1,0,0:0:0:0:
320,192,234530,1,0,0:0:0:0:
448,192,234597,1,0,0:0:0:0:
192,192,234597,1,0,0:0:0:0:
64,192,234597,1,0,0:0:0:0:
448,192,234730,1,0,0:0:0:0:
320,192,234730,1,0,0:0:0:0:
64,192,234730,1,0,0:0:0:0:
320,192,234864,1,0,0:0:0:0:
192,192,234864,1,0,0:0:0:0:
64,192,234864,1,0,0:0:0:0:
448,192,234997,1,0,0:0:0:0:
64,192,234997,1,0,0:0:0:0:
448,192,235130,1,0,0:0:0:0:
320,192,235130,1,0,0:0:0:0:
192,192,235130,1,0,0:0:0:0:
448,192,235264,1,0,0:0:0:0:
320,192,235264,1,0,0:0:0:0:
64,192,235264,1,0,0:0:0:0:
448,192,235397,1,0,0:0:0:0:
192,192,235397,1,0,0:0:0:0:
64,192,235397,1,0,0:0:0:0:
320,192,235530,1,0,0:0:0:0:
448,192,235530,1,0,0:0:0:0:
64,192,235530,1,0,0:0:0:0:
192,192,235530,1,0,0:0:0:0:
448,192,235797,1,0,0:0:0:0:
192,192,235797,1,0,0:0:0:0:
448,192,235930,1,0,0:0:0:0:
320,192,235930,1,0,0:0:0:0:
192,192,235930,1,0,0:0:0:0:
64,192,235997,1,0,0:0:0:0:
448,192,236064,1,0,0:0:0:0:
192,192,236064,1,0,0:0:0:0:
64,192,236130,1,0,0:0:0:0:
448,192,236197,1,0,0:0:0:0:
320,192,236197,1,0,0:0:0:0:
192,192,236264,1,0,0:0:0:0:
448,192,236330,1,0,0:0:0:0:
64,192,236330,1,0,0:0:0:0:
320,192,236397,1,0,0:0:0:0:
320,192,236464,1,0,0:0:0:0:
448,192,236464,1,0,0:0:0:0:
64,192,236464,1,0,0:0:0:0:
192,192,236464,1,0,0:0:0:0:
448,192,236597,1,0,0:0:0:0:
320,192,236597,1,0,0:0:0:0:
448,192,236664,1,0,0:0:0:0:
320,192,236664,1,0,0:0:0:0:
192,192,236731,1,0,0:0:0:0:
64,192,236731,1,0,0:0:0:0:
448,192,236864,1,0,0:0:0:0:
320,192,236864,1,0,0:0:0:0:
320,192,236997,1,0,0:0:0:0:
192,192,236997,1,0,0:0:0:0:
64,192,236997,1,0,0:0:0:0:
448,192,237131,1,0,0:0:0:0:
64,192,237131,1,0,0:0:0:0:
320,192,237264,1,0,0:0:0:0:
192,192,237264,1,0,0:0:0:0:
64,192,237264,1,0,0:0:0:0:
448,192,237397,1,0,0:0:0:0:
320,192,237397,1,0,0:0:0:0:
192,192,237397,1,0,0:0:0:0:
448,192,237531,1,0,0:0:0:0:
192,192,237531,1,0,0:0:0:0:
64,192,237531,1,0,0:0:0:0:
320,192,237597,1,0,0:0:0:0:
448,192,237664,1,0,0:0:0:0:
64,192,237664,1,0,0:0:0:0:
320,192,237731,1,0,0:0:0:0:
192,192,237797,1,0,0:0:0:0:
192,192,237931,1,0,0:0:0:0:
64,192,237931,1,0,0:0:0:0:
320,192,238064,1,0,0:0:0:0:
192,192,238064,1,0,0:0:0:0:
64,192,238064,1,0,0:0:0:0:
448,192,238131,1,0,0:0:0:0:
192,192,238198,1,0,0:0:0:0:
64,192,238198,1,0,0:0:0:0:
448,192,238264,1,0,0:0:0:0:
320,192,238331,1,0,0:0:0:0:
64,192,238331,1,0,0:0:0:0:
192,192,238398,1,0,0:0:0:0:
448,192,238464,1,0,0:0:0:0:
320,192,238464,1,0,0:0:0:0:
64,192,238464,1,0,0:0:0:0:
192,192,238531,1,0,0:0:0:0:
448,192,238598,1,0,0:0:0:0:
320,192,238598,1,0,0:0:0:0:
64,192,238598,1,0,0:0:0:0:
192,192,238664,1,0,0:0:0:0:
320,192,238731,1,0,0:0:0:0:
320,192,238798,1,0,0:0:0:0:
448,192,238864,1,0,0:0:0:0:
64,192,238864,1,0,0:0:0:0:
64,192,238931,1,0,0:0:0:0:
448,192,238998,1,0,0:0:0:0:
320,192,238998,1,0,0:0:0:0:
64,192,239064,1,0,0:0:0:0:
448,192,239131,1,0,0:0:0:0:
320,192,239131,1,0,0:0:0:0:
192,192,239131,1,0,0:0:0:0:
192,192,239198,1,0,0:0:0:0:
448,192,239264,1,0,0:0:0:0:
64,192,239264,1,0,0:0:0:0:
320,192,239331,1,0,0:0:0:0:
448,192,239398,1,0,0:0:0:0:
192,192,239398,1,0,0:0:0:0:
64,192,239464,1,0,0:0:0:0:
448,192,239531,128,0,239564:0:0:0:0:
320,192,239531,1,0,0:0:0:0:
192,192,239531,1,0,0:0:0:0:
64,192,239598,1,0,0:0:0:0:
320,192,239664,1,0,0:0:0:0:
192,192,239731,1,0,0:0:0:0:
448,192,239798,128,0,239831:0:0:0:0:
320,192,239798,1,0,0:0:0:0:
64,192,239798,1,0,0:0:0:0:
192,192,239865,1,0,0:0:0:0:
448,192,239931,1,0,0:0:0:0:
320,192,239998,1,0,0:0:0:0:
192,192,240065,1,0,0:0:0:0:
64,192,240065,1,0,0:0:0:0:
448,192,240131,1,0,0:0:0:0:
320,192,240198,1,0,0:0:0:0:
192,192,240198,1,0,0:0:0:0:
64,192,240198,1,0,0:0:0:0:
192,192,240265,1,0,0:0:0:0:
320,192,240331,1,0,0:0:0:0:
64,192,240331,1,0,0:0:0:0:
320,192,240398,1,0,0:0:0:0:
448,192,240465,1,0,0:0:0:0:
64,192,240465,1,0,0:0:0:0:
192,192,240531,1,0,0:0:0:0:
448,192,240598,1,0,0:0:0:0:
320,192,240598,1,0,0:0:0:0:
192,192,240665,1,0,0:0:0:0:
448,192,240731,1,0,0:0:0:0:
320,192,240731,1,0,0:0:0:0:
64,192,240731,1,0,0:0:0:0:
192,192,240798,1,0,0:0:0:0:
320,192,240865,1,0,0:0:0:0:
448,192,240931,1,0,0:0:0:0:
320,192,240998,1,0,0:0:0:0:
192,192,240998,1,0,0:0:0:0:
64,192,240998,1,0,0:0:0:0:
448,192,241065,1,0,0:0:0:0:
192,192,241131,1,0,0:0:0:0:
64,192,241131,1,0,0:0:0:0:
320,192,241198,1,0,0:0:0:0:
448,192,241265,1,0,0:0:0:0:
192,192,241265,1,0,0:0:0:0:
64,192,241265,1,0,0:0:0:0:
320,192,241331,1,0,0:0:0:0:
448,192,241398,1,0,0:0:0:0:
64,192,241398,1,0,0:0:0:0:
192,192,241465,1,0,0:0:0:0:
448,192,241532,1,0,0:0:0:0:
64,192,241532,1,0,0:0:0:0:
320,192,241598,1,0,0:0:0:0:
448,192,241665,1,0,0:0:0:0:
192,192,241665,128,0,241698:0:0:0:0:
64,192,241732,1,0,0:0:0:0:
192,192,241798,1,0,0:0:0:0:
320,192,241865,1,0,0:0:0:0:
320,192,241932,1,0,0:0:0:0:
448,192,241932,1,0,0:0:0:0:
64,192,241932,1,0,0:0:0:0:
192,192,241932,1,0,0:0:0:0:
192,192,241998,1,0,0:0:0:0:
320,192,242065,1,0,0:0:0:0:
448,192,242132,1,0,0:0:0:0:
192,192,242198,1,0,0:0:0:0:
64,192,242198,1,0,0:0:0:0:
320,192,242265,1,0,0:0:0:0:
448,192,242332,1,0,0:0:0:0:
192,192,242332,1,0,0:0:0:0:
64,192,242332,1,0,0:0:0:0:
320,192,242398,1,0,0:0:0:0:
448,192,242465,1,0,0:0:0:0:
64,192,242465,1,0,0:0:0:0:
192,192,242532,1,0,0:0:0:0:
448,192,242598,1,0,0:0:0:0:
320,192,242598,1,0,0:0:0:0:
192,192,242665,1,0,0:0:0:0:
64,192,242665,1,0,0:0:0:0:
448,192,242732,1,0,0:0:0:0:
320,192,242732,1,0,0:0:0:0:
192,192,242798,1,0,0:0:0:0:
64,192,242798,1,0,0:0:0:0:
448,192,242866,1,0,0:0:0:0:
320,192,242866,1,0,0:0:0:0:
192,192,242926,1,0,0:0:0:0:
64,192,242926,1,0,0:0:0:0:
448,192,242987,1,0,0:0:0:0:
320,192,242987,1,0,0:0:0:0:
192,192,243047,1,0,0:0:0:0:
64,192,243047,1,0,0:0:0:0:
448,192,243108,1,0,0:0:0:0:
320,192,243108,1,0,0:0:0:0:
192,192,243108,1,0,0:0:0:0:
320,192,243240,1,0,0:0:0:0:
64,192,243240,1,0,0:0:0:0:
448,192,243372,1,0,0:0:0:0:
192,192,243372,1,0,0:0:0:0:
64,192,243372,1,0,0:0:0:0:
320,192,243504,1,0,0:0:0:0:
192,192,243504,1,0,0:0:0:0:
64,192,243504,1,0,0:0:0:0:
448,192,243636,1,0,0:0:0:0:
320,192,243636,1,0,0:0:0:0:
192,192,243636,1,0,0:0:0:0:
448,192,243768,1,0,0:0:0:0:
320,192,243768,1,0,0:0:0:0:
64,192,243768,1,0,0:0:0:0:
320,192,243900,1,0,0:0:0:0:
192,192,243900,1,0,0:0:0:0:
320,192,244032,1,0,0:0:0:0:
448,192,244032,1,0,0:0:0:0:
64,192,244032,1,0,0:0:0:0:
192,192,244032,1,0,0:0:0:0:
448,192,244164,1,0,0:0:0:0:
320,192,244164,1,0,0:0:0:0:
320,192,244296,128,0,244313:0:0:0:0:
192,192,244296,128,0,244313:0:0:0:0:
64,192,244296,128,0,244313:0:0:0:0:
320,192,244428,128,0,244445:0:0:0:0:
448,192,244428,128,0,244445:0:0:0:0:
64,192,244428,128,0,244445:0:0:0:0:
192,192,244428,128,0,244445:0:0:0:0:
448,192,244560,128,0,244577:0:0:0:0:
192,192,244560,128,0,244577:0:0:0:0:
64,192,244560,128,0,244577:0:0:0:0:
448,192,244693,1,0,0:0:0:0:
320,192,244693,1,0,0:0:0:0:
192,192,244759,1,0,0:0:0:0:
64,192,244759,1,0,0:0:0:0:
448,192,244825,128,0,244841:0:0:0:0:
320,192,244825,128,0,244841:0:0:0:0:
192,192,244891,1,0,0:0:0:0:
64,192,244891,1,0,0:0:0:0:
448,192,244957,128,0,244973:0:0:0:0:
320,192,244957,128,0,244973:0:0:0:0:
192,192,245023,1,0,0:0:0:0:
64,192,245023,1,0,0:0:0:0:
448,192,245089,128,0,245105:0:0:0:0:
320,192,245089,128,0,245105:0:0:0:0:
192,192,245155,1,0,0:0:0:0:
64,192,245155,1,0,0:0:0:0:
320,192,245221,1,0,0:0:0:0:
448,192,245221,1,0,0:0:0:0:
64,192,245221,1,0,0:0:0:0:
192,192,245221,1,0,0:0:0:0:
320,192,245353,128,0,245369:0:0:0:0:
192,192,245353,128,0,245369:0:0:0:0:
64,192,245353,128,0,245369:0:0:0:0:
448,192,245485,128,0,245502:0:0:0:0:
320,192,245485,128,0,245502:0:0:0:0:
192,192,245485,128,0,245502:0:0:0:0:
448,192,245617,128,0,245634:0:0:0:0:
192,192,245617,128,0,245634:0:0:0:0:
64,192,245617,128,0,245634:0:0:0:0:
448,192,245749,1,0,0:0:0:0:
64,192,245749,1,0,0:0:0:0:
320,192,245881,128,0,245898:0:0:0:0:
192,192,245881,128,0,245898:0:0:0:0:
64,192,245881,128,0,245898:0:0:0:0:
448,192,246013,128,0,246030:0:0:0:0:
320,192,246013,128,0,246030:0:0:0:0:
192,192,246013,128,0,246030:0:0:0:0:
320,192,246145,128,0,246162:0:0:0:0:
448,192,246145,128,0,246162:0:0:0:0:
64,192,246145,128,0,246162:0:0:0:0:
192,192,246145,128,0,246162:0:0:0:0:
320,192,246410,128,0,246426:0:0:0:0:
192,192,246410,128,0,246426:0:0:0:0:
64,192,246410,128,0,246426:0:0:0:0:
448,192,246542,128,0,246558:0:0:0:0:
320,192,246542,128,0,246558:0:0:0:0:
192,192,246542,128,0,246558:0:0:0:0:
448,192,246674,128,0,246690:0:0:0:0:
192,192,246674,128,0,246690:0:0:0:0:
64,192,246674,128,0,246690:0:0:0:0:
320,192,246740,1,0,0:0:0:0:
448,192,246806,1,0,0:0:0:0:
64,192,246806,1,0,0:0:0:0:
64,192,246872,1,0,0:0:0:0:
320,192,246938,1,0,0:0:0:0:
192,192,246938,1,0,0:0:0:0:
320,192,247004,1,0,0:0:0:0:
448,192,247070,1,0,0:0:0:0:
192,192,247070,1,0,0:0:0:0:
448,192,247136,1,0,0:0:0:0:
192,192,247202,1,0,0:0:0:0:
64,192,247202,1,0,0:0:0:0:
192,192,247268,1,0,0:0:0:0:
448,192,247334,1,0,0:0:0:0:
320,192,247334,1,0,0:0:0:0:
64,192,247334,1,0,0:0:0:0:
320,192,247466,128,0,247499:0:0:0:0:
192,192,247466,1,0,0:0:0:0:
320,192,247598,1,0,0:0:0:0:
192,192,247598,1,0,0:0:0:0:
64,192,247598,1,0,0:0:0:0:
192,192,247664,1,0,0:0:0:0:
448,192,247731,128,0,247764:0:0:0:0:
64,192,247731,1,0,0:0:0:0:
320,192,247863,1,0,0:0:0:0:
192,192,247863,1,0,0:0:0:0:
448,192,247995,1,0,0:0:0:0:
192,192,247995,128,0,248028:0:0:0:0:
448,192,248127,1,0,0:0:0:0:
320,192,248127,1,0,0:0:0:0:
64,192,248127,1,0,0:0:0:0:
320,192,248193,1,0,0:0:0:0:
448,192,248259,1,0,0:0:0:0:
64,192,248259,1,0,0:0:0:0:
192,192,248303,1,0,0:0:0:0:
320,192,248347,1,0,0:0:0:0:
448,192,248391,1,0,0:0:0:0:
192,192,248523,1,0,0:0:0:0:
64,192,248523,1,0,0:0:0:0:
448,192,248655,1,0,0:0:0:0:
320,192,248655,1,0,0:0:0:0:
64,192,248688,1,0,0:0:0:0:
320,192,248787,1,0,0:0:0:0:
192,192,248787,1,0,0:0:0:0:
448,192,248919,1,0,0:0:0:0:
320,192,248919,1,0,0:0:0:0:
192,192,248952,1,0,0:0:0:0:
448,192,249051,1,0,0:0:0:0:
64,192,249051,1,0,0:0:0:0:
448,192,249183,1,0,0:0:0:0:
320,192,249183,1,0,0:0:0:0:
64,192,249183,1,0,0:0:0:0:
192,192,249316,1,0,0:0:0:0:
64,192,249316,1,0,0:0:0:0:
448,192,249448,1,0,0:0:0:0:
192,192,249448,1,0,0:0:0:0:
64,192,249536,1,0,0:0:0:0:
320,192,249580,1,0,0:0:0:0:
192,192,249580,1,0,0:0:0:0:
448,192,249624,1,0,0:0:0:0:
320,192,249712,1,0,0:0:0:0:
192,192,249712,1,0,0:0:0:0:
64,192,249712,1,0,0:0:0:0:
448,192,249800,1,0,0:0:0:0:
192,192,249844,1,0,0:0:0:0:
64,192,249844,1,0,0:0:0:0:
320,192,249888,1,0,0:0:0:0:
192,192,249976,1,0,0:0:0:0:
64,192,249976,1,0,0:0:0:0:
320,192,250064,1,0,0:0:0:0:
192,192,250108,1,0,0:0:0:0:
64,192,250108,1,0,0:0:0:0:
448,192,250152,1,0,0:0:0:0:
192,192,250240,1,0,0:0:0:0:
64,192,250240,1,0,0:0:0:0:
448,192,250372,1,0,0:0:0:0:
192,192,250372,1,0,0:0:0:0:
64,192,250372,1,0,0:0:0:0:
320,192,250438,1,0,0:0:0:0:
192,192,250504,1,0,0:0:0:0:
64,192,250504,1,0,0:0:0:0:
320,192,250570,1,0,0:0:0:0:
448,192,250636,1,0,0:0:0:0:
64,192,250636,1,0,0:0:0:0:
192,192,250702,1,0,0:0:0:0:
448,192,250769,1,0,0:0:0:0:
320,192,250769,1,0,0:0:0:0:
64,192,250769,1,0,0:0:0:0:
192,192,250835,1,0,0:0:0:0:
448,192,250901,1,0,0:0:0:0:
64,192,250901,1,0,0:0:0:0:
320,192,250967,1,0,0:0:0:0:
448,192,251033,1,0,0:0:0:0:
192,192,251033,1,0,0:0:0:0:
320,192,251099,1,0,0:0:0:0:
192,192,251165,1,0,0:0:0:0:
64,192,251165,1,0,0:0:0:0:
448,192,251231,1,0,0:0:0:0:
320,192,251297,1,0,0:0:0:0:
192,192,251297,1,0,0:0:0:0:
64,192,251297,1,0,0:0:0:0:
448,192,251363,1,0,0:0:0:0:
320,192,251429,1,0,0:0:0:0:
192,192,251495,1,0,0:0:0:0:
320,192,251561,1,0,0:0:0:0:
448,192,251561,1,0,0:0:0:0:
64,192,251561,1,0,0:0:0:0:
192,192,251561,1,0,0:0:0:0:
448,192,251693,1,0,0:0:0:0:
320,192,251693,1,0,0:0:0:0:
320,192,251825,1,0,0:0:0:0:
192,192,251825,1,0,0:0:0:0:
64,192,251825,1,0,0:0:0:0:
448,192,251957,1,0,0:0:0:0:
64,192,251957,1,0,0:0:0:0:
320,192,252023,1,0,0:0:0:0:
192,192,252023,1,0,0:0:0:0:
448,192,252089,1,0,0:0:0:0:
64,192,252089,1,0,0:0:0:0:
320,192,252221,1,0,0:0:0:0:
64,192,252221,1,0,0:0:0:0:
448,192,252287,1,0,0:0:0:0:
192,192,252287,1,0,0:0:0:0:
320,192,252354,1,0,0:0:0:0:
64,192,252354,1,0,0:0:0:0:
320,192,252486,1,0,0:0:0:0:
448,192,252486,1,0,0:0:0:0:
64,192,252486,1,0,0:0:0:0:
192,192,252486,1,0,0:0:0:0:
192,192,252552,1,0,0:0:0:0:
448,192,252618,1,0,0:0:0:0:
448,192,252684,1,0,0:0:0:0:
320,192,252750,1,0,0:0:0:0:
192,192,252750,1,0,0:0:0:0:
192,192,252816,1,0,0:0:0:0:
448,192,252882,1,0,0:0:0:0:
320,192,252882,1,0,0:0:0:0:
64,192,252882,1,0,0:0:0:0:
320,192,252948,1,0,0:0:0:0:
192,192,253014,1,0,0:0:0:0:
64,192,253014,1,0,0:0:0:0:
192,192,253080,1,0,0:0:0:0:
448,192,253146,1,0,0:0:0:0:
320,192,253146,1,0,0:0:0:0:
64,192,253146,1,0,0:0:0:0:
320,192,253212,1,0,0:0:0:0:
448,192,253278,1,0,0:0:0:0:
192,192,253278,1,0,0:0:0:0:
320,192,253344,1,0,0:0:0:0:
64,192,253344,1,0,0:0:0:0:
448,192,253410,1,0,0:0:0:0:
192,192,253410,1,0,0:0:0:0:
64,192,253542,1,0,0:0:0:0:
320,192,253564,1,0,0:0:0:0:
320,192,253674,1,0,0:0:0:0:
448,192,253674,1,0,0:0:0:0:
64,192,253674,1,0,0:0:0:0:
192,192,253674,1,0,0:0:0:0:
192,192,253740,1,0,0:0:0:0:
448,192,253806,1,0,0:0:0:0:
64,192,253806,1,0,0:0:0:0:
320,192,253873,1,0,0:0:0:0:
448,192,253939,1,0,0:0:0:0:
192,192,253939,1,0,0:0:0:0:
64,192,253939,1,0,0:0:0:0:
320,192,254005,1,0,0:0:0:0:
192,192,254071,1,0,0:0:0:0:
64,192,254071,1,0,0:0:0:0:
320,192,254137,1,0,0:0:0:0:
448,192,254203,1,0,0:0:0:0:
64,192,254203,1,0,0:0:0:0:
192,192,254269,1,0,0:0:0:0:
448,192,254335,1,0,0:0:0:0:
320,192,254335,1,0,0:0:0:0:
192,192,254401,1,0,0:0:0:0:
448,192,254468,1,0,0:0:0:0:
320,192,254468,1,0,0:0:0:0:
64,192,254468,1,0,0:0:0:0:
192,192,254534,1,0,0:0:0:0:
320,192,254600,1,0,0:0:0:0:
448,192,254600,1,0,0:0:0:0:
64,192,254600,1,0,0:0:0:0:
192,192,254600,1,0,0:0:0:0:
448,192,254688,1,0,0:0:0:0:
320,192,254775,1,0,0:0:0:0:
448,192,254863,1,0,0:0:0:0:
64,192,254863,1,0,0:0:0:0:
192,192,254929,1,0,0:0:0:0:
448,192,254995,1,0,0:0:0:0:
320,192,254995,1,0,0:0:0:0:
64,192,254995,1,0,0:0:0:0:
192,192,255061,1,0,0:0:0:0:
448,192,255127,1,0,0:0:0:0:
320,192,255127,1,0,0:0:0:0:
64,192,255127,1,0,0:0:0:0:
192,192,255193,1,0,0:0:0:0:
448,192,255260,1,0,0:0:0:0:
64,192,255260,1,0,0:0:0:0:
320,192,255326,1,0,0:0:0:0:
192,192,255326,1,0,0:0:0:0:
448,192,255392,1,0,0:0:0:0:
64,192,255392,1,0,0:0:0:0:
320,192,255458,1,0,0:0:0:0:
192,192,255458,1,0,0:0:0:0:
448,192,255524,1,0,0:0:0:0:
64,192,255524,1,0,0:0:0:0:
320,192,255590,1,0,0:0:0:0:
192,192,255590,1,0,0:0:0:0:
448,192,255656,1,0,0:0:0:0:
64,192,255656,1,0,0:0:0:0:
320,192,255722,1,0,0:0:0:0:
192,192,255722,1,0,0:0:0:0:
448,192,255788,1,0,0:0:0:0:
64,192,255788,1,0,0:0:0:0:
192,192,255854,1,0,0:0:0:0:
448,192,255920,1,0,0:0:0:0:
320,192,255920,1,0,0:0:0:0:
64,192,255986,1,0,0:0:0:0:
448,192,256052,1,0,0:0:0:0:
320,192,256052,1,0,0:0:0:0:
192,192,256052,1,0,0:0:0:0:
64,192,256118,1,0,0:0:0:0:
448,192,256184,1,0,0:0:0:0:
192,192,256184,1,0,0:0:0:0:
64,192,256250,1,0,0:0:0:0:
320,192,256316,1,0,0:0:0:0:
192,192,256316,1,0,0:0:0:0:
64,192,256382,1,0,0:0:0:0:
448,192,256448,1,0,0:0:0:0:
320,192,256448,1,0,0:0:0:0:
192,192,256514,1,0,0:0:0:0:
448,192,256580,1,0,0:0:0:0:
320,192,256580,1,0,0:0:0:0:
64,192,256580,1,0,0:0:0:0:
192,192,256646,1,0,0:0:0:0:
448,192,256712,1,0,0:0:0:0:
320,192,256712,1,0,0:0:0:0:
64,192,256712,1,0,0:0:0:0:
320,192,256778,1,0,0:0:0:0:
64,192,256845,1,0,0:0:0:0:
192,192,256910,1,0,0:0:0:0:
448,192,256975,1,0,0:0:0:0:
320,192,256975,1,0,0:0:0:0:
64,192,257040,1,0,0:0:0:0:
448,192,257105,1,0,0:0:0:0:
320,192,257105,1,0,0:0:0:0:
192,192,257105,1,0,0:0:0:0:
64,192,257170,1,0,0:0:0:0:
448,192,257235,1,0,0:0:0:0:
192,192,257235,1,0,0:0:0:0:
320,192,257300,1,0,0:0:0:0:
192,192,257365,1,0,0:0:0:0:
64,192,257365,1,0,0:0:0:0:
448,192,257430,1,0,0:0:0:0:
320,192,257495,1,0,0:0:0:0:
192,192,257495,1,0,0:0:0:0:
64,192,257560,1,0,0:0:0:0:
448,192,257625,1,0,0:0:0:0:
320,192,257625,1,0,0:0:0:0:
192,192,257625,1,0,0:0:0:0:
64,192,257690,1,0,0:0:0:0:
448,192,257755,1,0,0:0:0:0:
320,192,257820,1,0,0:0:0:0:
448,192,257885,1,0,0:0:0:0:
64,192,257885,1,0,0:0:0:0:
192,192,257950,1,0,0:0:0:0:
448,192,258015,1,0,0:0:0:0:
64,192,258015,1,0,0:0:0:0:
192,192,258080,1,0,0:0:0:0:
448,192,258145,1,0,0:0:0:0:
320,192,258145,1,0,0:0:0:0:
64,192,258145,1,0,0:0:0:0:
320,192,258211,1,0,0:0:0:0:
448,192,258276,1,0,0:0:0:0:
64,192,258276,1,0,0:0:0:0:
192,192,258341,1,0,0:0:0:0:
448,192,258406,1,0,0:0:0:0:
320,192,258406,1,0,0:0:0:0:
64,192,258471,1,0,0:0:0:0:
448,192,258536,1,0,0:0:0:0:
192,192,258536,1,0,0:0:0:0:
64,192,258601,1,0,0:0:0:0:
448,192,258666,1,0,0:0:0:0:
320,192,258666,1,0,0:0:0:0:
192,192,258666,1,0,0:0:0:0:
320,192,258731,1,0,0:0:0:0:
448,192,258796,1,0,0:0:0:0:
192,192,258796,1,0,0:0:0:0:
64,192,258861,1,0,0:0:0:0:
320,192,258926,1,0,0:0:0:0:
64,192,258991,1,0,0:0:0:0:
320,192,259056,1,0,0:0:0:0:
192,192,259056,1,0,0:0:0:0:
448,192,259121,1,0,0:0:0:0:
320,192,259186,1,0,0:0:0:0:
192,192,259186,1,0,0:0:0:0:
64,192,259186,1,0,0:0:0:0:
192,192,259251,1,0,0:0:0:0:
448,192,259316,1,0,0:0:0:0:
320,192,259316,1,0,0:0:0:0:
192,192,259381,1,0,0:0:0:0:
448,192,259446,1,0,0:0:0:0:
320,192,259446,1,0,0:0:0:0:
64,192,259446,1,0,0:0:0:0:
192,192,259511,1,0,0:0:0:0:
448,192,259577,1,0,0:0:0:0:
320,192,259577,1,0,0:0:0:0:
192,192,259642,1,0,0:0:0:0:
64,192,259642,1,0,0:0:0:0:
448,192,259707,1,0,0:0:0:0:
320,192,259707,1,0,0:0:0:0:
192,192,259772,1,0,0:0:0:0:
64,192,259772,1,0,0:0:0:0:
448,192,259837,1,0,0:0:0:0:
320,192,259837,1,0,0:0:0:0:
192,192,259902,1,0,0:0:0:0:
64,192,259902,1,0,0:0:0:0:
448,192,259967,1,0,0:0:0:0:
320,192,259967,1,0,0:0:0:0:
64,192,259967,1,0,0:0:0:0:
320,192,260032,1,0,0:0:0:0:
192,192,260097,1,0,0:0:0:0:
192,192,260162,1,0,0:0:0:0:
448,192,260228,1,0,0:0:0:0:
320,192,260228,1,0,0:0:0:0:
64,192,260228,1,0,0:0:0:0:
448,192,260293,1,0,0:0:0:0:
64,192,260358,1,0,0:0:0:0:
64,192,260423,1,0,0:0:0:0:
448,192,260488,1,0,0:0:0:0:
192,192,260488,1,0,0:0:0:0:
320,192,260553,1,0,0:0:0:0:
192,192,260618,1,0,0:0:0:0:
448,192,260683,1,0,0:0:0:0:
320,192,260683,1,0,0:0:0:0:
448,192,260748,1,0,0:0:0:0:
320,192,260748,1,0,0:0:0:0:
64,192,260813,1,0,0:0:0:0:
448,192,260878,1,0,0:0:0:0:
320,192,260878,1,0,0:0:0:0:
192,192,260878,1,0,0:0:0:0:
192,192,260943,1,0,0:0:0:0:
448,192,261008,1,0,0:0:0:0:
448,192,261073,1,0,0:0:0:0:
192,192,261138,1,0,0:0:0:0:
64,192,261138,1,0,0:0:0:0:
320,192,261203,1,0,0:0:0:0:
448,192,261268,1,0,0:0:0:0:
192,192,261268,1,0,0:0:0:0:
64,192,261268,1,0,0:0:0:0:
320,192,261333,1,0,0:0:0:0:
192,192,261398,1,0,0:0:0:0:
64,192,261398,1,0,0:0:0:0:
448,192,261463,1,0,0:0:0:0:
320,192,261463,1,0,0:0:0:0:
192,192,261528,1,0,0:0:0:0:
64,192,261528,1,0,0:0:0:0:
448,192,261593,1,0,0:0:0:0:
320,192,261593,1,0,0:0:0:0:
192,192,261658,1,0,0:0:0:0:
64,192,261658,1,0,0:0:0:0:
192,192,261723,1,0,0:0:0:0:
64,192,261723,1,0,0:0:0:0:
448,192,261789,1,0,0:0:0:0:
320,192,261789,1,0,0:0:0:0:
448,192,261854,1,0,0:0:0:0:
320,192,261854,1,0,0:0:0:0:
192,192,261919,1,0,0:0:0:0:
64,192,261919,1,0,0:0:0:0:
64,192,261984,1,0,0:0:0:0:
448,192,262049,1,0,0:0:0:0:
320,192,262049,1,0,0:0:0:0:
192,192,262049,1,0,0:0:0:0:
320,192,262114,1,0,0:0:0:0:
192,192,262179,1,0,0:0:0:0:
192,192,262244,1,0,0:0:0:0:
448,192,262309,1,0,0:0:0:0:
64,192,262309,1,0,0:0:0:0:
448,192,262374,1,0,0:0:0:0:
192,192,262439,1,0,0:0:0:0:
64,192,262439,1,0,0:0:0:0:
192,192,262504,1,0,0:0:0:0:
448,192,262569,1,0,0:0:0:0:
320,192,262569,1,0,0:0:0:0:
320,192,262634,1,0,0:0:0:0:
192,192,262699,1,0,0:0:0:0:
64,192,262699,1,0,0:0:0:0:
64,192,262765,1,0,0:0:0:0:
448,192,262830,1,0,0:0:0:0:
320,192,262830,1,0,0:0:0:0:
320,192,262895,1,0,0:0:0:0:
448,192,262960,1,0,0:0:0:0:
192,192,262960,1,0,0:0:0:0:
64,192,262960,1,0,0:0:0:0:
320,192,263025,1,0,0:0:0:0:
192,192,263090,1,0,0:0:0:0:
320,192,263155,1,0,0:0:0:0:
448,192,263220,1,0,0:0:0:0:
64,192,263220,1,0,0:0:0:0:
192,192,263285,1,0,0:0:0:0:
448,192,263350,1,0,0:0:0:0:
320,192,263350,1,0,0:0:0:0:
64,192,263350,1,0,0:0:0:0:
192,192,263415,1,0,0:0:0:0:
448,192,263480,1,0,0:0:0:0:
320,192,263480,1,0,0:0:0:0:
192,192,263545,1,0,0:0:0:0:
64,192,263545,1,0,0:0:0:0:
448,192,263610,1,0,0:0:0:0:
320,192,263610,1,0,0:0:0:0:
192,192,263675,1,0,0:0:0:0:
64,192,263675,1,0,0:0:0:0:
448,192,263741,1,0,0:0:0:0:
320,192,263741,1,0,0:0:0:0:
448,192,263806,1,0,0:0:0:0:
320,192,263806,1,0,0:0:0:0:
192,192,263871,1,0,0:0:0:0:
64,192,263871,1,0,0:0:0:0:
192,192,263936,1,0,0:0:0:0:
64,192,263936,1,0,0:0:0:0:
448,192,264001,1,0,0:0:0:0:
320,192,264001,1,0,0:0:0:0:
320,192,264066,1,0,0:0:0:0:
448,192,264131,1,0,0:0:0:0:
192,192,264131,1,0,0:0:0:0:
64,192,264131,1,0,0:0:0:0:
320,192,264196,1,0,0:0:0:0:
64,192,264261,1,0,0:0:0:0:
64,192,264326,1,0,0:0:0:0:
448,192,264391,1,0,0:0:0:0:
320,192,264391,1,0,0:0:0:0:
320,192,264456,1,0,0:0:0:0:
192,192,264521,1,0,0:0:0:0:
64,192,264521,1,0,0:0:0:0:
192,192,264586,1,0,0:0:0:0:
448,192,264651,1,0,0:0:0:0:
320,192,264651,1,0,0:0:0:0:
448,192,264717,1,0,0:0:0:0:
192,192,264782,1,0,0:0:0:0:
64,192,264825,1,0,0:0:0:0:
192,192,264868,1,0,0:0:0:0:
448,192,264912,1,0,0:0:0:0:
320,192,264912,1,0,0:0:0:0:
320,192,264977,1,0,0:0:0:0:
448,192,265042,1,0,0:0:0:0:
192,192,265042,1,0,0:0:0:0:
64,192,265042,1,0,0:0:0:0:
320,192,265085,1,0,0:0:0:0:
192,192,265129,1,0,0:0:0:0:
64,192,265172,1,0,0:0:0:0:
448,192,265237,1,0,0:0:0:0:
64,192,265302,1,0,0:0:0:0:
64,192,265367,1,0,0:0:0:0:
448,192,265432,1,0,0:0:0:0:
320,192,265432,1,0,0:0:0:0:
192,192,265432,1,0,0:0:0:0:
192,192,265497,1,0,0:0:0:0:
448,192,265562,1,0,0:0:0:0:
320,192,265562,1,0,0:0:0:0:
320,192,265627,1,0,0:0:0:0:
448,192,265693,1,0,0:0:0:0:
64,192,265693,1,0,0:0:0:0:
448,192,265758,1,0,0:0:0:0:
192,192,265823,1,0,0:0:0:0:
64,192,265823,1,0,0:0:0:0:
192,192,265888,1,0,0:0:0:0:
448,192,265953,1,0,0:0:0:0:
320,192,265953,1,0,0:0:0:0:
64,192,265953,1,0,0:0:0:0:
448,192,266018,1,0,0:0:0:0:
320,192,266018,1,0,0:0:0:0:
192,192,266083,1,0,0:0:0:0:
64,192,266083,1,0,0:0:0:0:
192,192,266148,1,0,0:0:0:0:
64,192,266148,1,0,0:0:0:0:
448,192,266213,1,0,0:0:0:0:
320,192,266213,1,0,0:0:0:0:
448,192,266278,1,0,0:0:0:0:
320,192,266278,1,0,0:0:0:0:
192,192,266343,1,0,0:0:0:0:
64,192,266343,1,0,0:0:0:0:
64,192,266408,1,0,0:0:0:0:
448,192,266473,1,0,0:0:0:0:
320,192,266473,1,0,0:0:0:0:
192,192,266473,1,0,0:0:0:0:
64,192,266538,1,0,0:0:0:0:
320,192,266603,1,0,0:0:0:0:
192,192,266603,1,0,0:0:0:0:
448,192,266669,1,0,0:0:0:0:
320,192,266669,1,0,0:0:0:0:
192,192,266734,1,0,0:0:0:0:
64,192,266734,1,0,0:0:0:0:
192,192,266799,1,0,0:0:0:0:
64,192,266799,1,0,0:0:0:0:
448,192,266864,1,0,0:0:0:0:
320,192,266864,1,0,0:0:0:0:
448,192,266929,1,0,0:0:0:0:
320,192,266994,1,0,0:0:0:0:
192,192,266994,1,0,0:0:0:0:
64,192,266994,1,0,0:0:0:0:
192,192,267059,1,0,0:0:0:0:
64,192,267059,1,0,0:0:0:0:
448,192,267124,1,0,0:0:0:0:
320,192,267124,1,0,0:0:0:0:
448,192,267189,1,0,0:0:0:0:
320,192,267189,1,0,0:0:0:0:
192,192,267255,1,0,0:0:0:0:
64,192,267255,1,0,0:0:0:0:
320,192,267317,1,0,0:0:0:0:
448,192,267380,1,0,0:0:0:0:
192,192,267380,1,0,0:0:0:0:
64,192,267380,1,0,0:0:0:0:
320,192,267443,1,0,0:0:0:0:
448,192,267506,1,0,0:0:0:0:
192,192,267506,1,0,0:0:0:0:
64,192,267506,1,0,0:0:0:0:
192,192,267570,1,0,0:0:0:0:
64,192,267570,1,0,0:0:0:0:
448,192,267635,1,0,0:0:0:0:
320,192,267635,1,0,0:0:0:0:
448,192,267700,1,0,0:0:0:0:
320,192,267700,1,0,0:0:0:0:
192,192,267765,1,0,0:0:0:0:
64,192,267765,1,0,0:0:0:0:
448,192,267830,1,0,0:0:0:0:
320,192,267830,1,0,0:0:0:0:
192,192,267895,1,0,0:0:0:0:
64,192,267895,1,0,0:0:0:0:
448,192,267960,1,0,0:0:0:0:
320,192,267960,1,0,0:0:0:0:
192,192,268025,1,0,0:0:0:0:
64,192,268025,1,0,0:0:0:0:
448,192,268090,1,0,0:0:0:0:
320,192,268090,1,0,0:0:0:0:
192,192,268155,1,0,0:0:0:0:
64,192,268155,1,0,0:0:0:0:
448,192,268220,1,0,0:0:0:0:
320,192,268220,1,0,0:0:0:0:
192,192,268285,1,0,0:0:0:0:
64,192,268285,1,0,0:0:0:0:
192,192,268350,1,0,0:0:0:0:
64,192,268350,1,0,0:0:0:0:
448,192,268415,1,0,0:0:0:0:
320,192,268415,1,0,0:0:0:0:
448,192,268480,1,0,0:0:0:0:
320,192,268545,1,0,0:0:0:0:
192,192,268545,1,0,0:0:0:0:
64,192,268545,1,0,0:0:0:0:
64,192,268675,1,0,0:0:0:0:
448,192,268805,1,0,0:0:0:0:
320,192,268805,1,0,0:0:0:0:
192,192,268805,1,0,0:0:0:0:
448,192,268935,1,0,0:0:0:0:
320,192,268935,1,0,0:0:0:0:
192,192,268935,1,0,0:0:0:0:
320,192,269065,1,0,0:0:0:0:
192,192,269065,1,0,0:0:0:0:
64,192,269065,1,0,0:0:0:0:
320,192,269194,1,0,0:0:0:0:
448,192,269194,1,0,0:0:0:0:
64,192,269194,1,0,0:0:0:0:
192,192,269194,1,0,0:0:0:0:
448,192,269454,1,0,0:0:0:0:
320,192,269454,1,0,0:0:0:0:
192,192,269454,1,0,0:0:0:0:
320,192,269584,1,0,0:0:0:0:
448,192,269584,1,0,0:0:0:0:
64,192,269584,1,0,0:0:0:0:
192,192,269584,1,0,0:0:0:0:
320,192,269714,1,0,0:0:0:0:
64,192,269714,1,0,0:0:0:0:
448,192,269844,1,0,0:0:0:0:
320,192,269844,1,0,0:0:0:0:
192,192,269844,1,0,0:0:0:0:
192,192,269974,1,0,0:0:0:0:
64,192,269974,1,0,0:0:0:0:
448,192,270017,1,0,0:0:0:0:
320,192,270017,1,0,0:0:0:0:
192,192,270061,1,0,0:0:0:0:
64,192,270061,1,0,0:0:0:0:
448,192,270104,1,0,0:0:0:0:
320,192,270104,1,0,0:0:0:0:
448,192,270234,1,0,0:0:0:0:
192,192,270234,1,0,0:0:0:0:
64,192,270234,1,0,0:0:0:0:
320,192,270364,1,0,0:0:0:0:
448,192,270364,1,0,0:0:0:0:
64,192,270364,1,0,0:0:0:0:
192,192,270364,1,0,0:0:0:0:
64,192,270472,1,0,0:0:0:0:
192,192,270494,1,0,0:0:0:0:
448,192,270515,1,0,0:0:0:0:
320,192,270515,1,0,0:0:0:0:
64,192,270602,1,0,0:0:0:0:
192,192,270624,1,0,0:0:0:0:
448,192,270645,1,0,0:0:0:0:
320,192,270645,1,0,0:0:0:0:
64,192,270732,1,0,0:0:0:0:
448,192,270754,1,0,0:0:0:0:
320,192,270754,1,0,0:0:0:0:
192,192,270754,1,0,0:0:0:0:
64,192,270862,1,0,0:0:0:0:
448,192,270883,1,0,0:0:0:0:
320,192,270883,1,0,0:0:0:0:
192,192,270883,1,0,0:0:0:0:
64,192,270992,1,0,0:0:0:0:
448,192,271013,1,0,0:0:0:0:
320,192,271013,1,0,0:0:0:0:
192,192,271013,1,0,0:0:0:0:
192,192,271143,1,0,0:0:0:0:
64,192,271143,1,0,0:0:0:0:
448,192,271165,1,0,0:0:0:0:
320,192,271165,1,0,0:0:0:0:
192,192,271273,1,0,0:0:0:0:
64,192,271273,1,0,0:0:0:0:
448,192,271295,1,0,0:0:0:0:
320,192,271295,1,0,0:0:0:0:
192,192,271403,1,0,0:0:0:0:
64,192,271403,1,0,0:0:0:0:
448,192,271425,1,0,0:0:0:0:
320,192,271425,1,0,0:0:0:0:
320,192,271533,1,0,0:0:0:0:
448,192,271533,1,0,0:0:0:0:
64,192,271533,1,0,0:0:0:0:
192,192,271533,1,0,0:0:0:0:
320,192,271664,1,0,0:0:0:0:
448,192,271664,1,0,0:0:0:0:
64,192,271664,1,0,0:0:0:0:
192,192,271664,1,0,0:0:0:0:
320,192,271793,1,0,0:0:0:0:
448,192,271793,1,0,0:0:0:0:
64,192,271793,1,0,0:0:0:0:
192,192,271793,1,0,0:0:0:0:
320,192,271924,1,0,0:0:0:0:
448,192,271924,1,0,0:0:0:0:
64,192,271924,1,0,0:0:0:0:
192,192,271924,1,0,0:0:0:0:
448,192,271988,1,0,0:0:0:0:
320,192,271988,1,0,0:0:0:0:
192,192,272053,1,0,0:0:0:0:
64,192,272053,1,0,0:0:0:0:
192,192,272118,1,0,0:0:0:0:
64,192,272118,1,0,0:0:0:0:
448,192,272183,1,0,0:0:0:0:
320,192,272183,1,0,0:0:0:0:
448,192,272248,1,0,0:0:0:0:
320,192,272248,1,0,0:0:0:0:
192,192,272313,1,0,0:0:0:0:
64,192,272313,1,0,0:0:0:0:
448,192,272378,1,0,0:0:0:0:
320,192,272378,1,0,0:0:0:0:
320,192,272443,1,0,0:0:0:0:
448,192,272443,1,0,0:0:0:0:
64,192,272443,1,0,0:0:0:0:
192,192,272443,1,0,0:0:0:0:
192,192,272508,1,0,0:0:0:0:
320,192,272573,1,0,0:0:0:0:
320,192,272703,1,0,0:0:0:0:
448,192,272703,1,0,0:0:0:0:
64,192,272703,1,0,0:0:0:0:
192,192,272703,1,0,0:0:0:0:
448,192,272833,1,0,0:0:0:0:
320,192,272833,1,0,0:0:0:0:
192,192,272833,1,0,0:0:0:0:
192,192,272963,1,0,0:0:0:0:
64,192,272963,1,0,0:0:0:0:
192,192,273093,1,0,0:0:0:0:
64,192,273093,1,0,0:0:0:0:
448,192,273223,1,0,0:0:0:0:
320,192,273223,1,0,0:0:0:0:
192,192,273223,1,0,0:0:0:0:
448,192,273353,1,0,0:0:0:0:
320,192,273353,1,0,0:0:0:0:
64,192,273353,1,0,0:0:0:0:
192,192,273385,1,0,0:0:0:0:
448,192,273483,1,0,0:0:0:0:
192,192,273612,1,0,0:0:0:0:
64,192,273612,1,0,0:0:0:0:
320,192,273645,1,0,0:0:0:0:
448,192,273742,1,0,0:0:0:0:
192,192,273742,1,0,0:0:0:0:
64,192,273742,1,0,0:0:0:0:
448,192,273807,1,0,0:0:0:0:
320,192,273807,1,0,0:0:0:0:
192,192,273872,1,0,0:0:0:0:
64,192,273872,1,0,0:0:0:0:
448,192,273937,1,0,0:0:0:0:
320,192,274002,1,0,0:0:0:0:
192,192,274002,1,0,0:0:0:0:
448,192,274067,1,0,0:0:0:0:
64,192,274067,1,0,0:0:0:0:
320,192,274132,1,0,0:0:0:0:
192,192,274197,1,0,0:0:0:0:
448,192,274262,1,0,0:0:0:0:
320,192,274262,1,0,0:0:0:0:
64,192,274262,1,0,0:0:0:0:
320,192,274327,1,0,0:0:0:0:
448,192,274392,1,0,0:0:0:0:
192,192,274392,1,0,0:0:0:0:
64,192,274457,1,0,0:0:0:0:
448,192,274522,1,0,0:0:0:0:
192,192,274522,1,0,0:0:0:0:
320,192,274587,1,0,0:0:0:0:
448,192,274652,1,0,0:0:0:0:
192,192,274652,1,0,0:0:0:0:
64,192,274652,1,0,0:0:0:0:
64,192,274717,1,0,0:0:0:0:
320,192,274782,1,0,0:0:0:0:
192,192,274847,1,0,0:0:0:0:
448,192,274912,1,0,0:0:0:0:
320,192,274912,1,0,0:0:0:0:
64,192,274977,1,0,0:0:0:0:
448,192,275042,1,0,0:0:0:0:
320,192,275042,1,0,0:0:0:0:
192,192,275042,1,0,0:0:0:0:
64,192,275107,1,0,0:0:0:0:
448,192,275172,1,0,0:0:0:0:
320,192,275172,1,0,0:0:0:0:
320,192,275237,1,0,0:0:0:0:
448,192,275301,1,0,0:0:0:0:
192,192,275301,1,0,0:0:0:0:
64,192,275301,1,0,0:0:0:0:
320,192,275366,1,0,0:0:0:0:
448,192,275431,1,0,0:0:0:0:
192,192,275431,1,0,0:0:0:0:
64,192,275431,1,0,0:0:0:0:
192,192,275496,1,0,0:0:0:0:
320,192,275561,1,0,0:0:0:0:
64,192,275626,1,0,0:0:0:0:
448,192,275691,1,0,0:0:0:0:
320,192,275691,1,0,0:0:0:0:
192,192,275691,1,0,0:0:0:0:
448,192,275756,1,0,0:0:0:0:
320,192,275821,1,0,0:0:0:0:
64,192,275821,1,0,0:0:0:0:
192,192,275886,1,0,0:0:0:0:
448,192,275951,1,0,0:0:0:0:
320,192,275951,1,0,0:0:0:0:
64,192,275951,1,0,0:0:0:0:
192,192,276016,1,0,0:0:0:0:
320,192,276081,1,0,0:0:0:0:
320,192,276210,1,0,0:0:0:0:
64,192,276275,1,0,0:0:0:0:
448,192,276341,1,0,0:0:0:0:
320,192,276341,1,0,0:0:0:0:
192,192,276341,1,0,0:0:0:0:
64,192,276427,1,0,0:0:0:0:
192,192,276514,1,0,0:0:0:0:
448,192,276600,1,0,0:0:0:0:
320,192,276600,1,0,0:0:0:0:
64,192,276600,1,0,0:0:0:0:
320,192,276665,1,0,0:0:0:0:
192,192,276730,1,0,0:0:0:0:
64,192,276730,1,0,0:0:0:0:
448,192,276795,1,0,0:0:0:0:
320,192,276795,1,0,0:0:0:0:
192,192,276860,1,0,0:0:0:0:
64,192,276860,1,0,0:0:0:0:
320,192,276990,1,0,0:0:0:0:
192,192,276990,1,0,0:0:0:0:
192,192,277055,1,0,0:0:0:0:
448,192,277120,1,0,0:0:0:0:
320,192,277120,1,0,0:0:0:0:
192,192,277185,1,0,0:0:0:0:
64,192,277185,1,0,0:0:0:0:
448,192,277250,1,0,0:0:0:0:
320,192,277250,1,0,0:0:0:0:
448,192,277380,1,0,0:0:0:0:
320,192,277380,1,0,0:0:0:0:
448,192,277445,1,0,0:0:0:0:
320,192,277510,1,0,0:0:0:0:
192,192,277510,1,0,0:0:0:0:
64,192,277510,1,0,0:0:0:0:
448,192,277575,1,0,0:0:0:0:
320,192,277640,1,0,0:0:0:0:
192,192,277640,1,0,0:0:0:0:
320,192,277770,1,0,0:0:0:0:
64,192,277770,1,0,0:0:0:0:
64,192,277835,1,0,0:0:0:0:
448,192,277900,1,0,0:0:0:0:
320,192,277900,1,0,0:0:0:0:
192,192,277900,1,0,0:0:0:0:
64,192,277965,1,0,0:0:0:0:
448,192,278029,1,0,0:0:0:0:
320,192,278029,1,0,0:0:0:0:
192,192,278029,1,0,0:0:0:0:
448,192,278159,1,0,0:0:0:0:
320,192,278159,1,0,0:0:0:0:
320,192,278224,1,0,0:0:0:0:
448,192,278289,1,0,0:0:0:0:
64,192,278289,1,0,0:0:0:0:
192,192,278354,1,0,0:0:0:0:
448,192,278419,1,0,0:0:0:0:
320,192,278419,1,0,0:0:0:0:
64,192,278419,1,0,0:0:0:0:
448,192,278549,1,0,0:0:0:0:
320,192,278549,1,0,0:0:0:0:
448,192,278614,1,0,0:0:0:0:
320,192,278679,1,0,0:0:0:0:
64,192,278679,1,0,0:0:0:0:
448,192,278744,1,0,0:0:0:0:
192,192,278744,1,0,0:0:0:0:
320,192,278809,1,0,0:0:0:0:
64,192,278809,1,0,0:0:0:0:
320,192,278939,1,0,0:0:0:0:
64,192,278939,1,0,0:0:0:0:
64,192,279004,1,0,0:0:0:0:
448,192,279069,1,0,0:0:0:0:
320,192,279069,1,0,0:0:0:0:
64,192,279134,1,0,0:0:0:0:
448,192,279199,1,0,0:0:0:0:
320,192,279199,1,0,0:0:0:0:
192,192,279199,1,0,0:0:0:0:
448,192,279329,1,0,0:0:0:0:
320,192,279329,1,0,0:0:0:0:
64,192,279329,1,0,0:0:0:0:
320,192,279394,1,0,0:0:0:0:
448,192,279459,1,0,0:0:0:0:
192,192,279459,1,0,0:0:0:0:
64,192,279459,1,0,0:0:0:0:
320,192,279524,1,0,0:0:0:0:
448,192,279589,1,0,0:0:0:0:
192,192,279589,1,0,0:0:0:0:
64,192,279589,1,0,0:0:0:0:
448,192,279718,1,0,0:0:0:0:
192,192,279718,1,0,0:0:0:0:
448,192,279783,1,0,0:0:0:0:
192,192,279848,1,0,0:0:0:0:
64,192,279848,1,0,0:0:0:0:
448,192,279913,1,0,0:0:0:0:
320,192,279913,1,0,0:0:0:0:
192,192,279978,1,0,0:0:0:0:
64,192,279978,1,0,0:0:0:0:
448,192,280108,1,0,0:0:0:0:
320,192,280108,1,0,0:0:0:0:
192,192,280108,1,0,0:0:0:0:
192,192,280173,1,0,0:0:0:0:
448,192,280238,1,0,0:0:0:0:
320,192,280238,1,0,0:0:0:0:
192,192,280303,1,0,0:0:0:0:
64,192,280303,1,0,0:0:0:0:
448,192,280368,1,0,0:0:0:0:
320,192,280368,1,0,0:0:0:0:
192,192,280433,1,0,0:0:0:0:
448,192,280498,1,0,0:0:0:0:
320,192,280498,1,0,0:0:0:0:
64,192,280498,1,0,0:0:0:0:
192,192,280562,1,0,0:0:0:0:
448,192,280627,1,0,0:0:0:0:
320,192,280660,1,0,0:0:0:0:
192,192,280692,1,0,0:0:0:0:
64,192,280725,1,0,0:0:0:0:
448,192,280757,1,0,0:0:0:0:
320,192,280757,1,0,0:0:0:0:
448,192,280887,1,0,0:0:0:0:
192,192,280887,1,0,0:0:0:0:
448,192,280952,1,0,0:0:0:0:
320,192,281018,1,0,0:0:0:0:
192,192,281018,1,0,0:0:0:0:
64,192,281018,1,0,0:0:0:0:
448,192,281082,1,0,0:0:0:0:
192,192,281147,1,0,0:0:0:0:
64,192,281147,1,0,0:0:0:0:
448,192,281278,1,0,0:0:0:0:
320,192,281278,1,0,0:0:0:0:
192,192,281278,1,0,0:0:0:0:
320,192,281341,1,0,0:0:0:0:
192,192,281405,1,0,0:0:0:0:
64,192,281405,1,0,0:0:0:0:
448,192,281469,1,0,0:0:0:0:
320,192,281469,1,0,0:0:0:0:
192,192,281534,1,0,0:0:0:0:
64,192,281534,1,0,0:0:0:0:
448,192,281663,1,0,0:0:0:0:
192,192,281663,1,0,0:0:0:0:
64,192,281663,1,0,0:0:0:0:
448,192,281727,1,0,0:0:0:0:
192,192,281792,1,0,0:0:0:0:
64,192,281792,1,0,0:0:0:0:
448,192,281857,1,0,0:0:0:0:
320,192,281921,1,0,0:0:0:0:
192,192,281921,1,0,0:0:0:0:
64,192,281921,1,0,0:0:0:0:
448,192,282051,1,0,0:0:0:0:
320,192,282051,1,0,0:0:0:0:
192,192,282051,1,0,0:0:0:0:
320,192,282115,1,0,0:0:0:0:
64,192,282180,1,0,0:0:0:0:
320,192,282223,1,0,0:0:0:0:
448,192,282266,1,0,0:0:0:0:
192,192,282309,1,0,0:0:0:0:
64,192,282309,1,0,0:0:0:0:
448,192,282439,1,0,0:0:0:0:
320,192,282439,1,0,0:0:0:0:
320,192,282503,1,0,0:0:0:0:
448,192,282568,1,0,0:0:0:0:
192,192,282568,1,0,0:0:0:0:
64,192,282568,1,0,0:0:0:0:
320,192,282633,1,0,0:0:0:0:
448,192,282697,1,0,0:0:0:0:
192,192,282697,1,0,0:0:0:0:
64,192,282697,1,0,0:0:0:0:
448,192,282827,1,0,0:0:0:0:
320,192,282827,1,0,0:0:0:0:
192,192,282827,1,0,0:0:0:0:
320,192,282956,1,0,0:0:0:0:
192,192,282956,1,0,0:0:0:0:
448,192,283021,1,0,0:0:0:0:
64,192,283021,1,0,0:0:0:0:
320,192,283085,1,0,0:0:0:0:
192,192,283085,1,0,0:0:0:0:
192,192,283215,1,0,0:0:0:0:
64,192,283215,1,0,0:0:0:0:
448,192,283279,1,0,0:0:0:0:
320,192,283279,1,0,0:0:0:0:
192,192,283344,1,0,0:0:0:0:
64,192,283344,1,0,0:0:0:0:
192,192,283409,1,0,0:0:0:0:
448,192,283473,1,0,0:0:0:0:
320,192,283473,1,0,0:0:0:0:
192,192,283538,1,0,0:0:0:0:
448,192,283603,1,0,0:0:0:0:
64,192,283603,1,0,0:0:0:0:
448,192,283667,1,0,0:0:0:0:
320,192,283732,1,0,0:0:0:0:
192,192,283732,1,0,0:0:0:0:
64,192,283796,1,0,0:0:0:0:
448,192,283861,1,0,0:0:0:0:
320,192,283861,1,0,0:0:0:0:
448,192,283926,1,0,0:0:0:0:
320,192,283926,1,0,0:0:0:0:
192,192,283990,1,0,0:0:0:0:
320,192,284055,1,0,0:0:0:0:
192,192,284120,1,0,0:0:0:0:
64,192,284120,1,0,0:0:0:0:
192,192,284184,1,0,0:0:0:0:
64,192,284184,1,0,0:0:0:0:
320,192,284249,1,0,0:0:0:0:
448,192,284314,1,0,0:0:0:0:
192,192,284378,1,0,0:0:0:0:
64,192,284378,1,0,0:0:0:0:
192,192,284443,1,0,0:0:0:0:
64,192,284443,1,0,0:0:0:0:
320,192,284508,1,0,0:0:0:0:
192,192,284572,1,0,0:0:0:0:
448,192,284637,1,0,0:0:0:0:
320,192,284637,1,0,0:0:0:0:
64,192,284637,1,0,0:0:0:0:
192,192,284702,1,0,0:0:0:0:
448,192,284766,1,0,0:0:0:0:
320,192,284766,1,0,0:0:0:0:
64,192,284766,1,0,0:0:0:0:
192,192,284831,1,0,0:0:0:0:
448,192,284896,1,0,0:0:0:0:
320,192,284896,1,0,0:0:0:0:
64,192,284896,1,0,0:0:0:0:
320,192,285025,1,0,0:0:0:0:
192,192,285025,1,0,0:0:0:0:
320,192,285154,1,0,0:0:0:0:
448,192,285154,1,0,0:0:0:0:
64,192,285154,1,0,0:0:0:0:
192,192,285154,1,0,0:0:0:0:
448,192,285284,1,0,0:0:0:0:
320,192,285284,1,0,0:0:0:0:
64,192,285284,1,0,0:0:0:0:
192,192,285413,1,0,0:0:0:0:
64,192,285413,1,0,0:0:0:0:
448,192,285542,1,0,0:0:0:0:
320,192,285542,1,0,0:0:0:0:
448,192,285672,1,0,0:0:0:0:
320,192,285672,1,0,0:0:0:0:
192,192,285672,1,0,0:0:0:0:
320,192,285801,1,0,0:0:0:0:
448,192,285801,1,0,0:0:0:0:
64,192,285801,1,0,0:0:0:0:
192,192,285801,1,0,0:0:0:0:
64,192,285930,1,0,0:0:0:0:
320,192,286059,1,0,0:0:0:0:
448,192,286189,1,0,0:0:0:0:
64,192,286189,1,0,0:0:0:0:
320,192,286318,1,0,0:0:0:0:
448,192,286318,1,0,0:0:0:0:
64,192,286318,1,0,0:0:0:0:
192,192,286318,1,0,0:0:0:0:
192,192,286447,1,0,0:0:0:0:
64,192,286447,1,0,0:0:0:0:
448,192,286534,1,0,0:0:0:0:
320,192,286534,1,0,0:0:0:0:
320,192,286620,1,0,0:0:0:0:
192,192,286620,1,0,0:0:0:0:
192,192,286706,1,0,0:0:0:0:
64,192,286706,1,0,0:0:0:0:
448,192,286792,1,0,0:0:0:0:
320,192,286792,1,0,0:0:0:0:
192,192,286878,1,0,0:0:0:0:
64,192,286878,1,0,0:0:0:0:
448,192,286965,1,0,0:0:0:0:
192,192,286965,1,0,0:0:0:0:
64,192,286965,1,0,0:0:0:0:
448,192,287051,1,0,0:0:0:0:
320,192,287051,1,0,0:0:0:0:
320,192,287137,1,0,0:0:0:0:
192,192,287137,1,0,0:0:0:0:
192,192,287223,1,0,0:0:0:0:
64,192,287223,1,0,0:0:0:0:
448,192,287309,1,0,0:0:0:0:
320,192,287309,1,0,0:0:0:0:
192,192,287396,1,0,0:0:0:0:
64,192,287396,1,0,0:0:0:0:
448,192,287482,1,0,0:0:0:0:
64,192,287482,1,0,0:0:0:0:
448,192,287568,1,0,0:0:0:0:
320,192,287568,1,0,0:0:0:0:
320,192,287654,1,0,0:0:0:0:
192,192,287654,1,0,0:0:0:0:
192,192,287741,1,0,0:0:0:0:
64,192,287741,1,0,0:0:0:0:
448,192,287827,1,0,0:0:0:0:
320,192,287827,1,0,0:0:0:0:
192,192,287913,1,0,0:0:0:0:
64,192,287913,1,0,0:0:0:0:
448,192,287999,1,0,0:0:0:0:
192,192,287999,1,0,0:0:0:0:
64,192,287999,1,0,0:0:0:0:
448,192,288085,1,0,0:0:0:0:
320,192,288085,1,0,0:0:0:0:
320,192,288172,1,0,0:0:0:0:
192,192,288172,1,0,0:0:0:0:
192,192,288258,1,0,0:0:0:0:
64,192,288258,1,0,0:0:0:0:
448,192,288344,1,0,0:0:0:0:
64,192,288344,1,0,0:0:0:0:
320,192,288387,1,0,0:0:0:0:
448,192,288516,1,0,0:0:0:0:
320,192,288516,1,0,0:0:0:0:
64,192,288559,1,0,0:0:0:0:
192,192,288612,1,0,0:0:0:0:
448,192,288688,1,0,0:0:0:0:
320,192,288688,1,0,0:0:0:0:
192,192,288775,1,0,0:0:0:0:
64,192,288775,1,0,0:0:0:0:
448,192,288861,1,0,0:0:0:0:
64,192,288861,1,0,0:0:0:0:
320,192,288947,1,0,0:0:0:0:
192,192,288947,1,0,0:0:0:0:
448,192,289034,1,0,0:0:0:0:
192,192,289034,1,0,0:0:0:0:
64,192,289034,1,0,0:0:0:0:
448,192,289120,1,0,0:0:0:0:
320,192,289120,1,0,0:0:0:0:
320,192,289206,1,0,0:0:0:0:
192,192,289206,1,0,0:0:0:0:
192,192,289292,1,0,0:0:0:0:
64,192,289292,1,0,0:0:0:0:
448,192,289378,1,0,0:0:0:0:
320,192,289378,1,0,0:0:0:0:
192,192,289465,1,0,0:0:0:0:
64,192,289465,1,0,0:0:0:0:
320,192,289551,1,0,0:0:0:0:
448,192,289637,1,0,0:0:0:0:
320,192,289637,1,0,0:0:0:0:
192,192,289680,1,0,0:0:0:0:
448,192,289809,1,0,0:0:0:0:
64,192,289809,1,0,0:0:0:0:
192,192,289939,1,0,0:0:0:0:
448,192,289982,1,0,0:0:0:0:
320,192,289982,1,0,0:0:0:0:
192,192,290068,1,0,0:0:0:0:
448,192,290154,1,0,0:0:0:0:
320,192,290154,1,0,0:0:0:0:
64,192,290197,1,0,0:0:0:0:
448,192,290327,1,0,0:0:0:0:
64,192,290327,1,0,0:0:0:0:
448,192,290413,1,0,0:0:0:0:
320,192,290456,1,0,0:0:0:0:
192,192,290499,1,0,0:0:0:0:
64,192,290499,1,0,0:0:0:0:
448,192,290585,1,0,0:0:0:0:
320,192,290585,1,0,0:0:0:0:
64,192,290585,1,0,0:0:0:0:
448,192,290671,1,0,0:0:0:0:
320,192,290671,1,0,0:0:0:0:
192,192,290715,1,0,0:0:0:0:
64,192,290758,1,0,0:0:0:0:
192,192,290844,1,0,0:0:0:0:
64,192,290844,1,0,0:0:0:0:
320,192,290909,1,0,0:0:0:0:
192,192,290973,1,0,0:0:0:0:
448,192,291016,1,0,0:0:0:0:
64,192,291016,1,0,0:0:0:0:
320,192,291103,1,0,0:0:0:0:
192,192,291103,1,0,0:0:0:0:
448,192,291189,1,0,0:0:0:0:
320,192,291189,1,0,0:0:0:0:
192,192,291275,1,0,0:0:0:0:
192,192,291361,1,0,0:0:0:0:
64,192,291361,1,0,0:0:0:0:
320,192,291447,1,0,0:0:0:0:
448,192,291534,1,0,0:0:0:0:
320,192,291534,1,0,0:0:0:0:
192,192,291620,1,0,0:0:0:0:
448,192,291706,1,0,0:0:0:0:
64,192,291706,1,0,0:0:0:0:
320,192,291792,1,0,0:0:0:0:
448,192,291878,1,0,0:0:0:0:
192,192,291878,1,0,0:0:0:0:
320,192,291965,1,0,0:0:0:0:
192,192,292051,1,0,0:0:0:0:
64,192,292051,1,0,0:0:0:0:
448,192,292137,1,0,0:0:0:0:
320,192,292137,1,0,0:0:0:0:
64,192,292137,1,0,0:0:0:0:
320,192,292226,1,0,0:0:0:0:
192,192,292226,1,0,0:0:0:0:
64,192,292316,1,0,0:0:0:0:
448,192,292406,1,0,0:0:0:0:
320,192,292406,1,0,0:0:0:0:
192,192,292492,1,0,0:0:0:0:
192,192,292578,1,0,0:0:0:0:
64,192,292578,1,0,0:0:0:0:
320,192,292665,1,0,0:0:0:0:
448,192,292751,1,0,0:0:0:0:
320,192,292751,1,0,0:0:0:0:
192,192,292837,1,0,0:0:0:0:
448,192,292923,1,0,0:0:0:0:
64,192,292923,1,0,0:0:0:0:
192,192,293027,1,0,0:0:0:0:
448,192,293079,1,0,0:0:0:0:
320,192,293079,1,0,0:0:0:0:
192,192,293183,1,0,0:0:0:0:
64,192,293183,1,0,0:0:0:0:
448,192,293235,128,0,293391:0:0:0:0:
320,192,293235,128,0,293391:0:0:0:0:
192,192,293548,1,0,0:0:0:0:
64,192,293548,1,0,0:0:0:0:
192,192,293662,1,0,0:0:0:0:
448,192,293778,1,0,0:0:0:0:
320,192,293778,1,0,0:0:0:0:
64,192,293778,1,0,0:0:0:0:
192,192,294034,1,0,0:0:0:0:
448,192,294165,1,0,0:0:0:0:
64,192,294198,1,0,0:0:0:0:
192,192,294230,1,0,0:0:0:0:
320,192,294263,1,0,0:0:0:0:
448,192,294296,1,0,0:0:0:0:
320,192,294427,1,0,0:0:0:0:
192,192,294427,1,0,0:0:0:0:
192,192,294559,1,0,0:0:0:0:
64,192,294559,1,0,0:0:0:0:
448,192,294693,1,0,0:0:0:0:
320,192,294693,1,0,0:0:0:0:
320,192,294828,1,0,0:0:0:0:
448,192,294828,1,0,0:0:0:0:
64,192,294828,1,0,0:0:0:0:
192,192,294828,1,0,0:0:0:0:
448,192,294969,128,0,295110:0:0:0:0:
192,192,295110,1,0,0:0:0:0:
64,192,295110,1,0,0:0:0:0:
320,192,295373,1,0,0:0:0:0:
192,192,295373,1,0,0:0:0:0:
64,192,295373,128,0,295517:0:0:0:0:
192,192,295798,1,0,0:0:0:0:
448,192,295833,1,0,0:0:0:0:
320,192,295936,1,0,0:0:0:0:
192,192,295936,1,0,0:0:0:0:
64,192,295936,1,0,0:0:0:0:
448,192,296166,1,0,0:0:0:0:
192,192,296334,1,0,0:0:0:0:
64,192,296334,1,0,0:0:0:0:
320,192,296455,1,0,0:0:0:0:
448,192,296698,1,0,0:0:0:0:
320,192,296698,1,0,0:0:0:0:
192,192,296698,1,0,0:0:0:0:
320,192,296841,1,0,0:0:0:0:
192,192,296841,1,0,0:0:0:0:
448,192,296992,1,0,0:0:0:0:
64,192,296992,1,0,0:0:0:0:
192,192,297105,1,0,0:0:0:0:
448,192,297257,1,0,0:0:0:0:
320,192,297257,1,0,0:0:0:0:
64,192,297377,1,0,0:0:0:0:
448,192,297545,1,0,0:0:0:0:
320,192,297545,1,0,0:0:0:0:
192,192,297545,1,0,0:0:0:0:
192,192,297682,1,0,0:0:0:0:
448,192,297952,1,0,0:0:0:0:
64,192,297952,1,0,0:0:0:0:
192,192,298061,1,0,0:0:0:0:
320,192,298084,1,0,0:0:0:0:
64,192,298084,1,0,0:0:0:0:
448,192,298201,1,0,0:0:0:0:
192,192,298330,1,0,0:0:0:0:
448,192,298477,1,0,0:0:0:0:
320,192,298477,1,0,0:0:0:0:
192,192,298602,128,0,298733:0:0:0:0:
64,192,298602,1,0,0:0:0:0:
320,192,298733,1,0,0:0:0:0:
448,192,298865,1,0,0:0:0:0:
320,192,298865,1,0,0:0:0:0:
64,192,298865,1,0,0:0:0:0:
192,192,298999,1,0,0:0:0:0:
64,192,298999,1,0,0:0:0:0:
448,192,299134,1,0,0:0:0:0:
320,192,299134,1,0,0:0:0:0:
320,192,299268,1,0,0:0:0:0:
192,192,299268,1,0,0:0:0:0:
448,192,299403,1,0,0:0:0:0:
192,192,299403,1,0,0:0:0:0:
64,192,299403,1,0,0:0:0:0:
320,192,299471,1,0,0:0:0:0:
192,192,299540,1,0,0:0:0:0:
64,192,299609,1,0,0:0:0:0:
448,192,299679,1,0,0:0:0:0:
320,192,299679,1,0,0:0:0:0:
192,192,299679,1,0,0:0:0:0:
64,192,299810,1,0,0:0:0:0:
192,192,299941,1,0,0:0:0:0:
448,192,300078,1,0,0:0:0:0:
320,192,300078,1,0,0:0:0:0:
320,192,300216,1,0,0:0:0:0:
192,192,300216,1,0,0:0:0:0:
64,192,300216,1,0,0:0:0:0:
192,192,300354,1,0,0:0:0:0:
64,192,300354,1,0,0:0:0:0:
448,192,300493,1,0,0:0:0:0:
320,192,300493,1,0,0:0:0:0:
192,192,300634,1,0,0:0:0:0:
64,192,300634,1,0,0:0:0:0:
320,192,300775,1,0,0:0:0:0:
192,192,300775,1,0,0:0:0:0:
448,192,300909,1,0,0:0:0:0:
320,192,300909,1,0,0:0:0:0:
64,192,301045,1,0,0:0:0:0:
448,192,301172,1,0,0:0:0:0:
192,192,301172,1,0,0:0:0:0:
448,192,301300,1,0,0:0:0:0:
320,192,301300,1,0,0:0:0:0:
192,192,301300,1,0,0:0:0:0:
448,192,301441,1,0,0:0:0:0:
320,192,301441,1,0,0:0:0:0:
192,192,301441,1,0,0:0:0:0:
64,192,301582,128,0,301615:0:0:0:0:
320,192,301699,1,0,0:0:0:0:
192,192,301699,1,0,0:0:0:0:
448,192,301828,1,0,0:0:0:0:
320,192,301828,1,0,0:0:0:0:
64,192,301828,1,0,0:0:0:0:
192,192,301988,1,0,0:0:0:0:
64,192,301988,1,0,0:0:0:0:
320,192,302128,1,0,0:0:0:0:
192,192,302262,1,0,0:0:0:0:
64,192,302262,1,0,0:0:0:0:
448,192,302397,1,0,0:0:0:0:
320,192,302397,1,0,0:0:0:0:
192,192,302397,1,0,0:0:0:0:
320,192,302528,1,0,0:0:0:0:
448,192,302659,1,0,0:0:0:0:
64,192,302659,1,0,0:0:0:0:
320,192,302793,1,0,0:0:0:0:
192,192,302793,1,0,0:0:0:0:
448,192,302928,1,0,0:0:0:0:
320,192,302928,1,0,0:0:0:0:
64,192,302928,1,0,0:0:0:0:
320,192,303059,1,0,0:0:0:0:
192,192,303059,1,0,0:0:0:0:
64,192,303059,1,0,0:0:0:0:
448,192,303191,1,0,0:0:0:0:
192,192,303191,1,0,0:0:0:0:
320,192,303335,1,0,0:0:0:0:
192,192,303335,1,0,0:0:0:0:
320,192,303461,1,0,0:0:0:0:
448,192,303461,1,0,0:0:0:0:
64,192,303461,1,0,0:0:0:0:
192,192,303461,1,0,0:0:0:0:
192,192,303614,1,0,0:0:0:0:
64,192,303614,1,0,0:0:0:0:
448,192,303748,1,0,0:0:0:0:
320,192,303748,1,0,0:0:0:0:
320,192,303876,1,0,0:0:0:0:
192,192,303876,1,0,0:0:0:0:
448,192,304005,1,0,0:0:0:0:
64,192,304005,1,0,0:0:0:0:
192,192,304152,1,0,0:0:0:0:
64,192,304152,1,0,0:0:0:0:
448,192,304300,1,0,0:0:0:0:
320,192,304334,1,0,0:0:0:0:
192,192,304437,1,0,0:0:0:0:
64,192,304437,1,0,0:0:0:0:
448,192,304552,1,0,0:0:0:0:
320,192,304552,1,0,0:0:0:0:
192,192,304552,1,0,0:0:0:0:
320,192,304707,1,0,0:0:0:0:
192,192,304707,1,0,0:0:0:0:
448,192,304816,1,0,0:0:0:0:
64,192,304838,1,0,0:0:0:0:
192,192,304860,1,0,0:0:0:0:
320,192,304950,1,0,0:0:0:0:
448,192,305108,1,0,0:0:0:0:
192,192,305108,1,0,0:0:0:0:
64,192,305239,1,0,0:0:0:0:
448,192,305370,1,0,0:0:0:0:
320,192,305370,1,0,0:0:0:0:
64,192,305370,1,0,0:0:0:0:
320,192,305511,1,0,0:0:0:0:
192,192,305581,1,0,0:0:0:0:
448,192,305652,1,0,0:0:0:0:
320,192,305652,1,0,0:0:0:0:
64,192,305652,1,0,0:0:0:0:
448,192,305789,1,0,0:0:0:0:
320,192,305789,1,0,0:0:0:0:
448,192,305928,1,0,0:0:0:0:
320,192,305928,1,0,0:0:0:0:
192,192,306059,1,0,0:0:0:0:
64,192,306059,1,0,0:0:0:0:
192,192,306190,1,0,0:0:0:0:
64,192,306190,1,0,0:0:0:0:
448,192,306321,1,0,0:0:0:0:
192,192,306321,1,0,0:0:0:0:
448,192,306453,1,0,0:0:0:0:
192,192,306453,1,0,0:0:0:0:
320,192,306587,1,0,0:0:0:0:
64,192,306587,1,0,0:0:0:0:
320,192,306722,1,0,0:0:0:0:
64,192,306722,1,0,0:0:0:0:
320,192,306856,1,0,0:0:0:0:
192,192,306856,1,0,0:0:0:0:
320,192,306991,1,0,0:0:0:0:
192,192,306991,1,0,0:0:0:0:
192,192,307128,1,0,0:0:0:0:
64,192,307128,1,0,0:0:0:0:
192,192,307267,1,0,0:0:0:0:
64,192,307267,1,0,0:0:0:0:
448,192,307401,1,0,0:0:0:0:
320,192,307401,1,0,0:0:0:0:
448,192,307536,1,0,0:0:0:0:
320,192,307536,1,0,0:0:0:0:
320,192,307673,1,0,0:0:0:0:
64,192,307673,1,0,0:0:0:0:
320,192,307794,1,0,0:0:0:0:
64,192,307794,1,0,0:0:0:0:
448,192,307932,1,0,0:0:0:0:
64,192,307932,1,0,0:0:0:0:
448,192,308070,1,0,0:0:0:0:
64,192,308070,1,0,0:0:0:0:
320,192,308197,1,0,0:0:0:0:
192,192,308197,1,0,0:0:0:0:
320,192,308321,1,0,0:0:0:0:
192,192,308321,1,0,0:0:0:0:
320,192,308471,1,0,0:0:0:0:
64,192,308471,1,0,0:0:0:0:
448,192,308606,1,0,0:0:0:0:
192,192,308606,1,0,0:0:0:0:
64,192,308737,128,0,308868:0:0:0:0:
448,192,308868,1,0,0:0:0:0:
320,192,308868,1,0,0:0:0:0:
192,192,308868,1,0,0:0:0:0:
320,192,309012,1,0,0:0:0:0:
192,192,309158,1,0,0:0:0:0:
64,192,309282,1,0,0:0:0:0:
320,192,309345,1,0,0:0:0:0:
448,192,309407,1,0,0:0:0:0:
64,192,309407,1,0,0:0:0:0:
448,192,309548,1,0,0:0:0:0:
320,192,309548,1,0,0:0:0:0:
192,192,309689,1,0,0:0:0:0:
448,192,309826,1,0,0:0:0:0:
64,192,309826,1,0,0:0:0:0:
448,192,309964,1,0,0:0:0:0:
320,192,309964,1,0,0:0:0:0:
192,192,309964,1,0,0:0:0:0:
192,192,310102,1,0,0:0:0:0:
64,192,310102,1,0,0:0:0:0:
448,192,310240,1,0,0:0:0:0:
320,192,310240,1,0,0:0:0:0:
64,192,310240,1,0,0:0:0:0:
192,192,310378,1,0,0:0:0:0:
320,192,310447,1,0,0:0:0:0:
448,192,310516,1,0,0:0:0:0:
192,192,310516,1,0,0:0:0:0:
64,192,310516,1,0,0:0:0:0:
320,192,310650,1,0,0:0:0:0:
192,192,310785,1,0,0:0:0:0:
320,192,310926,1,0,0:0:0:0:
448,192,311068,1,0,0:0:0:0:
192,192,311422,1,0,0:0:0:0:
320,192,311471,1,0,0:0:0:0:
448,192,311520,1,0,0:0:0:0:
64,192,311569,1,0,0:0:0:0:
192,192,311618,1,0,0:0:0:0:
320,192,311668,1,0,0:0:0:0:
448,192,311718,1,0,0:0:0:0:
448,192,311852,1,0,0:0:0:0:
64,192,311987,1,0,0:0:0:0:
320,192,312036,1,0,0:0:0:0:
192,192,312085,1,0,0:0:0:0:
448,192,312134,1,0,0:0:0:0:
64,192,312183,1,0,0:0:0:0:
192,192,312233,1,0,0:0:0:0:
320,192,312282,1,0,0:0:0:0:
320,192,312571,1,0,0:0:0:0:
192,192,312623,1,0,0:0:0:0:
64,192,312676,1,0,0:0:0:0:
192,192,312728,1,0,0:0:0:0:
320,192,312781,1,0,0:0:0:0:
448,192,312833,1,0,0:0:0:0:
64,192,312886,1,0,0:0:0:0:
320,192,313195,1,0,0:0:0:0:
64,192,313496,1,0,0:0:0:0:
64,192,313798,1,0,0:0:0:0:
192,192,313851,1,0,0:0:0:0:
320,192,313905,1,0,0:0:0:0:
448,192,313958,1,0,0:0:0:0:
64,192,314039,1,0,0:0:0:0:
192,192,314532,1,0,0:0:0:0:
448,192,314750,1,0,0:0:0:0:
448,192,314890,1,0,0:0:0:0:
320,192,315222,1,0,0:0:0:0:
448,192,315275,1,0,0:0:0:0:
64,192,315327,1,0,0:0:0:0:
320,192,315380,1,0,0:0:0:0:
192,192,315432,1,0,0:0:0:0:
448,192,315537,1,0,0:0:0:0:
192,192,315767,1,0,0:0:0:0:
320,192,315855,1,0,0:0:0:0:
64,192,315892,1,0,0:0:0:0:
192,192,315943,1,0,0:0:0:0:
320,192,316006,1,0,0:0:0:0:
448,192,316068,1,0,0:0:0:0:
320,192,316119,1,0,0:0:0:0:
448,192,316195,1,0,0:0:0:0:
192,192,317356,1,0,0:0:0:0:
64,192,317428,1,0,0:0:0:0:
192,192,317501,1,0,0:0:0:0:
320,192,317573,1,0,0:0:0:0:
448,192,317646,1,0,0:0:0:0:
