osu file format v14

[General]
AudioFilename: audio.mp3
AudioLeadIn: 0
PreviewTime: 44663
Countdown: 0
SampleSet: Normal
StackLeniency: 0
Mode: 1
LetterboxInBreaks: 0
WidescreenStoryboard: 0

[Editor]
DistanceSpacing: 0.9
BeatDivisor: 8
GridSize: 32
TimelineZoom: 2

[Metadata]
Title:TURBO (Cut Ver.)
TitleUnicode:TURBO (Cut Ver.)
Artist:TOKYO MACHINE
ArtistUnicode:TOKYO MACHINE
Creator:Stingy
Version:FUTSUU
Source:
Tags:wub instrumental edm electronic dance music car sv trollocat monstercat
BeatmapID:3046019
BeatmapSetID:1485430

[Difficulty]
HPDrainRate:7
CircleSize:2
OverallDifficulty:3.5
ApproachRate:10
SliderMultiplier:1.6
SliderTickRate:1

[Events]
//Background and Video events
0,0,"turbo.jpg",0,0
//Break Periods
//Storyboard Layer 0 (Background)
//Storyboard Layer 1 (Fail)
//Storyboard Layer 2 (Pass)
//Storyboard Layer 3 (Foreground)
//Storyboard Layer 4 (Overlay)
//Storyboard Sound Samples

[TimingPoints]
309,468.75,4,1,0,100,1,0
14312,-100,4,1,0,100,0,0
15250,-100,4,1,0,100,0,0
45777,-100,4,1,0,100,0,1
49059,-100,4,1,0,100,0,0
53277,-100,4,1,0,100,0,1
56559,-100,4,1,0,100,0,0
60777,-100,4,1,0,100,0,1
64059,-100,4,1,0,100,0,0
68277,-100,4,1,0,100,0,1
71500,-100,4,1,0,100,0,1
71559,-100,4,1,0,100,0,0
75309,-100,4,1,0,100,0,1
88434,-100,4,1,0,100,0,0
105250,-100,4,1,0,100,0,0

[HitObjects]
256,192,5934,12,0,7341,0:0:0:0:
257,189,7809,5,8,0:0:0:0:
257,189,8278,1,8,0:0:0:0:
257,189,8747,1,8,0:0:0:0:
257,189,9098,1,8,0:0:0:0:
257,189,9450,1,0,0:0:0:0:
257,189,10153,1,8,0:0:0:0:
257,189,10387,1,8,0:0:0:0:
257,189,10622,1,8,0:0:0:0:
257,189,10973,1,8,0:0:0:0:
257,189,11325,1,0,0:0:0:0:
256,192,12028,1,8,0:0:0:0:
256,192,12262,1,8,0:0:0:0:
256,192,12497,1,8,0:0:0:0:
256,192,12848,1,8,0:0:0:0:
256,192,13200,1,0,0:0:0:0:
256,192,14372,1,8,0:0:0:0:
256,192,14606,1,0,0:0:0:0:
256,192,14841,1,8,0:0:0:0:
256,192,15309,1,4,0:0:0:0:
256,192,16247,1,8,0:0:0:0:
256,192,16598,1,0,0:0:0:0:
256,192,16950,1,8,0:0:0:0:
256,192,17184,1,4,0:0:0:0:
256,192,18122,1,0,0:0:0:0:
256,192,18473,1,8,0:0:0:0:
256,192,18825,1,8,0:0:0:0:
256,192,19059,1,4,0:0:0:0:
256,192,19997,1,8,0:0:0:0:
256,192,20348,1,8,0:0:0:0:
256,192,20700,1,8,0:0:0:0:
256,192,20934,1,4,0:0:0:0:
256,192,21872,1,12,0:0:0:0:
256,192,22341,1,12,0:0:0:0:
256,192,22809,1,4,0:0:0:0:
256,192,23747,1,8,0:0:0:0:
256,192,24098,1,0,0:0:0:0:
256,192,24450,1,8,0:0:0:0:
256,192,24684,1,4,0:0:0:0:
256,192,25622,1,0,0:0:0:0:
256,192,25973,1,8,0:0:0:0:
256,192,26325,1,8,0:0:0:0:
256,192,26559,1,4,0:0:0:0:
256,192,27497,1,8,0:0:0:0:
256,192,27848,1,8,0:0:0:0:
256,192,28200,1,8,0:0:0:0:
256,192,28434,1,4,0:0:0:0:
256,192,29372,1,8,0:0:0:0:
256,192,29606,1,8,0:0:0:0:
256,192,29841,1,0,0:0:0:0:
256,192,30309,1,4,0:0:0:0:
256,192,30778,1,8,0:0:0:0:
256,192,31130,1,0,0:0:0:0:
256,192,31481,1,0,0:0:0:0:
256,192,31716,1,8,0:0:0:0:
256,192,32184,1,0,0:0:0:0:
256,192,32419,1,0,0:0:0:0:
256,192,32653,1,8,0:0:0:0:
256,192,33005,1,0,0:0:0:0:
256,192,33356,1,0,0:0:0:0:
256,192,33591,1,12,0:0:0:0:
256,192,34059,1,4,0:0:0:0:
256,192,34880,1,0,0:0:0:0:
256,192,35231,1,0,0:0:0:0:
256,192,35466,1,8,0:0:0:0:
256,192,35934,1,0,0:0:0:0:
256,192,36169,1,0,0:0:0:0:
256,192,36403,1,8,0:0:0:0:
256,192,36755,1,0,0:0:0:0:
256,192,37106,1,0,0:0:0:0:
256,192,37341,1,12,0:0:0:0:
256,192,37809,1,4,0:0:0:0:
256,192,38512,1,0,0:0:0:0:
256,192,38747,1,0,0:0:0:0:
256,192,39216,1,0,0:0:0:0:
256,192,39684,1,8,0:0:0:0:
256,192,40387,1,8,0:0:0:0:
256,192,40622,1,8,0:0:0:0:
256,192,41091,1,8,0:0:0:0:
256,192,41559,1,0,0:0:0:0:
256,192,41794,1,0,0:0:0:0:
256,192,42028,1,0,0:0:0:0:
256,192,42497,1,8,0:0:0:0:
256,192,42731,1,8,0:0:0:0:
256,192,42966,1,8,0:0:0:0:
256,192,45309,1,4,0:0:0:0:
256,192,45778,1,8,0:0:0:0:
256,192,46247,1,0,0:0:0:0:
256,192,46481,1,0,0:0:0:0:
256,192,46716,1,8,0:0:0:0:
256,192,47184,1,0,0:0:0:0:
256,192,47653,1,8,0:0:0:0:
256,192,48122,1,0,0:0:0:0:
256,192,48356,1,0,0:0:0:0:
256,192,48591,1,12,0:0:0:0:
256,192,49059,1,4,0:0:0:0:
256,192,49528,1,8,0:0:0:0:
256,192,49880,1,0,0:0:0:0:
256,192,50231,1,0,0:0:0:0:
256,192,50466,1,8,0:0:0:0:
256,192,50934,1,0,0:0:0:0:
256,192,51403,1,8,0:0:0:0:
256,192,51755,1,0,0:0:0:0:
256,192,52106,1,0,0:0:0:0:
256,192,52809,1,4,0:0:0:0:
256,192,53278,1,8,0:0:0:0:
256,192,53747,1,0,0:0:0:0:
256,192,53981,1,0,0:0:0:0:
256,192,54216,1,8,0:0:0:0:
256,192,54684,1,0,0:0:0:0:
256,192,55153,1,8,0:0:0:0:
256,192,55622,1,0,0:0:0:0:
256,192,55856,1,0,0:0:0:0:
256,192,56091,1,12,0:0:0:0:
256,192,56559,1,4,0:0:0:0:
256,192,57028,1,8,0:0:0:0:
256,192,57380,1,0,0:0:0:0:
256,192,57731,1,0,0:0:0:0:
256,192,57966,1,8,0:0:0:0:
256,192,58434,1,0,0:0:0:0:
256,192,58903,1,8,0:0:0:0:
256,192,59255,1,0,0:0:0:0:
256,192,59606,1,0,0:0:0:0:
256,192,59841,1,8,0:0:0:0:
256,192,60075,1,8,0:0:0:0:
256,192,60309,1,4,0:0:0:0:
256,192,61247,1,0,0:0:0:0:
256,192,61481,1,0,0:0:0:0:
256,192,61716,1,8,0:0:0:0:
256,192,62184,1,8,0:0:0:0:
256,192,62419,1,0,0:0:0:0:
256,192,62653,1,8,0:0:0:0:
256,192,63122,1,0,0:0:0:0:
256,192,63356,1,0,0:0:0:0:
256,192,63591,1,12,0:0:0:0:
256,192,64059,1,4,0:0:0:0:
256,192,64528,1,8,0:0:0:0:
256,192,64880,1,0,0:0:0:0:
256,192,65231,1,0,0:0:0:0:
256,192,65466,1,8,0:0:0:0:
256,192,65934,1,0,0:0:0:0:
256,192,66403,1,8,0:0:0:0:
256,192,66755,1,0,0:0:0:0:
256,192,67106,1,0,0:0:0:0:
256,192,67809,1,4,0:0:0:0:
256,192,68278,1,8,0:0:0:0:
256,192,68747,1,0,0:0:0:0:
256,192,68981,1,0,0:0:0:0:
256,192,69216,1,8,0:0:0:0:
256,192,69684,1,8,0:0:0:0:
256,192,69919,1,0,0:0:0:0:
256,192,70153,1,8,0:0:0:0:
256,192,70622,1,0,0:0:0:0:
256,192,70856,1,0,0:0:0:0:
256,192,71091,1,12,0:0:0:0:
256,192,71559,1,4,0:0:0:0:
256,192,74841,1,8,0:0:0:0:
256,192,75075,1,8,0:0:0:0:
256,192,75309,1,4,0:0:0:0:
256,192,75778,1,8,0:0:0:0:
256,192,76012,1,8,0:0:0:0:
256,192,76247,1,0,0:0:0:0:
256,192,76598,1,0,0:0:0:0:
256,192,76950,1,8,0:0:0:0:
256,192,77653,1,8,0:0:0:0:
256,192,77887,1,8,0:0:0:0:
256,192,78122,1,0,0:0:0:0:
256,192,78473,1,8,0:0:0:0:
256,192,78825,1,0,0:0:0:0:
256,192,79528,1,8,0:0:0:0:
256,192,79762,1,0,0:0:0:0:
256,192,79997,1,8,0:0:0:0:
256,192,80348,1,8,0:0:0:0:
256,192,80700,1,0,0:0:0:0:
256,192,81169,1,0,0:0:0:0:
256,192,81403,1,8,0:0:0:0:
256,192,81637,1,8,0:0:0:0:
256,192,81872,1,0,0:0:0:0:
256,192,82341,1,8,0:0:0:0:
256,192,82575,1,8,0:0:0:0:
256,192,82809,1,4,0:0:0:0:
256,192,83278,1,8,0:0:0:0:
256,192,83512,1,8,0:0:0:0:
256,192,83747,1,0,0:0:0:0:
256,192,84098,1,0,0:0:0:0:
256,192,84450,1,8,0:0:0:0:
256,192,85153,1,8,0:0:0:0:
256,192,85387,1,0,0:0:0:0:
256,192,85622,1,8,0:0:0:0:
256,192,85973,1,8,0:0:0:0:
256,192,86325,1,0,0:0:0:0:
256,192,87028,1,8,0:0:0:0:
256,192,87262,1,0,0:0:0:0:
256,192,87497,1,12,0:0:0:0:
256,192,87848,1,12,0:0:0:0:
256,192,88200,1,4,0:0:0:0:
256,192,89606,1,0,0:0:0:0:
256,192,89841,1,8,0:0:0:0:
256,192,90309,1,0,0:0:0:0:
256,192,90544,1,0,0:0:0:0:
256,192,90778,1,8,0:0:0:0:
256,192,91130,1,8,0:0:0:0:
256,192,91481,1,0,0:0:0:0:
256,192,91716,1,8,0:0:0:0:
256,192,92184,1,0,0:0:0:0:
256,192,92419,1,0,0:0:0:0:
256,192,92653,1,8,0:0:0:0:
256,192,92887,1,0,0:0:0:0:
256,192,93356,1,0,0:0:0:0:
256,192,93591,1,8,0:0:0:0:
256,192,94059,1,0,0:0:0:0:
256,192,94294,1,0,0:0:0:0:
256,192,94528,1,8,0:0:0:0:
256,192,94880,1,8,0:0:0:0:
256,192,95231,1,0,0:0:0:0:
256,192,95466,1,8,0:0:0:0:
256,192,95934,1,0,0:0:0:0:
256,192,96169,1,0,0:0:0:0:
256,192,96403,1,8,0:0:0:0:
256,192,96637,1,0,0:0:0:0:
256,192,97106,1,0,0:0:0:0:
256,192,97809,1,0,0:0:0:0:
256,192,98044,1,0,0:0:0:0:
256,192,98278,1,8,0:0:0:0:
256,192,98630,1,8,0:0:0:0:
256,192,98981,1,0,0:0:0:0:
256,192,99216,1,8,0:0:0:0:
256,192,99450,1,8,0:0:0:0:
256,192,99684,1,0,0:0:0:0:
256,192,100153,1,8,0:0:0:0:
256,192,100387,1,0,0:0:0:0:
256,192,100856,1,0,0:0:0:0:
256,192,101091,1,8,0:0:0:0:
256,192,101325,1,8,0:0:0:0:
256,192,101559,1,0,0:0:0:0:
256,192,102028,1,8,0:0:0:0:
256,192,102380,1,8,0:0:0:0:
256,192,102731,1,0,0:0:0:0:
256,192,102966,1,8,0:0:0:0:
256,192,103200,1,8,0:0:0:0:
256,192,103434,1,0,0:0:0:0:
256,192,103903,1,8,0:0:0:0:
256,192,104137,1,0,0:0:0:0:
256,192,104606,1,0,0:0:0:0:
256,192,104841,1,8,0:0:0:0:
256,192,105309,5,4,0:0:0:0:
