osu file format v14

[General]
AudioFilename: audio.mp3
AudioLeadIn: 0
PreviewTime: 59171
Countdown: 0
SampleSet: Normal
StackLeniency: 0.7
Mode: 1
LetterboxInBreaks: 0
WidescreenStoryboard: 1

[Editor]
Bookmarks: 146900
DistanceSpacing: 0.8
BeatDivisor: 8
GridSize: 32
TimelineZoom: 1.7

[Metadata]
Title:Round off the Square Earth
TitleUnicode:四角い地球を丸くする
Artist:TOKOTOKO(NishizawasanP) feat. Hatsune Miku
ArtistUnicode:TOKOTOKO(西沢さんP) feat. 初音ミク
Creator:SN707
Version:Muzukashii
Source:SNOW MIKU 2018
Tags:pop rock japanese vocaloid karent 雪ミク jpop j-pop jrock j-rock ボーカロイド ボカロ Shikakui Chikyuu o Maruku suru
BeatmapID:4409395
BeatmapSetID:2101848

[Difficulty]
HPDrainRate:6
CircleSize:5
OverallDifficulty:5
ApproachRate:5
SliderMultiplier:1.4
SliderTickRate:1

[Events]
//Background and Video events
0,0,"710.jpg",0,90
Video,-80,"output.mp4"
//Break Periods
//Storyboard Layer 0 (Background)
//Storyboard Layer 1 (Fail)
//Storyboard Layer 2 (Pass)
//Storyboard Layer 3 (Foreground)
//Storyboard Layer 4 (Overlay)
//Storyboard Sound Samples

[TimingPoints]
1603,405.405405405405,4,1,0,70,1,0
1603,-100,4,1,0,70,0,0
8258,-100,4,1,0,80,0,0
11501,-100,4,1,0,80,0,0
14744,-100,4,1,0,80,0,0
17987,-100,4,1,0,80,0,0
19204,-100,4,1,0,80,0,0
19609,-100,4,1,0,80,0,0
19812,-100,4,1,0,80,0,0
20217,-107.136563876652,4,1,0,80,0,0
20623,-115.391914974378,4,1,0,80,0,0
20825,-119.992105782514,4,1,0,80,0,0
21028,-125,4,1,0,80,0,0
21434,-125,4,1,0,70,0,0
27515,-125,4,1,0,70,0,0
31163,-125,4,1,0,70,0,0
31568,-122.809295079839,4,1,0,70,0,0
31771,-121.739876458476,4,1,0,70,0,0
32177,-119.655957500632,4,1,0,70,0,0
32379,-118.645484949833,4,1,0,70,0,0
32582,-117.647058823529,4,1,0,70,0,0
32785,-116.665296390693,4,1,0,70,0,0
33190,-114.754761230844,4,1,0,70,0,0
33291,-114.288015463918,4,1,0,70,0,0
33596,-112.901300871226,4,1,0,70,0,0
33799,-111.996842936069,4,1,0,70,0,0
34001,-111.111111111111,4,1,0,70,0,0
45758,-111.111111111111,4,1,0,70,0,0
46163,-115.380965936047,4,1,0,70,0,0
46569,-120.003947498273,4,1,0,70,0,0
46771,-122.444869600242,4,1,0,70,0,0
46974,-125,4,1,0,70,0,0
51839,-125,4,1,0,70,0,0
52650,-117.647058823529,4,1,0,70,0,0
52852,-115.948245049682,4,1,0,70,0,0
53055,-114.289740698985,4,1,0,70,0,0
53461,-111.111111111111,4,1,0,80,0,0
56704,-111.111111111111,4,1,0,80,0,0
57109,-107.695810564663,4,1,0,80,0,0
57210,-106.876553438277,4,1,0,80,0,0
57312,-106.061738545482,4,1,0,80,0,0
57514,-104.484205875856,4,1,0,80,0,0
57717,-102.945443993035,4,1,0,80,0,0
57818,-102.196615052215,4,1,0,80,0,0
57920,-101.451347679989,4,1,0,80,0,0
58123,-100,4,1,0,80,0,0
59947,-90.9090909090909,4,1,0,90,0,0
59981,-90.9090909090909,4,1,0,90,0,1
84102,-90.9090909090909,4,1,0,80,0,0
84305,405.405405405405,4,1,0,80,1,0
84305,-100,4,1,0,80,0,0
87717,-100,4,1,0,80,0,0
90960,-100,4,1,0,80,0,0
94203,-100,4,1,0,80,0,0
96028,-100,4,1,0,80,0,0
96434,-107.155445893549,4,1,0,80,0,0
96840,-115.413819286257,4,1,0,80,0,0
97042,-120.01579155152,4,1,0,80,0,0
97244,-125,4,1,0,80,0,0
97650,-125,4,1,0,80,0,0
107380,-125,4,1,0,80,0,0
107785,-119.050417205312,4,1,0,80,0,0
108089,-114.943832974016,4,1,0,80,0,0
108190,-113.6414628674,4,1,0,80,0,0
108393,-111.111111111111,4,1,0,80,0,0
108596,-112.502312958737,4,1,0,80,0,0
108798,-113.921678845793,4,1,0,70,0,0
109001,-115.384615384615,4,1,0,70,0,0
109204,-116.885613585389,4,1,0,70,0,0
109406,-118.418489904564,4,1,0,70,0,0
109609,-120,4,1,0,70,0,0
109812,-121.624324864973,4,1,0,70,0,0
110014,-123.284893545117,4,1,0,70,0,0
110217,-125,4,1,0,70,0,0
115082,-125,4,1,0,70,0,0
115893,-117.647058823529,4,1,0,70,0,0
116096,-115.939957112223,4,1,0,70,0,0
116298,-114.289740698985,4,1,0,70,0,0
116704,-111.111111111111,4,1,0,80,0,0
119947,-111.111111111111,4,1,0,80,0,0
120352,-107.695810564663,4,1,0,80,0,0
120555,-106.061738545482,4,1,0,80,0,0
120758,-104.476513031954,4,1,0,80,0,0
120960,-102.945443993035,4,1,0,80,0,0
121163,-101.451347679989,4,1,0,80,0,0
121366,-100,4,1,0,80,0,0
123190,-90.9090909090909,4,1,0,90,0,0
123223,-90.9090909090909,4,1,0,90,0,1
147548,405.405405405405,4,1,0,90,1,0
147548,-90.9090909090909,4,1,0,90,0,0
147582,-100,4,1,0,70,0,0
150555,-100,4,1,0,80,0,0
150825,-100,4,1,0,70,0,0
153393,-100,4,1,0,75,0,0
154407,-100,4,1,0,75,0,0
159677,-100,4,1,0,75,0,0
160488,-95.2380952380952,4,1,0,75,0,0
162109,-90.9090909090909,4,1,0,75,0,0
163325,-90.9090909090909,4,1,0,75,0,0
163731,-86.9565217391304,4,1,0,75,0,0
164339,-86.9565217391304,4,1,0,75,0,0
164947,-86.9565217391304,4,1,0,75,0,0
165555,-86.9565217391304,4,1,0,75,0,0
166163,-86.9565217391304,4,1,0,75,0,0
166974,-92.5925925925926,4,1,0,75,0,0
167582,-100,4,1,0,75,0,0
172650,-100,4,1,0,75,0,0
172955,-95.2380952380952,4,1,0,75,0,0
173259,-90.9090909090909,4,1,0,75,0,0
173461,-90.9090909090909,4,1,0,75,0,0
173866,-90.9090909090909,4,1,0,90,0,0
173899,-90.9090909090909,4,1,0,90,0,1
191129,-90.9090909090909,4,1,0,80,0,0
191331,405.405405405405,4,1,0,80,1,0
191331,-100,4,1,0,80,0,0
197766,-105.263157894737,4,1,0,80,0,0
205082,-105.263157894737,4,1,0,80,0,0
205893,-106.384653738158,4,1,0,80,0,0
207514,-121.946817470822,4,1,0,80,0,0
209136,-142.857142857143,4,1,0,80,0,0

[HitObjects]
264,184,8292,5,4,0:0:0:0:
264,184,8494,1,12,0:0:0:0:
264,184,8697,1,4,0:0:0:0:
264,184,8900,1,12,0:0:0:0:
272,176,9102,1,4,0:0:0:0:
276,168,9508,1,8,0:0:0:0:
256,160,9609,1,8,0:0:0:0:
256,160,9711,1,8,0:0:0:0:
284,176,9913,1,0,0:0:0:0:
284,172,10116,1,8,0:0:0:0:
284,172,10521,1,0,0:0:0:0:
284,176,10724,1,0,0:0:0:0:
272,160,10927,1,8,0:0:0:0:
260,152,11535,1,0,0:0:0:0:
260,152,11738,1,0,0:0:0:0:
260,152,11940,1,8,0:0:0:0:
288,160,12143,1,8,0:0:0:0:
288,160,12346,1,0,0:0:0:0:
269,153,12751,1,0,0:0:0:0:
256,160,13157,1,0,0:0:0:0:
256,160,13359,1,8,0:0:0:0:
256,160,13765,1,8,0:0:0:0:
288,128,13967,1,8,0:0:0:0:
288,128,14170,1,8,0:0:0:0:
288,128,14373,1,8,0:0:0:0:
264,184,14778,1,0,0:0:0:0:
264,184,14981,1,8,0:0:0:0:
264,184,15184,1,0,0:0:0:0:
264,184,15386,1,8,0:0:0:0:
272,176,15589,1,0,0:0:0:0:
276,168,15994,1,8,0:0:0:0:
256,160,16096,1,8,0:0:0:0:
256,160,16197,1,8,0:0:0:0:
284,176,16400,1,0,0:0:0:0:
284,172,16602,1,8,0:0:0:0:
284,172,17008,1,0,0:0:0:0:
263,152,17211,1,0,0:0:0:0:
272,160,17413,1,8,0:0:0:0:
260,152,18021,1,0,0:0:0:0:
260,152,18224,1,8,0:0:0:0:
260,152,18427,1,8,0:0:0:0:
288,160,18630,1,8,0:0:0:0:
288,160,18832,1,0,0:0:0:0:
288,160,19238,1,4,0:0:0:0:
256,160,19643,1,12,0:0:0:0:
256,160,19846,1,12,0:0:0:0:
256,192,20251,1,0,0:0:0:0:
288,128,20657,1,8,0:0:0:0:
288,128,20859,1,0,0:0:0:0:
288,160,21062,1,12,0:0:0:0:
448,64,21467,1,8,0:0:0:0:
64,64,21873,1,0,0:0:0:0:
256,128,22278,1,8,0:0:0:0:
256,128,22684,1,0,0:0:0:0:
256,128,22886,1,8,0:0:0:0:
256,128,23089,1,0,0:0:0:0:
256,128,23494,1,8,0:0:0:0:
256,128,23697,1,0,0:0:0:0:
256,160,23900,1,8,0:0:0:0:
256,128,24102,1,8,0:0:0:0:
256,128,24305,1,0,0:0:0:0:
259,124,24711,1,8,0:0:0:0:
256,128,25116,1,8,0:0:0:0:
256,128,25319,1,0,0:0:0:0:
256,128,25724,1,8,0:0:0:0:
224,128,26332,1,8,0:0:0:0:
256,128,26738,1,8,0:0:0:0:
256,128,27143,1,8,0:0:0:0:
256,128,27548,5,8,0:0:0:0:
256,128,27751,1,0,0:0:0:0:
288,96,27954,5,8,0:0:0:0:
288,96,28359,1,8,0:0:0:0:
256,128,28967,1,8,0:0:0:0:
256,128,29373,1,8,0:0:0:0:
256,128,29575,1,0,0:0:0:0:
256,128,29981,1,8,0:0:0:0:
256,128,30184,1,8,0:0:0:0:
256,128,30386,1,0,0:0:0:0:
247,159,30589,1,8,0:0:0:0:
256,128,30792,1,0,0:0:0:0:
256,128,31197,1,8,0:0:0:0:
448,64,31602,1,8,0:0:0:0:
64,64,31805,1,0,0:0:0:0:
256,128,32211,1,8,0:0:0:0:
256,128,32616,1,8,0:0:0:0:
256,128,32819,1,8,0:0:0:0:
243,137,33224,1,8,0:0:0:0:
256,128,33325,1,8,0:0:0:0:
224,128,33630,1,8,0:0:0:0:
224,128,33832,1,8,0:0:0:0:
256,128,34035,1,4,0:0:0:0:
256,160,34440,1,8,0:0:0:0:
64,64,34846,1,0,0:0:0:0:
256,160,35251,1,8,0:0:0:0:
256,192,35454,1,0,0:0:0:0:
224,160,35859,1,0,0:0:0:0:
256,192,36062,1,8,0:0:0:0:
256,160,36467,1,0,0:0:0:0:
256,160,36670,1,0,0:0:0:0:
256,160,36873,1,8,0:0:0:0:
256,192,37075,1,0,0:0:0:0:
256,192,37278,1,0,0:0:0:0:
256,192,37684,1,8,0:0:0:0:
256,160,37886,1,8,0:0:0:0:
247,179,38089,1,0,0:0:0:0:
256,128,38292,1,8,0:0:0:0:
224,192,38697,1,0,0:0:0:0:
224,192,39102,1,8,0:0:0:0:
224,192,39305,1,8,0:0:0:0:
224,192,39711,1,8,0:0:0:0:
192,192,39913,1,0,0:0:0:0:
192,192,40116,1,8,0:0:0:0:
192,192,40319,1,0,0:0:0:0:
224,192,40521,1,12,0:0:0:0:
224,160,40927,1,8,0:0:0:0:
224,160,41332,1,0,0:0:0:0:
256,160,41738,1,8,0:0:0:0:
256,192,41940,1,0,0:0:0:0:
224,160,42346,1,0,0:0:0:0:
256,192,42548,1,8,0:0:0:0:
256,160,42751,1,8,0:0:0:0:
256,160,42954,1,0,0:0:0:0:
256,160,43359,1,0,0:0:0:0:
256,160,43562,1,8,0:0:0:0:
256,192,43765,1,0,0:0:0:0:
273,172,43967,1,0,0:0:0:0:
256,192,44170,1,8,0:0:0:0:
256,160,44373,1,0,0:0:0:0:
256,160,44575,1,8,0:0:0:0:
256,128,44880,1,8,0:0:0:0:
224,160,45184,1,12,0:0:0:0:
256,160,45589,1,0,0:0:0:0:
256,160,45792,1,8,0:0:0:0:
256,160,46197,1,8,0:0:0:0:
256,192,46602,1,8,0:0:0:0:
237,174,46805,1,0,0:0:0:0:
256,160,47008,1,12,0:0:0:0:
256,160,47616,1,0,0:0:0:0:
256,160,47819,1,8,0:0:0:0:
256,160,48427,1,0,0:0:0:0:
256,160,48630,1,8,0:0:0:0:
256,160,48934,1,0,0:0:0:0:
256,160,49238,1,0,0:0:0:0:
256,160,49440,1,8,0:0:0:0:
256,160,49643,1,8,0:0:0:0:
256,160,49846,1,8,0:0:0:0:
256,160,50048,1,8,0:0:0:0:
256,160,50251,1,0,0:0:0:0:
288,160,50555,1,0,0:0:0:0:
288,160,50859,1,0,0:0:0:0:
288,160,51062,1,8,0:0:0:0:
448,64,51366,1,8,0:0:0:0:
448,64,51670,1,8,0:0:0:0:
64,64,51873,1,0,0:0:0:0:
288,160,52684,1,8,0:0:0:0:
288,160,52886,1,0,0:0:0:0:
288,160,53089,1,12,0:0:0:0:
288,160,53494,1,4,0:0:0:0:
288,160,53900,1,8,0:0:0:0:
288,160,54102,1,0,0:0:0:0:
288,160,54305,1,0,0:0:0:0:
288,160,54508,1,0,0:0:0:0:
288,160,54711,1,8,0:0:0:0:
288,160,54913,1,0,0:0:0:0:
288,160,55319,1,0,0:0:0:0:
288,160,55521,1,8,0:0:0:0:
288,160,55724,1,0,0:0:0:0:
320,160,55825,1,0,0:0:0:0:
288,160,55927,1,0,0:0:0:0:
288,160,56130,1,8,0:0:0:0:
288,160,56332,1,8,0:0:0:0:
64,64,56535,1,0,0:0:0:0:
288,160,56738,1,12,0:0:0:0:
288,160,57143,1,8,0:0:0:0:
288,160,57346,1,8,0:0:0:0:
288,160,57548,1,0,0:0:0:0:
288,160,57751,1,8,0:0:0:0:
288,160,57954,1,8,0:0:0:0:
64,320,58157,1,4,0:0:0:0:
320,160,58562,1,0,0:0:0:0:
320,160,58765,1,8,0:0:0:0:
320,160,58967,1,8,0:0:0:0:
448,320,59981,5,12,0:0:0:0:
256,192,60386,1,8,0:0:0:0:
224,160,60488,1,8,0:0:0:0:
256,192,60589,1,8,0:0:0:0:
247,180,60792,1,0,0:0:0:0:
256,192,60994,1,0,0:0:0:0:
256,192,61197,1,8,0:0:0:0:
224,192,61400,1,0,0:0:0:0:
249,184,61501,1,0,0:0:0:0:
224,192,61602,1,0,0:0:0:0:
253,165,61805,1,8,0:0:0:0:
224,192,62008,1,8,0:0:0:0:
448,64,62211,1,8,0:0:0:0:
224,192,62413,1,0,0:0:0:0:
256,192,62819,1,8,0:0:0:0:
256,192,63224,1,0,0:0:0:0:
224,192,63630,1,8,0:0:0:0:
224,192,63731,1,8,0:0:0:0:
256,192,63832,1,8,0:0:0:0:
256,192,64035,1,0,0:0:0:0:
256,192,64238,1,8,0:0:0:0:
256,192,64440,1,8,0:0:0:0:
256,192,64643,1,0,0:0:0:0:
256,192,64744,1,0,0:0:0:0:
224,192,64846,1,0,0:0:0:0:
448,64,65048,1,8,0:0:0:0:
256,160,65251,1,8,0:0:0:0:
448,64,65454,1,8,0:0:0:0:
256,192,65657,1,0,0:0:0:0:
256,192,66467,1,12,0:0:0:0:
256,192,66670,1,0,0:0:0:0:
256,192,66873,1,0,0:0:0:0:
256,192,67075,1,8,0:0:0:0:
256,192,67481,1,0,0:0:0:0:
256,192,67684,1,8,0:0:0:0:
192,192,67785,1,8,0:0:0:0:
256,192,67886,1,8,0:0:0:0:
256,192,68089,1,0,0:0:0:0:
256,192,68292,1,8,0:0:0:0:
256,192,68494,1,0,0:0:0:0:
256,192,68697,1,8,0:0:0:0:
256,192,68798,1,8,0:0:0:0:
256,192,68900,1,8,0:0:0:0:
256,192,69102,1,0,0:0:0:0:
256,192,69711,1,12,0:0:0:0:
224,192,70116,1,0,0:0:0:0:
224,192,70521,1,8,0:0:0:0:
224,192,70724,1,8,0:0:0:0:
256,192,70927,1,0,0:0:0:0:
256,192,71130,1,12,0:0:0:0:
256,192,71535,1,0,0:0:0:0:
256,192,71738,1,8,0:0:0:0:
64,64,71940,1,0,0:0:0:0:
256,192,72143,1,8,0:0:0:0:
256,192,72244,1,8,0:0:0:0:
256,192,72346,1,8,0:0:0:0:
224,192,72548,1,0,0:0:0:0:
224,192,72650,1,0,0:0:0:0:
224,192,72751,1,0,0:0:0:0:
256,192,72954,1,12,0:0:0:0:
256,192,73359,1,8,0:0:0:0:
256,192,73461,1,8,0:0:0:0:
256,192,73562,1,8,0:0:0:0:
256,192,73765,1,0,0:0:0:0:
224,192,73967,1,0,0:0:0:0:
224,192,74170,1,8,0:0:0:0:
256,192,74373,1,0,0:0:0:0:
256,192,74474,1,0,0:0:0:0:
256,192,74575,1,0,0:0:0:0:
448,64,74778,1,8,0:0:0:0:
64,64,74981,1,0,0:0:0:0:
226,181,75184,1,0,0:0:0:0:
448,64,75386,1,8,0:0:0:0:
256,192,75792,1,8,0:0:0:0:
256,192,76197,1,0,0:0:0:0:
256,192,76602,1,8,0:0:0:0:
224,192,76704,1,8,0:0:0:0:
256,192,76805,1,8,0:0:0:0:
256,192,77008,1,0,0:0:0:0:
224,192,77211,1,8,0:0:0:0:
256,192,77413,1,0,0:0:0:0:
256,192,77616,1,8,0:0:0:0:
256,192,77717,1,8,0:0:0:0:
224,192,77819,1,8,0:0:0:0:
256,160,78021,1,0,0:0:0:0:
256,160,78224,1,8,0:0:0:0:
256,192,78427,1,8,0:0:0:0:
256,192,78630,1,0,0:0:0:0:
256,192,79440,1,4,0:0:0:0:
256,192,79643,1,8,0:0:0:0:
64,64,79846,1,0,0:0:0:0:
256,192,80048,1,0,0:0:0:0:
256,192,80150,1,0,0:0:0:0:
256,192,80251,1,0,0:0:0:0:
448,64,80454,1,8,0:0:0:0:
64,64,80657,1,0,0:0:0:0:
448,64,81062,1,8,0:0:0:0:
256,192,81265,1,8,0:0:0:0:
64,64,81467,1,0,0:0:0:0:
256,192,81670,1,0,0:0:0:0:
256,192,81771,1,0,0:0:0:0:
256,192,81873,1,0,0:0:0:0:
256,192,82075,1,8,0:0:0:0:
256,192,82481,1,8,0:0:0:0:
256,192,82684,1,4,0:0:0:0:
256,192,83089,1,0,0:0:0:0:
224,192,83292,1,12,0:0:0:0:
224,192,83697,1,0,0:0:0:0:
256,192,83900,1,8,0:0:0:0:
256,192,84102,1,4,0:0:0:0:
256,192,84507,1,4,0:0:0:0:
256,192,84710,1,12,0:0:0:0:
256,192,84913,1,4,0:0:0:0:
256,192,85115,1,12,0:0:0:0:
256,192,85318,1,4,0:0:0:0:
256,192,85723,1,8,0:0:0:0:
256,192,85825,1,8,0:0:0:0:
256,192,85926,1,8,0:0:0:0:
256,192,86129,1,0,0:0:0:0:
256,192,86332,1,8,0:0:0:0:
256,192,86737,1,0,0:0:0:0:
64,64,86940,1,0,0:0:0:0:
256,192,87142,1,8,0:0:0:0:
260,152,87750,1,0,0:0:0:0:
260,152,87953,1,8,0:0:0:0:
260,152,88156,1,8,0:0:0:0:
288,160,88359,1,0,0:0:0:0:
288,160,88561,1,0,0:0:0:0:
269,161,88967,1,0,0:0:0:0:
256,160,89372,1,0,0:0:0:0:
256,160,89575,1,8,0:0:0:0:
256,160,89980,1,8,0:0:0:0:
288,128,90183,1,8,0:0:0:0:
288,128,90386,1,8,0:0:0:0:
288,128,90588,1,8,0:0:0:0:
264,184,90994,1,0,0:0:0:0:
264,184,91196,1,8,0:0:0:0:
264,184,91399,1,0,0:0:0:0:
264,184,91602,1,8,0:0:0:0:
272,176,91805,1,0,0:0:0:0:
276,168,92210,1,8,0:0:0:0:
256,160,92311,1,8,0:0:0:0:
256,160,92413,1,8,0:0:0:0:
284,176,92615,1,0,0:0:0:0:
284,172,92818,1,0,0:0:0:0:
284,172,93223,1,0,0:0:0:0:
64,64,93426,1,0,0:0:0:0:
272,160,93629,1,8,0:0:0:0:
260,152,94237,1,0,0:0:0:0:
260,152,94440,1,0,0:0:0:0:
260,152,94642,1,8,0:0:0:0:
288,160,94845,1,8,0:0:0:0:
288,160,95048,1,0,0:0:0:0:
288,160,95453,1,4,0:0:0:0:
256,160,95859,1,12,0:0:0:0:
256,160,96061,1,12,0:0:0:0:
256,160,96467,1,0,0:0:0:0:
288,128,96872,1,8,0:0:0:0:
288,128,97075,1,0,0:0:0:0:
288,160,97277,1,12,0:0:0:0:
288,160,97683,1,0,0:0:0:0:
288,160,98088,1,8,0:0:0:0:
288,160,98494,1,0,0:0:0:0:
288,160,98696,1,8,0:0:0:0:
288,160,99102,1,0,0:0:0:0:
288,160,99304,1,8,0:0:0:0:
288,160,99710,1,8,0:0:0:0:
288,160,99913,1,8,0:0:0:0:
288,160,100115,1,0,0:0:0:0:
256,160,100318,1,0,0:0:0:0:
288,160,100521,1,8,0:0:0:0:
288,160,100926,1,8,0:0:0:0:
288,160,101332,1,0,0:0:0:0:
288,160,101534,1,8,0:0:0:0:
288,192,101940,1,8,0:0:0:0:
288,160,103156,1,8,0:0:0:0:
288,160,103359,1,8,0:0:0:0:
288,160,103561,1,8,0:0:0:0:
288,160,103764,1,4,0:0:0:0:
288,160,104169,1,8,0:0:0:0:
288,160,104575,1,8,0:0:0:0:
288,160,104980,1,8,0:0:0:0:
288,160,105183,1,0,0:0:0:0:
288,160,105588,1,0,0:0:0:0:
288,128,105791,1,8,0:0:0:0:
288,160,105994,1,8,0:0:0:0:
288,160,106196,1,0,0:0:0:0:
288,160,106602,1,8,0:0:0:0:
320,160,106804,1,8,0:0:0:0:
320,160,107007,1,0,0:0:0:0:
288,160,107413,1,8,0:0:0:0:
288,160,107818,1,0,0:0:0:0:
288,160,108122,1,8,0:0:0:0:
288,128,108223,1,8,0:0:0:0:
288,160,108426,1,4,0:0:0:0:
288,160,108832,1,0,0:0:0:0:
256,192,109034,1,8,0:0:0:0:
64,64,109237,1,0,0:0:0:0:
448,64,109440,1,8,0:0:0:0:
448,64,109642,1,8,0:0:0:0:
256,160,109845,1,8,0:0:0:0:
256,160,110048,1,0,0:0:0:0:
224,160,110250,1,12,0:0:0:0:
224,160,110859,1,0,0:0:0:0:
224,160,111061,1,8,0:0:0:0:
224,160,111669,1,0,0:0:0:0:
224,160,111872,1,8,0:0:0:0:
224,160,112176,1,0,0:0:0:0:
224,160,112480,1,0,0:0:0:0:
224,160,112683,1,8,0:0:0:0:
224,128,112886,1,8,0:0:0:0:
224,160,113088,1,8,0:0:0:0:
224,160,113291,1,8,0:0:0:0:
224,160,113494,1,0,0:0:0:0:
192,160,113798,1,0,0:0:0:0:
224,160,114102,1,0,0:0:0:0:
224,160,114304,1,8,0:0:0:0:
448,64,114609,1,8,0:0:0:0:
448,64,114913,1,8,0:0:0:0:
64,64,115115,1,0,0:0:0:0:
224,160,115926,1,8,0:0:0:0:
192,128,116129,1,0,0:0:0:0:
224,160,116332,1,12,0:0:0:0:
224,160,116737,1,4,0:0:0:0:
224,160,117142,1,0,0:0:0:0:
224,160,117345,1,8,0:0:0:0:
224,160,117548,1,0,0:0:0:0:
224,160,117750,1,0,0:0:0:0:
224,160,117953,1,8,0:0:0:0:
224,160,118156,1,8,0:0:0:0:
224,160,118561,1,0,0:0:0:0:
239,213,118764,1,8,0:0:0:0:
224,160,118967,1,0,0:0:0:0:
224,192,119068,1,0,0:0:0:0:
224,160,119169,1,0,0:0:0:0:
224,160,119372,1,8,0:0:0:0:
224,160,119575,1,8,0:0:0:0:
224,160,119777,1,0,0:0:0:0:
192,160,119980,1,12,0:0:0:0:
224,160,120386,1,0,0:0:0:0:
216,161,120588,1,0,0:0:0:0:
192,160,120791,1,8,0:0:0:0:
220,165,120994,1,8,0:0:0:0:
199,164,121196,1,0,0:0:0:0:
224,160,121399,1,12,0:0:0:0:
224,160,121804,1,0,0:0:0:0:
224,160,122007,1,0,0:0:0:0:
224,160,122210,1,0,0:0:0:0:
224,160,123223,1,4,0:0:0:0:
256,192,123629,1,8,0:0:0:0:
224,160,123730,1,8,0:0:0:0:
224,192,123832,1,8,0:0:0:0:
256,192,124034,1,0,0:0:0:0:
256,192,124237,1,8,0:0:0:0:
256,192,124440,1,8,0:0:0:0:
224,192,124642,1,0,0:0:0:0:
224,192,124744,1,0,0:0:0:0:
224,192,124845,1,0,0:0:0:0:
224,192,125048,1,0,0:0:0:0:
224,192,125250,1,8,0:0:0:0:
224,192,125352,1,8,0:0:0:0:
224,192,125453,1,8,0:0:0:0:
224,192,125656,1,0,0:0:0:0:
160,64,125859,5,8,0:0:0:0:
256,192,126061,1,8,0:0:0:0:
448,64,126264,1,8,0:0:0:0:
256,192,126467,1,0,0:0:0:0:
224,192,126872,1,8,0:0:0:0:
224,192,126973,1,8,0:0:0:0:
256,192,127075,1,8,0:0:0:0:
256,192,127277,1,0,0:0:0:0:
256,192,127480,1,0,0:0:0:0:
256,192,127683,1,8,0:0:0:0:
256,192,127886,1,0,0:0:0:0:
256,192,127987,1,0,0:0:0:0:
224,192,128088,1,0,0:0:0:0:
256,160,128291,1,8,0:0:0:0:
256,160,128494,1,8,0:0:0:0:
256,192,128595,1,8,0:0:0:0:
256,192,128696,1,8,0:0:0:0:
256,192,128899,1,0,0:0:0:0:
256,192,129710,1,4,0:0:0:0:
256,192,129913,1,8,0:0:0:0:
256,192,130115,1,8,0:0:0:0:
256,192,130318,1,8,0:0:0:0:
256,192,130723,1,0,0:0:0:0:
256,192,130926,1,8,0:0:0:0:
256,192,131027,1,8,0:0:0:0:
256,192,131129,1,8,0:0:0:0:
256,192,131332,1,0,0:0:0:0:
64,64,131534,1,8,0:0:0:0:
448,64,131737,1,0,0:0:0:0:
64,64,131940,1,8,0:0:0:0:
448,64,132041,1,8,0:0:0:0:
448,64,132142,1,8,0:0:0:0:
256,192,132345,1,8,0:0:0:0:
256,192,132953,1,12,0:0:0:0:
224,192,133359,1,0,0:0:0:0:
224,192,133764,1,8,0:0:0:0:
224,192,133967,1,0,0:0:0:0:
256,192,134169,1,8,0:0:0:0:
256,192,134372,1,12,0:0:0:0:
256,192,134777,1,0,0:0:0:0:
256,192,134980,1,8,0:0:0:0:
256,192,135183,1,0,0:0:0:0:
256,192,135386,1,8,0:0:0:0:
256,192,135487,1,8,0:0:0:0:
256,192,135588,1,8,0:0:0:0:
224,192,135791,1,0,0:0:0:0:
224,192,135892,1,0,0:0:0:0:
224,192,135994,1,0,0:0:0:0:
256,192,136196,1,12,0:0:0:0:
256,192,136602,1,8,0:0:0:0:
224,160,136703,1,8,0:0:0:0:
224,192,136804,1,8,0:0:0:0:
256,192,137007,1,0,0:0:0:0:
256,192,137210,1,8,0:0:0:0:
256,192,137413,1,8,0:0:0:0:
224,192,137615,1,0,0:0:0:0:
224,192,137717,1,0,0:0:0:0:
224,192,137818,1,0,0:0:0:0:
224,192,138021,1,0,0:0:0:0:
224,192,138223,1,8,0:0:0:0:
224,192,138325,1,8,0:0:0:0:
224,192,138426,1,8,0:0:0:0:
224,192,138629,1,0,0:0:0:0:
448,64,138832,1,8,0:0:0:0:
243,185,139034,1,8,0:0:0:0:
448,64,139237,1,8,0:0:0:0:
256,192,139440,1,0,0:0:0:0:
224,192,139845,1,8,0:0:0:0:
224,192,139946,1,8,0:0:0:0:
256,192,140048,1,8,0:0:0:0:
256,192,140250,1,0,0:0:0:0:
256,192,140453,1,0,0:0:0:0:
256,192,140656,1,8,0:0:0:0:
256,192,140859,1,0,0:0:0:0:
256,192,140960,1,0,0:0:0:0:
224,192,141061,1,0,0:0:0:0:
256,160,141264,1,0,0:0:0:0:
256,160,141467,1,8,0:0:0:0:
256,192,141568,1,8,0:0:0:0:
256,192,141669,1,8,0:0:0:0:
256,192,141872,1,0,0:0:0:0:
256,192,142683,1,12,0:0:0:0:
256,192,142886,1,0,0:0:0:0:
256,192,143088,1,8,0:0:0:0:
256,192,143291,1,8,0:0:0:0:
256,192,143392,1,8,0:0:0:0:
256,192,143494,1,8,0:0:0:0:
256,192,143696,1,0,0:0:0:0:
256,192,143899,1,8,0:0:0:0:
256,192,144304,1,0,0:0:0:0:
256,192,144507,1,0,0:0:0:0:
256,192,144710,1,8,0:0:0:0:
256,192,144913,1,8,0:0:0:0:
242,186,145014,1,8,0:0:0:0:
242,186,145115,1,8,0:0:0:0:
256,192,145318,1,0,0:0:0:0:
64,64,145723,1,0,0:0:0:0:
448,320,145926,1,12,0:0:0:0:
256,192,146332,1,8,0:0:0:0:
224,192,146534,1,4,0:0:0:0:
224,192,146940,1,0,0:0:0:0:
256,192,147142,1,8,0:0:0:0:
256,192,147345,1,4,0:0:0:0:
256,192,147548,5,12,0:0:0:0:
256,192,150588,5,0,0:0:0:0:
256,192,150791,5,4,0:0:0:0:
448,64,153426,5,8,0:0:0:0:
448,64,153730,1,8,0:0:0:0:
256,192,154034,1,4,0:0:0:0:
251,200,154439,1,0,0:0:0:0:
251,199,154642,1,0,0:0:0:0:
251,199,154845,1,0,0:0:0:0:
259,198,155250,1,8,0:0:0:0:
259,198,155453,1,0,0:0:0:0:
259,198,155656,1,0,0:0:0:0:
254,201,156061,1,8,0:0:0:0:
254,201,156264,1,8,0:0:0:0:
254,201,156466,1,0,0:0:0:0:
258,199,156872,1,8,0:0:0:0:
236,182,157277,1,4,0:0:0:0:
256,192,157683,1,0,0:0:0:0:
256,192,157885,1,0,0:0:0:0:
256,192,158088,1,0,0:0:0:0:
320,192,158493,1,8,0:0:0:0:
320,192,158696,1,0,0:0:0:0:
320,192,158899,1,0,0:0:0:0:
320,192,159304,1,8,0:0:0:0:
320,192,159507,1,8,0:0:0:0:
320,192,159710,1,0,0:0:0:0:
288,192,159912,1,8,0:0:0:0:
288,192,160216,1,8,0:0:0:0:
64,320,160520,1,4,0:0:0:0:
320,192,160926,1,8,0:0:0:0:
320,192,161230,1,8,0:0:0:0:
320,192,161534,1,8,0:0:0:0:
320,192,161737,1,8,0:0:0:0:
64,320,162142,1,4,0:0:0:0:
320,192,162548,5,8,0:0:0:0:
320,192,162852,1,8,0:0:0:0:
288,192,163156,1,8,0:0:0:0:
320,192,163358,1,8,0:0:0:0:
448,64,163460,1,8,0:0:0:0:
320,192,163561,1,8,0:0:0:0:
64,320,163764,1,4,0:0:0:0:
320,192,164372,1,4,0:0:0:0:
320,192,164980,1,12,0:0:0:0:
320,192,165588,1,12,0:0:0:0:
320,192,166196,1,4,0:0:0:0:
320,192,167007,1,12,0:0:0:0:
320,192,167615,1,8,0:0:0:0:
320,192,167818,1,8,0:0:0:0:
448,64,168020,1,8,0:0:0:0:
288,192,168223,1,0,0:0:0:0:
256,192,168629,1,12,0:0:0:0:
256,192,169034,1,0,0:0:0:0:
256,192,169439,1,12,0:0:0:0:
256,192,169845,1,4,0:0:0:0:
256,192,170250,1,12,0:0:0:0:
256,192,171061,1,12,0:0:0:0:
256,192,171466,1,0,0:0:0:0:
256,192,171872,1,12,0:0:0:0:
256,192,172277,1,0,0:0:0:0:
64,320,172683,1,4,0:0:0:0:
256,192,172987,1,12,0:0:0:0:
256,192,173291,1,12,0:0:0:0:
256,192,173899,1,4,0:0:0:0:
256,192,174102,1,8,0:0:0:0:
256,192,174507,1,8,0:0:0:0:
256,192,174710,1,8,0:0:0:0:
256,192,174811,1,8,0:0:0:0:
256,192,174912,1,8,0:0:0:0:
256,192,175115,1,0,0:0:0:0:
256,192,175318,1,0,0:0:0:0:
256,192,175520,1,8,0:0:0:0:
256,192,175723,1,0,0:0:0:0:
256,192,175825,1,0,0:0:0:0:
256,192,175926,1,0,0:0:0:0:
256,192,176129,1,8,0:0:0:0:
256,192,176737,1,12,0:0:0:0:
224,192,177142,1,8,0:0:0:0:
256,192,177345,1,0,0:0:0:0:
224,192,177547,1,8,0:0:0:0:
256,192,177649,1,8,0:0:0:0:
256,192,177750,1,8,0:0:0:0:
256,192,177953,1,0,0:0:0:0:
256,192,178156,1,12,0:0:0:0:
256,192,178561,1,0,0:0:0:0:
256,192,178764,1,8,0:0:0:0:
256,192,178966,1,0,0:0:0:0:
256,192,179169,1,8,0:0:0:0:
256,192,179270,1,8,0:0:0:0:
256,192,179372,1,8,0:0:0:0:
224,192,179575,1,0,0:0:0:0:
224,192,179676,1,0,0:0:0:0:
224,192,179777,1,0,0:0:0:0:
256,192,179980,1,12,0:0:0:0:
256,192,180385,1,8,0:0:0:0:
224,192,180487,1,8,0:0:0:0:
224,192,180588,1,8,0:0:0:0:
256,192,180791,1,0,0:0:0:0:
224,192,180993,1,8,0:0:0:0:
224,192,181196,1,8,0:0:0:0:
448,64,181399,1,0,0:0:0:0:
448,64,181500,1,0,0:0:0:0:
256,192,181602,1,0,0:0:0:0:
256,192,181804,1,8,0:0:0:0:
256,192,182007,1,8,0:0:0:0:
256,192,182108,1,8,0:0:0:0:
257,176,182210,1,8,0:0:0:0:
256,192,182412,1,0,0:0:0:0:
448,64,182615,1,8,0:0:0:0:
256,192,182818,1,8,0:0:0:0:
448,64,183020,1,8,0:0:0:0:
256,192,183223,1,0,0:0:0:0:
256,192,183629,1,8,0:0:0:0:
288,192,183730,1,8,0:0:0:0:
288,192,183831,1,8,0:0:0:0:
256,192,184034,1,0,0:0:0:0:
256,192,184237,1,8,0:0:0:0:
256,192,184439,1,8,0:0:0:0:
256,192,184642,1,0,0:0:0:0:
256,192,184743,1,0,0:0:0:0:
224,192,184845,1,0,0:0:0:0:
448,64,185047,1,8,0:0:0:0:
256,160,185250,1,8,0:0:0:0:
256,192,185352,1,8,0:0:0:0:
256,192,185453,1,8,0:0:0:0:
256,192,185656,1,0,0:0:0:0:
256,192,186466,1,12,0:0:0:0:
256,192,186669,1,0,0:0:0:0:
256,192,186872,1,0,0:0:0:0:
256,192,187075,1,8,0:0:0:0:
192,192,187176,1,8,0:0:0:0:
256,192,187277,1,8,0:0:0:0:
448,64,187480,1,0,0:0:0:0:
256,192,187683,1,8,0:0:0:0:
256,192,188088,1,0,0:0:0:0:
256,192,188291,1,0,0:0:0:0:
256,192,188493,1,8,0:0:0:0:
256,192,188696,1,0,0:0:0:0:
256,192,188797,1,0,0:0:0:0:
256,192,188899,1,0,0:0:0:0:
256,192,189102,1,8,0:0:0:0:
64,64,189507,1,8,0:0:0:0:
256,192,189710,1,4,0:0:0:0:
256,192,190115,1,0,0:0:0:0:
224,192,190318,1,12,0:0:0:0:
224,192,190723,1,0,0:0:0:0:
448,64,190926,1,8,0:0:0:0:
256,192,191129,1,4,0:0:0:0:
256,160,191533,1,4,0:0:0:0:
256,160,191736,1,12,0:0:0:0:
256,160,191939,1,4,0:0:0:0:
256,160,192141,1,12,0:0:0:0:
256,160,192344,1,4,0:0:0:0:
256,128,192749,1,8,0:0:0:0:
256,160,192851,1,8,0:0:0:0:
256,128,192952,1,8,0:0:0:0:
256,128,193155,1,0,0:0:0:0:
256,160,193358,1,8,0:0:0:0:
256,160,193560,1,8,0:0:0:0:
256,128,193763,1,0,0:0:0:0:
255,147,193966,1,0,0:0:0:0:
256,160,194168,1,8,0:0:0:0:
256,128,194776,1,0,0:0:0:0:
256,128,194979,1,8,0:0:0:0:
288,128,195182,1,8,0:0:0:0:
256,128,195385,1,0,0:0:0:0:
288,128,195587,1,0,0:0:0:0:
288,128,195993,1,4,0:0:0:0:
288,128,196398,1,0,0:0:0:0:
288,128,196601,1,8,0:0:0:0:
288,128,196803,1,0,0:0:0:0:
288,128,197006,1,8,0:0:0:0:
288,128,197209,1,8,0:0:0:0:
288,128,197412,1,8,0:0:0:0:
288,128,197614,1,8,0:0:0:0:
288,128,198020,1,12,0:0:0:0:
288,128,198222,1,4,0:0:0:0:
288,128,198425,1,12,0:0:0:0:
288,128,198628,1,4,0:0:0:0:
288,128,198831,1,12,0:0:0:0:
256,128,199236,1,0,0:0:0:0:
256,160,199337,1,0,0:0:0:0:
256,128,199439,1,0,0:0:0:0:
256,128,199641,1,8,0:0:0:0:
256,160,199844,1,0,0:0:0:0:
256,160,200047,1,0,0:0:0:0:
256,128,200249,1,8,0:0:0:0:
256,128,200452,1,8,0:0:0:0:
256,160,200655,1,0,0:0:0:0:
256,128,201263,1,8,0:0:0:0:
256,128,201466,1,0,0:0:0:0:
288,128,201668,1,0,0:0:0:0:
256,128,201871,1,8,0:0:0:0:
288,128,202074,1,8,0:0:0:0:
288,128,202479,1,12,0:0:0:0:
288,128,202885,1,8,0:0:0:0:
288,128,203087,1,8,0:0:0:0:
448,64,203493,1,0,0:0:0:0:
421,79,203594,1,0,0:0:0:0:
388,99,203695,1,0,0:0:0:0:
288,128,203898,1,12,0:0:0:0:
288,128,204101,1,12,0:0:0:0:
288,128,204709,1,4,0:0:0:0:
256,192,205114,12,0,209168,0:0:0:0:
