osu file format v14

[General]
AudioFilename: audio.mp3
AudioLeadIn: 0
PreviewTime: 59171
Countdown: 0
SampleSet: Normal
StackLeniency: 0.7
Mode: 1
LetterboxInBreaks: 0
WidescreenStoryboard: 1

[Editor]
Bookmarks: 146900
DistanceSpacing: 0.8
BeatDivisor: 4
GridSize: 32
TimelineZoom: 1.3

[Metadata]
Title:Round off the Square Earth
TitleUnicode:四角い地球を丸くする
Artist:TOKOTOKO(NishizawasanP) feat. Hatsune Miku
ArtistUnicode:TOKOTOKO(西沢さんP) feat. 初音ミク
Creator:SN707
Version:Futsuu
Source:SNOW MIKU 2018
Tags:pop rock japanese vocaloid karent 雪ミク jpop j-pop jrock j-rock ボーカロイド ボカロ Shikakui Chikyuu o Maruku suru
BeatmapID:4409394
BeatmapSetID:2101848

[Difficulty]
HPDrainRate:7
CircleSize:5
OverallDifficulty:3.9
ApproachRate:5
SliderMultiplier:1.4
SliderTickRate:1

[Events]
//Background and Video events
0,0,"710.jpg",0,90
Video,-80,"output.mp4"
//Break Periods
//Storyboard Layer 0 (Background)
//Storyboard Layer 1 (Fail)
//Storyboard Layer 2 (Pass)
//Storyboard Layer 3 (Foreground)
//Storyboard Layer 4 (Overlay)
//Storyboard Sound Samples

[TimingPoints]
1603,405.405405405405,4,1,0,70,1,0
1603,-100,4,1,0,70,0,0
8258,-100,4,1,0,80,0,0
11501,-100,4,1,0,80,0,0
14744,-100,4,1,0,80,0,0
17987,-100,4,1,0,80,0,0
19204,-100,4,1,0,80,0,0
19609,-100,4,1,0,80,0,0
20217,-100,4,1,0,80,0,0
20623,-100,4,1,0,80,0,0
20724,-100,4,1,0,80,0,0
20825,-100,4,1,0,80,0,0
21028,-100,4,1,0,80,0,0
21434,-100,4,1,0,70,0,0
26298,-100,4,1,0,70,0,0
26705,-100,4,1,0,70,0,0
27110,-100,4,1,0,70,0,0
27515,-100,4,1,0,70,0,0
31163,-100,4,1,0,70,0,0
31568,-100,4,1,0,70,0,0
31771,-100,4,1,0,70,0,0
32177,-100,4,1,0,70,0,0
32379,-100,4,1,0,70,0,0
32582,-100,4,1,0,70,0,0
32785,-100,4,1,0,70,0,0
33190,-100,4,1,0,70,0,0
33291,-100,4,1,0,70,0,0
33596,-100,4,1,0,70,0,0
33799,-100,4,1,0,70,0,0
34001,-100,4,1,0,70,0,0
43731,-100,4,1,0,70,0,0
43833,-100,4,1,0,70,0,0
43934,-100,4,1,0,70,0,0
44137,-100,4,1,0,70,0,0
44237,-100,4,1,0,70,0,0
44339,-100,4,1,0,70,0,0
44541,-100,4,1,0,70,0,0
44846,-100,4,1,0,70,0,0
45150,-100,4,1,0,70,0,0
45352,-100,4,1,0,70,0,0
45550,-100,4,1,0,70,0,0
45753,-100,4,1,0,70,0,0
46158,-100,4,1,0,70,0,0
46259,-100,4,1,0,70,0,0
46361,-100,4,1,0,70,0,0
46563,-100,4,1,0,70,0,0
46665,-100,4,1,0,70,0,0
46766,-100,4,1,0,70,0,0
46969,-100,4,1,0,70,0,0
53461,-100,4,1,0,80,0,0
56704,-100,4,1,0,80,0,0
57109,-100,4,1,0,80,0,0
57210,-100,4,1,0,80,0,0
57312,-100,4,1,0,80,0,0
57514,-100,4,1,0,80,0,0
57717,-100,4,1,0,80,0,0
57818,-100,4,1,0,80,0,0
57920,-100,4,1,0,80,0,0
58123,-100,4,1,0,80,0,0
59947,-100,4,1,0,90,0,0
59981,-100,4,1,0,90,0,1
66434,-100,4,1,0,90,0,1
71298,-100,4,1,0,90,0,1
71501,-100,4,1,0,90,0,1
71704,-100,4,1,0,90,0,1
71805,-100,4,1,0,90,0,1
71906,-100,4,1,0,90,0,1
72008,-100,4,1,0,90,0,1
72109,-100,4,1,0,90,0,1
72210,-100,4,1,0,90,0,1
72312,-100,4,1,0,90,0,1
72413,-100,4,1,0,90,0,1
72514,-100,4,1,0,90,0,1
72616,-100,4,1,0,90,0,1
72717,-100,4,1,0,90,0,1
72920,-100,4,1,0,90,0,1
79407,-100,4,1,0,90,0,1
82650,-100,4,1,0,90,0,1
83055,-100,4,1,0,90,0,1
83258,-100,4,1,0,90,0,1
83663,-100,4,1,0,90,0,1
84069,-100,4,1,0,90,0,1
84102,-100,4,1,0,80,0,0
84305,405.405405405405,4,1,0,80,1,0
87717,-100,4,1,0,80,0,0
90960,-100,4,1,0,80,0,0
94203,-100,4,1,0,80,0,0
95420,-100,4,1,0,80,0,0
95825,-100,4,1,0,80,0,0
96434,-100,4,1,0,80,0,0
96840,-100,4,1,0,80,0,0
96941,-100,4,1,0,80,0,0
97042,-100,4,1,0,80,0,0
97245,-100,4,1,0,80,0,0
97650,-100,4,1,0,80,0,0
102109,-100,4,1,0,70,0,0
102312,-100,4,1,0,70,0,0
102413,-100,4,1,0,70,0,0
102514,-100,4,1,0,70,0,0
102920,-100,4,1,0,70,0,0
106974,-100,4,1,0,70,0,0
107379,-100,4,1,0,70,0,0
107785,-100,4,1,0,70,0,0
108089,-100,4,1,0,70,0,0
108190,-100,4,1,0,70,0,0
108393,-100,4,1,0,70,0,0
108596,-100,4,1,0,70,0,0
108798,-100,4,1,0,70,0,0
109001,-100,4,1,0,70,0,0
109102,-100,4,1,0,70,0,0
109204,-100,4,1,0,70,0,0
109305,-100,4,1,0,70,0,0
109406,-100,4,1,0,70,0,0
109508,-100,4,1,0,70,0,0
109609,-100,4,1,0,70,0,0
109812,-100,4,1,0,70,0,0
109913,-100,4,1,0,70,0,0
110014,-100,4,1,0,70,0,0
110217,-100,4,1,0,70,0,0
116298,-100,4,1,0,70,0,0
116704,-100,4,1,0,80,0,0
119947,-100,4,1,0,80,0,0
120352,-100,4,1,0,80,0,0
120555,-100,4,1,0,80,0,0
120656,-100,4,1,0,80,0,0
120758,-100,4,1,0,80,0,0
120960,-100,4,1,0,80,0,0
121163,-100,4,1,0,80,0,0
121366,-100,4,1,0,80,0,0
123190,-100,4,1,0,90,0,0
123223,-100,4,1,0,90,0,1
129677,-100,4,1,0,90,0,1
134542,-100,4,1,0,90,0,1
134745,-100,4,1,0,90,0,1
134948,-100,4,1,0,90,0,1
135049,-100,4,1,0,90,0,1
135150,-100,4,1,0,90,0,1
135252,-100,4,1,0,90,0,1
135353,-100,4,1,0,90,0,1
135454,-100,4,1,0,90,0,1
135556,-100,4,1,0,90,0,1
135657,-100,4,1,0,90,0,1
135758,-100,4,1,0,90,0,1
135860,-100,4,1,0,90,0,1
135961,-100,4,1,0,90,0,1
136163,-100,4,1,0,90,0,1
142650,-100,4,1,0,90,0,1
145893,-100,4,1,0,90,0,1
146298,-100,4,1,0,90,0,1
146501,-100,4,1,0,90,0,1
146907,-100,4,1,0,90,0,1
147312,-100,4,1,0,90,0,1
147548,405.405405405405,4,1,0,90,1,0
147548,-100,4,1,0,90,0,0
147582,-100,4,1,0,70,0,0
150555,-100,4,1,0,80,0,0
150825,-100,4,1,0,70,0,0
153393,-100,4,1,0,75,0,0
154407,-100,4,1,0,75,0,0
159677,-100,4,1,0,75,0,0
159879,-100,4,1,0,75,0,0
160183,-100,4,1,0,75,0,0
160487,-100,4,1,0,75,0,0
163325,-100,4,1,0,75,0,0
163427,-100,4,1,0,75,0,0
163528,-100,4,1,0,75,0,0
163630,-100,4,1,0,75,0,0
163731,-100,4,1,0,75,0,0
164339,-100,4,1,0,75,0,0
164947,-100,4,1,0,75,0,0
165555,-100,4,1,0,75,0,0
166163,-100,4,1,0,75,0,0
166974,-100,4,1,0,75,0,0
167582,-100,4,1,0,75,0,0
168596,-100,4,1,0,75,0,0
169001,-100,4,1,0,75,0,0
169407,-100,4,1,0,75,0,0
169812,-100,4,1,0,75,0,0
170217,-100,4,1,0,75,0,0
171028,-100,4,1,0,75,0,0
171433,-100,4,1,0,75,0,0
171839,-100,4,1,0,75,0,0
172244,-100,4,1,0,75,0,0
172649,-100,4,1,0,75,0,0
172954,-100,4,1,0,75,0,0
173258,-100,4,1,0,75,0,0
173461,-100,4,1,0,75,0,0
173866,-100,4,1,0,90,0,0
173899,-100,4,1,0,90,0,1
178325,-100,4,1,0,90,0,1
178528,-100,4,1,0,90,0,1
178731,-100,4,1,0,90,0,1
178832,-100,4,1,0,90,0,1
178933,-100,4,1,0,90,0,1
179035,-100,4,1,0,90,0,1
179136,-100,4,1,0,90,0,1
179237,-100,4,1,0,90,0,1
179339,-100,4,1,0,90,0,1
179440,-100,4,1,0,90,0,1
179541,-100,4,1,0,90,0,1
179643,-100,4,1,0,90,0,1
179744,-100,4,1,0,90,0,1
179947,-100,4,1,0,90,0,1
186434,-100,4,1,0,90,0,1
189677,-100,4,1,0,90,0,1
190082,-100,4,1,0,90,0,1
190285,-100,4,1,0,90,0,1
190690,-100,4,1,0,90,0,1
191096,-100,4,1,0,90,0,1
191129,-100,4,1,0,80,0,0
191331,405.405405405405,4,1,0,80,1,0
194744,-100,4,1,0,80,0,0
197987,-100,4,1,0,80,0,0
201230,-100,4,1,0,80,0,0
205082,-100,4,1,0,80,0,0
205893,-100,4,1,0,80,0,0
207514,-100,4,1,0,80,0,0
209136,-100,4,1,0,80,0,0

[HitObjects]
264,184,8292,5,4,0:0:0:0:
264,184,8494,1,12,0:0:0:0:
272,176,8900,1,12,0:0:0:0:
276,168,9508,1,8,0:0:0:0:
256,160,9913,1,0,0:0:0:0:
284,172,10116,1,8,0:0:0:0:
284,172,10521,1,0,0:0:0:0:
272,160,10724,1,0,0:0:0:0:
272,160,10927,1,8,0:0:0:0:
260,152,11535,1,0,0:0:0:0:
260,152,11738,1,8,0:0:0:0:
288,160,12143,1,8,0:0:0:0:
288,160,12751,1,0,0:0:0:0:
256,160,13157,1,0,0:0:0:0:
256,160,13359,1,8,0:0:0:0:
256,160,13765,1,8,0:0:0:0:
288,128,14170,1,8,0:0:0:0:
264,184,14778,1,0,0:0:0:0:
264,184,14981,1,8,0:0:0:0:
264,184,15386,1,8,0:0:0:0:
276,168,15994,1,8,0:0:0:0:
284,176,16400,1,0,0:0:0:0:
284,172,16602,1,8,0:0:0:0:
284,172,17008,1,0,0:0:0:0:
255,220,17211,1,0,0:0:0:0:
272,160,17413,1,8,0:0:0:0:
260,152,18021,1,0,0:0:0:0:
260,152,18224,1,8,0:0:0:0:
288,160,18630,1,8,0:0:0:0:
288,160,19238,1,4,0:0:0:0:
256,160,19643,1,12,0:0:0:0:
256,160,19846,1,12,0:0:0:0:
288,160,21062,1,12,0:0:0:0:
64,64,21467,1,0,0:0:0:0:
64,64,21873,1,0,0:0:0:0:
448,64,22278,1,8,0:0:0:0:
256,128,22684,1,0,0:0:0:0:
256,128,22886,1,8,0:0:0:0:
256,128,23089,1,0,0:0:0:0:
256,128,23494,1,8,0:0:0:0:
64,64,23697,1,0,0:0:0:0:
448,64,23900,1,8,0:0:0:0:
64,64,24305,1,0,0:0:0:0:
448,64,24711,1,8,0:0:0:0:
448,64,25116,1,8,0:0:0:0:
64,64,25319,1,0,0:0:0:0:
256,128,25724,1,8,0:0:0:0:
224,128,26332,1,8,0:0:0:0:
256,128,26738,1,8,0:0:0:0:
256,128,27143,1,8,0:0:0:0:
256,128,27548,5,8,0:0:0:0:
256,128,27751,1,0,0:0:0:0:
288,96,27954,5,8,0:0:0:0:
288,96,28359,1,8,0:0:0:0:
256,128,28967,1,8,0:0:0:0:
256,128,29373,1,8,0:0:0:0:
256,128,29575,1,0,0:0:0:0:
256,128,29981,1,8,0:0:0:0:
256,128,30386,1,0,0:0:0:0:
256,128,30792,1,0,0:0:0:0:
256,128,31197,1,8,0:0:0:0:
448,64,31602,1,8,0:0:0:0:
64,64,31805,1,0,0:0:0:0:
256,128,32211,1,8,0:0:0:0:
256,128,32616,1,8,0:0:0:0:
256,128,32819,1,8,0:0:0:0:
262,127,33224,1,0,0:0:0:0:
256,128,34035,1,4,0:0:0:0:
256,160,34440,1,8,0:0:0:0:
256,160,34846,1,0,0:0:0:0:
256,160,35251,1,8,0:0:0:0:
256,192,35454,1,0,0:0:0:0:
224,160,35859,1,0,0:0:0:0:
256,192,36062,1,8,0:0:0:0:
256,160,36467,1,0,0:0:0:0:
256,160,36873,1,8,0:0:0:0:
256,192,37278,1,0,0:0:0:0:
256,192,37684,1,8,0:0:0:0:
256,160,38089,1,0,0:0:0:0:
256,128,38292,1,8,0:0:0:0:
224,192,38697,1,0,0:0:0:0:
224,192,39102,1,0,0:0:0:0:
224,192,39305,1,8,0:0:0:0:
224,192,39711,1,8,0:0:0:0:
192,192,40116,1,8,0:0:0:0:
224,192,40521,1,12,0:0:0:0:
224,160,40927,1,0,0:0:0:0:
224,160,41332,1,0,0:0:0:0:
256,160,41738,1,8,0:0:0:0:
256,192,41940,1,0,0:0:0:0:
224,160,42346,1,0,0:0:0:0:
256,192,42548,1,8,0:0:0:0:
64,64,42954,1,0,0:0:0:0:
256,160,43359,1,8,0:0:0:0:
256,160,43562,1,0,0:0:0:0:
256,192,43765,1,0,0:0:0:0:
256,192,44170,1,8,0:0:0:0:
256,160,44575,1,8,0:0:0:0:
224,160,45184,1,12,0:0:0:0:
256,160,45589,1,0,0:0:0:0:
256,160,45792,1,8,0:0:0:0:
256,160,46197,1,0,0:0:0:0:
256,160,47008,1,12,0:0:0:0:
256,160,47616,1,8,0:0:0:0:
256,160,47819,1,0,0:0:0:0:
256,160,48427,1,0,0:0:0:0:
256,160,48630,1,8,0:0:0:0:
256,160,49238,1,8,0:0:0:0:
256,160,49440,1,0,0:0:0:0:
256,160,49846,1,8,0:0:0:0:
256,160,50251,1,0,0:0:0:0:
288,160,50859,1,0,0:0:0:0:
288,160,51062,1,8,0:0:0:0:
288,160,51670,1,8,0:0:0:0:
64,64,51873,1,0,0:0:0:0:
288,160,52684,1,8,0:0:0:0:
288,160,52886,1,0,0:0:0:0:
288,160,53089,1,12,0:0:0:0:
288,160,53494,1,4,0:0:0:0:
288,160,53900,1,8,0:0:0:0:
288,160,54305,1,0,0:0:0:0:
288,160,54711,1,8,0:0:0:0:
288,160,54913,1,0,0:0:0:0:
64,64,55319,1,0,0:0:0:0:
288,160,55521,1,8,0:0:0:0:
288,160,55724,1,0,0:0:0:0:
288,160,56130,1,8,0:0:0:0:
289,168,56535,1,0,0:0:0:0:
288,160,56738,1,12,0:0:0:0:
288,160,57143,1,8,0:0:0:0:
288,160,57548,1,0,0:0:0:0:
288,160,57954,1,8,0:0:0:0:
288,160,58157,1,4,0:0:0:0:
320,160,58562,1,0,0:0:0:0:
320,160,58765,1,8,0:0:0:0:
320,160,58967,1,8,0:0:0:0:
448,320,59981,5,12,0:0:0:0:
256,192,60386,1,8,0:0:0:0:
256,192,60589,1,8,0:0:0:0:
259,156,60792,1,0,0:0:0:0:
256,192,61197,1,8,0:0:0:0:
224,192,61400,1,0,0:0:0:0:
253,165,61805,1,8,0:0:0:0:
224,192,62008,1,8,0:0:0:0:
224,192,62413,1,0,0:0:0:0:
256,192,62819,1,8,0:0:0:0:
256,192,63224,1,0,0:0:0:0:
224,192,63630,1,8,0:0:0:0:
256,192,63832,1,8,0:0:0:0:
236,190,64035,1,0,0:0:0:0:
256,192,64440,1,8,0:0:0:0:
256,192,64643,1,0,0:0:0:0:
448,64,65048,1,8,0:0:0:0:
256,160,65251,1,8,0:0:0:0:
252,186,65454,1,8,0:0:0:0:
256,192,65657,1,0,0:0:0:0:
256,192,66467,1,12,0:0:0:0:
64,64,66873,1,0,0:0:0:0:
448,64,67075,1,8,0:0:0:0:
256,192,67481,1,0,0:0:0:0:
256,192,67684,1,8,0:0:0:0:
256,192,68089,1,0,0:0:0:0:
256,192,68494,1,8,0:0:0:0:
256,192,68697,1,8,0:0:0:0:
256,192,69102,1,0,0:0:0:0:
256,192,69711,1,12,0:0:0:0:
224,192,70116,1,0,0:0:0:0:
224,192,70521,1,8,0:0:0:0:
224,192,70724,1,0,0:0:0:0:
256,192,71130,1,12,0:0:0:0:
256,192,71535,1,0,0:0:0:0:
256,192,71738,1,8,0:0:0:0:
256,192,72143,1,8,0:0:0:0:
224,192,72548,1,0,0:0:0:0:
224,192,72751,1,0,0:0:0:0:
256,192,72954,1,12,0:0:0:0:
256,192,73359,1,8,0:0:0:0:
256,192,73562,1,8,0:0:0:0:
256,192,73765,1,0,0:0:0:0:
224,192,74170,1,8,0:0:0:0:
256,192,74373,1,0,0:0:0:0:
256,192,74778,1,0,0:0:0:0:
256,192,74981,1,8,0:0:0:0:
256,192,75386,1,0,0:0:0:0:
256,192,75792,1,8,0:0:0:0:
256,192,76197,1,0,0:0:0:0:
256,192,76602,1,8,0:0:0:0:
256,192,76805,1,8,0:0:0:0:
256,192,77008,1,0,0:0:0:0:
256,192,77413,1,0,0:0:0:0:
256,192,77616,1,8,0:0:0:0:
256,160,78021,1,0,0:0:0:0:
256,160,78224,1,8,0:0:0:0:
256,192,78427,1,8,0:0:0:0:
256,192,78630,1,0,0:0:0:0:
256,192,79440,1,4,0:0:0:0:
256,192,79846,1,8,0:0:0:0:
256,192,80048,1,0,0:0:0:0:
256,192,80454,1,0,0:0:0:0:
256,192,80657,1,8,0:0:0:0:
256,192,81062,1,0,0:0:0:0:
256,192,81467,1,8,0:0:0:0:
256,192,81670,1,0,0:0:0:0:
256,192,82075,1,8,0:0:0:0:
64,320,82684,1,4,0:0:0:0:
224,192,83292,1,12,0:0:0:0:
256,192,84102,1,4,0:0:0:0:
256,192,84507,1,4,0:0:0:0:
256,192,84710,1,12,0:0:0:0:
256,192,85115,1,12,0:0:0:0:
256,192,85723,1,8,0:0:0:0:
256,192,86129,1,0,0:0:0:0:
256,192,86332,1,8,0:0:0:0:
256,192,86737,1,0,0:0:0:0:
256,192,86940,1,0,0:0:0:0:
256,192,87142,1,8,0:0:0:0:
260,152,87750,1,0,0:0:0:0:
260,152,87953,1,8,0:0:0:0:
288,160,88359,1,0,0:0:0:0:
288,160,88967,1,0,0:0:0:0:
256,160,89372,1,0,0:0:0:0:
256,160,89575,1,8,0:0:0:0:
256,160,89980,1,8,0:0:0:0:
288,128,90386,1,8,0:0:0:0:
264,184,90994,1,0,0:0:0:0:
264,184,91196,1,8,0:0:0:0:
264,184,91602,1,8,0:0:0:0:
276,168,92210,1,8,0:0:0:0:
284,176,92615,1,0,0:0:0:0:
284,172,92818,1,0,0:0:0:0:
284,172,93223,1,0,0:0:0:0:
272,160,93426,1,0,0:0:0:0:
272,160,93629,1,8,0:0:0:0:
260,152,94237,1,0,0:0:0:0:
260,152,94440,1,8,0:0:0:0:
288,160,94845,1,0,0:0:0:0:
288,160,95453,1,4,0:0:0:0:
256,160,95859,1,12,0:0:0:0:
256,160,96061,1,12,0:0:0:0:
288,160,97277,1,12,0:0:0:0:
288,160,97683,1,0,0:0:0:0:
288,160,98088,1,8,0:0:0:0:
288,160,98494,1,0,0:0:0:0:
288,160,98696,1,8,0:0:0:0:
288,160,99102,1,0,0:0:0:0:
288,160,99304,1,8,0:0:0:0:
288,160,99710,1,8,0:0:0:0:
288,160,99913,1,8,0:0:0:0:
288,160,100115,1,0,0:0:0:0:
288,160,100521,1,8,0:0:0:0:
288,160,100926,1,8,0:0:0:0:
288,160,101332,1,0,0:0:0:0:
288,160,101534,1,8,0:0:0:0:
288,192,101940,1,8,0:0:0:0:
288,160,103156,1,8,0:0:0:0:
288,160,103359,1,8,0:0:0:0:
288,160,103764,1,4,0:0:0:0:
288,160,104169,1,8,0:0:0:0:
288,160,104575,1,8,0:0:0:0:
288,160,104980,1,8,0:0:0:0:
288,160,105183,1,0,0:0:0:0:
288,160,105588,1,0,0:0:0:0:
288,128,105791,1,8,0:0:0:0:
288,160,106196,1,0,0:0:0:0:
288,160,106602,1,8,0:0:0:0:
320,160,106804,1,8,0:0:0:0:
320,160,107007,1,0,0:0:0:0:
288,160,107413,1,8,0:0:0:0:
288,160,107818,1,0,0:0:0:0:
288,160,108426,1,4,0:0:0:0:
288,160,108832,1,0,0:0:0:0:
256,192,109034,1,8,0:0:0:0:
256,192,109440,1,8,0:0:0:0:
224,160,110250,1,12,0:0:0:0:
224,160,110859,1,8,0:0:0:0:
224,160,111061,1,0,0:0:0:0:
224,160,111669,1,0,0:0:0:0:
224,160,111872,1,8,0:0:0:0:
224,160,112480,1,8,0:0:0:0:
224,160,112683,1,0,0:0:0:0:
224,160,113088,1,8,0:0:0:0:
224,160,113494,1,0,0:0:0:0:
224,160,114102,1,0,0:0:0:0:
224,160,114304,1,8,0:0:0:0:
224,160,114913,1,8,0:0:0:0:
224,160,115115,1,0,0:0:0:0:
224,160,115926,1,8,0:0:0:0:
192,128,116129,1,0,0:0:0:0:
224,160,116332,1,12,0:0:0:0:
224,160,116737,1,4,0:0:0:0:
224,160,117142,1,0,0:0:0:0:
224,160,117548,1,0,0:0:0:0:
224,160,117953,1,8,0:0:0:0:
224,160,118156,1,8,0:0:0:0:
224,160,118561,1,0,0:0:0:0:
224,160,118764,1,0,0:0:0:0:
224,160,118967,1,8,0:0:0:0:
224,160,119372,1,8,0:0:0:0:
224,160,119777,1,0,0:0:0:0:
192,160,119980,1,12,0:0:0:0:
224,160,120386,1,0,0:0:0:0:
448,64,120791,1,8,0:0:0:0:
448,64,121196,1,0,0:0:0:0:
224,160,121399,1,12,0:0:0:0:
224,160,121804,1,0,0:0:0:0:
224,160,122007,1,0,0:0:0:0:
224,160,122210,1,0,0:0:0:0:
224,160,123223,1,4,0:0:0:0:
256,192,123629,1,8,0:0:0:0:
224,192,123832,1,8,0:0:0:0:
256,192,124034,1,0,0:0:0:0:
256,192,124440,1,8,0:0:0:0:
224,192,124642,1,0,0:0:0:0:
224,192,125048,1,0,0:0:0:0:
224,192,125250,1,8,0:0:0:0:
224,192,125656,1,0,0:0:0:0:
240,208,125859,1,8,0:0:0:0:
256,192,126061,1,8,0:0:0:0:
256,192,126467,1,0,0:0:0:0:
224,192,126872,1,8,0:0:0:0:
256,192,127075,1,8,0:0:0:0:
256,192,127277,1,0,0:0:0:0:
256,192,127683,1,8,0:0:0:0:
256,192,127886,1,0,0:0:0:0:
256,160,128291,1,8,0:0:0:0:
256,160,128494,1,8,0:0:0:0:
256,192,128696,1,8,0:0:0:0:
256,192,128899,1,0,0:0:0:0:
256,192,129710,1,4,0:0:0:0:
256,192,130115,1,8,0:0:0:0:
256,192,130318,1,8,0:0:0:0:
256,192,130723,1,0,0:0:0:0:
256,192,130926,1,8,0:0:0:0:
256,192,131332,1,0,0:0:0:0:
64,64,131534,1,0,0:0:0:0:
448,64,131737,1,8,0:0:0:0:
64,64,131940,1,0,0:0:0:0:
256,192,132345,1,8,0:0:0:0:
256,192,132953,1,12,0:0:0:0:
224,192,133359,1,0,0:0:0:0:
224,192,133764,1,8,0:0:0:0:
224,192,133967,1,0,0:0:0:0:
256,192,134372,1,12,0:0:0:0:
256,192,134777,1,0,0:0:0:0:
256,192,134980,1,8,0:0:0:0:
256,192,135386,1,8,0:0:0:0:
256,192,135588,1,8,0:0:0:0:
224,192,135791,1,0,0:0:0:0:
224,192,135994,1,0,0:0:0:0:
256,192,136196,1,12,0:0:0:0:
256,192,136602,1,8,0:0:0:0:
224,192,136804,1,8,0:0:0:0:
256,192,137007,1,0,0:0:0:0:
256,192,137413,1,8,0:0:0:0:
224,192,137615,1,0,0:0:0:0:
224,192,138021,1,0,0:0:0:0:
224,192,138223,1,8,0:0:0:0:
224,192,138629,1,0,0:0:0:0:
243,185,138832,1,8,0:0:0:0:
243,185,139034,1,8,0:0:0:0:
256,192,139440,1,0,0:0:0:0:
224,192,139845,1,8,0:0:0:0:
224,192,140048,1,8,0:0:0:0:
256,192,140250,1,0,0:0:0:0:
256,192,140656,1,8,0:0:0:0:
256,192,140859,1,0,0:0:0:0:
256,160,141264,1,0,0:0:0:0:
256,160,141467,1,8,0:0:0:0:
256,160,141669,1,0,0:0:0:0:
256,192,141872,1,0,0:0:0:0:
256,192,142683,1,12,0:0:0:0:
256,192,143088,1,0,0:0:0:0:
256,192,143291,1,8,0:0:0:0:
256,192,143696,1,8,0:0:0:0:
256,192,143899,1,0,0:0:0:0:
256,192,144304,1,8,0:0:0:0:
256,192,144507,1,0,0:0:0:0:
256,192,144710,1,0,0:0:0:0:
448,64,144913,1,8,0:0:0:0:
256,192,145318,1,8,0:0:0:0:
448,320,145926,1,12,0:0:0:0:
224,192,146534,1,4,0:0:0:0:
256,192,147345,1,4,0:0:0:0:
256,192,147548,5,12,0:0:0:0:
256,192,150791,5,12,0:0:0:0:
256,192,154034,5,12,0:0:0:0:
251,199,154845,1,0,0:0:0:0:
259,198,155656,1,8,0:0:0:0:
254,201,156466,1,8,0:0:0:0:
258,199,156872,1,8,0:0:0:0:
64,320,157277,1,4,0:0:0:0:
256,192,158088,1,0,0:0:0:0:
320,192,158899,1,8,0:0:0:0:
448,64,159710,1,8,0:0:0:0:
64,320,160520,1,4,0:0:0:0:
320,192,160926,1,8,0:0:0:0:
320,192,161534,1,8,0:0:0:0:
320,192,161737,1,8,0:0:0:0:
64,320,162142,1,4,0:0:0:0:
320,192,162548,5,8,0:0:0:0:
288,192,163156,1,8,0:0:0:0:
320,192,163358,1,8,0:0:0:0:
320,192,163561,1,8,0:0:0:0:
320,192,163764,1,4,0:0:0:0:
320,192,164372,1,4,0:0:0:0:
320,192,164980,1,12,0:0:0:0:
320,192,165588,1,12,0:0:0:0:
320,192,166196,1,4,0:0:0:0:
320,192,167007,1,12,0:0:0:0:
256,192,168629,1,12,0:0:0:0:
256,192,169439,1,12,0:0:0:0:
256,192,169845,1,4,0:0:0:0:
256,192,170250,1,12,0:0:0:0:
256,192,171061,1,12,0:0:0:0:
256,192,171872,1,12,0:0:0:0:
256,192,172683,1,4,0:0:0:0:
256,192,173291,1,12,0:0:0:0:
256,192,173899,1,4,0:0:0:0:
256,192,174507,1,0,0:0:0:0:
256,192,174710,1,8,0:0:0:0:
256,192,175115,1,0,0:0:0:0:
256,192,175318,1,0,0:0:0:0:
256,192,175520,1,8,0:0:0:0:
256,192,175723,1,0,0:0:0:0:
256,192,176129,1,8,0:0:0:0:
256,192,176737,1,12,0:0:0:0:
224,192,177142,1,8,0:0:0:0:
224,192,177547,1,8,0:0:0:0:
256,192,177750,1,8,0:0:0:0:
256,192,177953,1,0,0:0:0:0:
256,192,178156,1,12,0:0:0:0:
256,192,178561,1,0,0:0:0:0:
256,192,178764,1,8,0:0:0:0:
256,192,179169,1,8,0:0:0:0:
256,192,179372,1,8,0:0:0:0:
224,192,179575,1,0,0:0:0:0:
224,192,179777,1,0,0:0:0:0:
256,192,179980,1,12,0:0:0:0:
256,192,180385,1,8,0:0:0:0:
224,192,180588,1,8,0:0:0:0:
256,192,180791,1,0,0:0:0:0:
224,192,181196,1,0,0:0:0:0:
448,64,181399,1,8,0:0:0:0:
256,192,181804,1,8,0:0:0:0:
256,192,182007,1,8,0:0:0:0:
256,192,182412,1,0,0:0:0:0:
256,192,182615,1,8,0:0:0:0:
256,192,182818,1,8,0:0:0:0:
256,192,183020,1,8,0:0:0:0:
256,192,183223,1,0,0:0:0:0:
256,192,183629,1,8,0:0:0:0:
288,192,183831,1,8,0:0:0:0:
256,192,184034,1,0,0:0:0:0:
256,192,184439,1,0,0:0:0:0:
448,64,184642,1,8,0:0:0:0:
448,64,185047,1,8,0:0:0:0:
256,160,185250,1,8,0:0:0:0:
256,192,185453,1,8,0:0:0:0:
256,192,185656,1,0,0:0:0:0:
256,192,186466,1,12,0:0:0:0:
256,192,186872,1,0,0:0:0:0:
256,192,187075,1,8,0:0:0:0:
448,64,187480,1,0,0:0:0:0:
256,192,187683,1,8,0:0:0:0:
256,192,188088,1,0,0:0:0:0:
64,64,188291,1,0,0:0:0:0:
256,192,188493,1,8,0:0:0:0:
256,192,188696,1,0,0:0:0:0:
256,192,189102,1,8,0:0:0:0:
448,64,189507,1,8,0:0:0:0:
64,320,189710,1,4,0:0:0:0:
64,64,190115,1,0,0:0:0:0:
224,192,190318,1,12,0:0:0:0:
256,192,191129,1,4,0:0:0:0:
256,160,191533,1,12,0:0:0:0:
256,160,191736,1,12,0:0:0:0:
256,160,192141,1,4,0:0:0:0:
256,160,192344,1,4,0:0:0:0:
256,128,192749,1,8,0:0:0:0:
256,128,193155,1,0,0:0:0:0:
256,160,193358,1,8,0:0:0:0:
256,128,193763,1,0,0:0:0:0:
256,128,193966,1,0,0:0:0:0:
256,160,194168,1,8,0:0:0:0:
256,128,194371,1,8,0:0:0:0:
256,128,194776,1,8,0:0:0:0:
256,128,194979,1,8,0:0:0:0:
256,128,195385,1,0,0:0:0:0:
288,128,195587,1,0,0:0:0:0:
288,128,195993,1,4,0:0:0:0:
288,128,196398,1,0,0:0:0:0:
288,128,196601,1,8,0:0:0:0:
288,128,197006,1,8,0:0:0:0:
288,128,197209,1,0,0:0:0:0:
288,128,197412,1,8,0:0:0:0:
288,128,197614,1,0,0:0:0:0:
288,128,198020,1,4,0:0:0:0:
288,128,198222,1,4,0:0:0:0:
288,128,198628,1,12,0:0:0:0:
288,128,198831,1,12,0:0:0:0:
256,128,199236,1,0,0:0:0:0:
256,128,199641,1,8,0:0:0:0:
256,160,199844,1,0,0:0:0:0:
256,128,200249,1,8,0:0:0:0:
256,128,200452,1,8,0:0:0:0:
256,160,200655,1,0,0:0:0:0:
256,128,200858,1,0,0:0:0:0:
256,128,201263,1,0,0:0:0:0:
256,128,201466,1,0,0:0:0:0:
256,128,201871,1,8,0:0:0:0:
288,128,202074,1,8,0:0:0:0:
288,128,202479,1,12,0:0:0:0:
288,128,202885,1,8,0:0:0:0:
288,128,203087,1,8,0:0:0:0:
448,64,203493,1,8,0:0:0:0:
288,128,203898,1,12,0:0:0:0:
288,128,204101,1,12,0:0:0:0:
288,128,204709,1,4,0:0:0:0:
256,192,205114,12,0,209168,0:0:0:0:
