osu file format v14

[General]
AudioFilename: audio.mp3
AudioLeadIn: 0
PreviewTime: 59171
Countdown: 0
SampleSet: Normal
StackLeniency: 0.7
Mode: 1
LetterboxInBreaks: 0
WidescreenStoryboard: 0

[Editor]
Bookmarks: 146900
DistanceSpacing: 0.8
BeatDivisor: 12
GridSize: 32
TimelineZoom: 1.7

[Metadata]
Title:Round off the Square Earth
TitleUnicode:四角い地球を丸くする
Artist:TOKOTOKO(NishizawasanP) feat. Hatsune Miku
ArtistUnicode:TOKOTOKO(西沢さんP) feat. 初音ミク
Creator:SN707
Version:Fluffiness Overload
Source:SNOW MIKU 2018
Tags:pop rock japanese vocaloid karent 雪ミク jpop j-pop jrock j-rock ボーカロイド ボカロ Shikakui Chikyuu o Maruku suru
BeatmapID:4409393
BeatmapSetID:2101848

[Difficulty]
HPDrainRate:6
CircleSize:5
OverallDifficulty:6
ApproachRate:5
SliderMultiplier:1.4
SliderTickRate:1

[Events]
//Background and Video events
0,0,"710.jpg",0,90
Video,-80,"output.mp4"
//Break Periods
//Storyboard Layer 0 (Background)
//Storyboard Layer 1 (Fail)
//Storyboard Layer 2 (Pass)
//Storyboard Layer 3 (Foreground)
//Storyboard Layer 4 (Overlay)
//Storyboard Sound Samples

[TimingPoints]
1603,405.405405405405,4,1,0,70,1,0
1603,-100,4,1,0,70,0,0
8258,-100,4,1,0,80,0,0
11501,-100,4,1,0,80,0,0
14744,-100,4,1,0,80,0,0
17987,-100,4,1,0,80,0,0
19204,-83.3333333333333,4,1,0,80,0,0
19407,-100,4,1,0,80,0,0
19609,-83.3333333333333,4,1,0,80,0,0
20217,-100,4,1,0,80,0,0
20623,-111.126335982461,4,1,0,80,0,0
20724,-114.289740698985,4,1,0,80,0,0
20825,-117.638526254714,4,1,0,80,0,0
21028,-125,4,1,0,80,0,0
21434,-125,4,1,0,70,0,0
26298,-105.263157894737,4,1,0,70,0,0
26705,-111.111111111111,4,1,0,70,0,0
27110,-117.647058823529,4,1,0,70,0,0
27515,-125,4,1,0,70,0,0
31163,-125,4,1,0,70,0,0
31568,-122.809295079839,4,1,0,70,0,0
31771,-121.743364986608,4,1,0,70,0,0
31974,-120.692776537324,4,1,0,70,0,0
32177,-119.660165131028,4,1,0,70,0,0
32379,-118.645484949833,4,1,0,70,0,0
32582,-117.647058823529,4,1,0,70,0,0
32785,-116.665296390693,4,1,0,70,0,0
33190,-114.754761230844,4,1,0,70,0,0
33291,-114.288015463918,4,1,0,70,0,0
33596,-112.901300871226,4,1,0,70,0,0
33799,-111.996842936069,4,1,0,70,0,0
34001,-111.111111111111,4,1,0,70,0,0
43731,-111.111111111111,4,1,0,70,0,0
43833,-110.230715450944,4,1,0,70,0,0
43934,-109.372591336519,4,1,0,70,0,0
44137,-107.687637550277,4,1,0,70,0,0
44237,-106.876553438277,4,1,0,70,0,0
44339,-106.061738545482,4,1,0,70,0,0
44541,-104.484205875856,4,1,0,70,0,0
44744,-102.945443993035,4,1,0,70,0,0
44846,-102.189255365116,4,1,0,70,0,0
44947,-101.451347679989,4,1,0,70,0,0
45150,-100,4,1,0,70,0,0
45352,-100,4,1,0,70,0,0
45550,-102.567345390161,4,1,0,70,0,0
45753,-105.269989615784,4,1,0,70,0,0
46158,-111.111111111111,4,1,0,70,0,0
46259,-112.670186162823,4,1,0,70,0,0
46361,-114.289740698985,4,1,0,70,0,0
46563,-117.638526254714,4,1,0,70,0,0
46665,-119.405182567727,4,1,0,70,0,0
46766,-121.207592288148,4,1,0,70,0,0
46969,-125,4,1,0,70,0,0
52650,-125,4,1,0,70,0,0
52751,-123.081598541255,4,1,0,70,0,0
52852,-121.221191260102,4,1,0,70,0,0
53055,-117.647058823529,4,1,0,70,0,0
53461,-111.111111111111,4,1,0,80,0,0
56704,-111.111111111111,4,1,0,80,0,0
57109,-102.949178365437,4,1,0,80,0,0
57210,-101.097178683386,4,1,0,80,0,0
57312,-99.2932614932475,4,1,0,80,0,0
57413,-97.5693608828686,4,1,0,80,0,0
57514,-95.904298459043,4,1,0,80,0,0
57717,-92.7238866925867,4,1,0,80,0,0
57818,-91.2188223193623,4,1,0,80,0,0
57920,-89.7476440452849,4,1,0,80,0,0
58123,-86.9565217391304,4,1,0,80,0,0
59947,-80,4,1,0,90,0,0
59981,-80,4,1,0,90,0,1
66839,-86.9565217391304,4,1,0,90,0,1
71298,-86.9565217391304,4,1,0,90,0,1
71501,-86.0203648705982,4,1,0,90,0,1
71704,-85.1041502702136,4,1,0,90,0,1
71805,-84.6555323590814,4,1,0,90,0,1
71906,-84.2116193344063,4,1,0,90,0,1
72008,-83.7680111552962,4,1,0,90,0,1
72109,-83.3333333333333,4,1,0,90,0,1
72210,-82.9031433682596,4,1,0,90,0,1
72312,-82.4731784207047,4,1,0,90,0,1
72413,-82.0518008903278,4,1,0,90,0,1
72514,-81.6347073330314,4,1,0,90,0,1
72616,-81.2177657603525,4,1,0,90,0,1
72717,-80.8090872857712,4,1,0,90,0,1
72920,-80,4,1,0,90,0,1
79812,-86.9565217391304,4,1,0,90,0,1
82650,-74.0740740740741,4,1,0,90,0,1
83055,-86.9565217391304,4,1,0,90,0,1
83258,-74.0740740740741,4,1,0,90,0,1
83663,-86.9565217391304,4,1,0,90,0,1
84069,-76.9230769230769,4,1,0,90,0,1
84102,-76.9230769230769,4,1,0,80,0,0
84305,405.405405405405,4,1,0,80,1,0
84305,-90.9090909090909,4,1,0,80,0,0
87717,-90.9090909090909,4,1,0,80,0,0
90960,-90.9090909090909,4,1,0,80,0,0
94203,-90.9090909090909,4,1,0,80,0,0
95420,-83.3333333333333,4,1,0,80,0,0
95622,-90.9090909090909,4,1,0,80,0,0
95825,-83.3333333333333,4,1,0,80,0,0
96434,-100,4,1,0,80,0,0
96840,-111.126335982461,4,1,0,80,0,0
96941,-114.289740698985,4,1,0,80,0,0
97042,-117.638526254714,4,1,0,80,0,0
97245,-125,4,1,0,80,0,0
97650,-125,4,1,0,80,0,0
102109,-125,4,1,0,70,0,0
102920,-125,4,1,0,70,0,0
106974,-125,4,1,0,70,0,0
107379,-120.694054605767,4,1,0,70,0,0
107582,-119.047619047619,4,1,0,70,0,0
107785,-116.665296390693,4,1,0,70,0,0
108089,-113.82048608326,4,1,0,70,0,0
108190,-112.905792488861,4,1,0,70,0,0
108393,-111.111111111111,4,1,0,70,0,0
108596,-112.502312958737,4,1,0,70,0,0
108798,-113.921678845793,4,1,0,70,0,0
109001,-115.384615384615,4,1,0,70,0,0
109102,-116.126567772331,4,1,0,70,0,0
109204,-116.885613585389,4,1,0,70,0,0
109305,-117.647058823529,4,1,0,70,0,0
109406,-118.418489904564,4,1,0,70,0,0
109508,-119.20789490883,4,1,0,70,0,0
109609,-120,4,1,0,70,0,0
109812,-121.624324864973,4,1,0,70,0,0
109913,-122.448979591837,4,1,0,70,0,0
110014,-123.284893545117,4,1,0,70,0,0
110217,-125,4,1,0,70,0,0
116298,-111.111111111111,4,1,0,70,0,0
116704,-100,4,1,0,80,0,0
119947,-100,4,1,0,80,0,0
120336,-94.5984296660675,4,1,0,80,0,0
120437,-93.3403803938393,4,1,0,80,0,0
120538,-92.1153531559875,4,1,0,80,0,0
120639,-90.9220646219823,4,1,0,80,0,0
120741,-89.7479332282465,4,1,0,80,0,0
120944,-87.4991524329386,4,1,0,80,0,0
121045,-86.4217668874787,4,1,0,80,0,0
121146,-85.3705905310447,4,1,0,80,0,0
121349,-83.3333333333333,4,1,0,80,0,0
123190,-80,4,1,0,90,0,0
123223,-80,4,1,0,90,0,1
129880,-86.9565217391304,4,1,0,90,0,1
134542,-86.9565217391304,4,1,0,90,0,1
134745,-86.0197935737218,4,1,0,90,0,1
134948,-85.1030318939493,4,1,0,90,0,1
135049,-84.6541504556493,4,1,0,90,0,1
135150,-84.2099794799865,4,1,0,90,0,1
135252,-83.7661163217322,4,1,0,90,0,1
135353,-83.3311913635779,4,1,0,90,0,1
135454,-82.9007594548291,4,1,0,90,0,1
135556,-82.4705553153061,4,1,0,90,0,1
135657,-82.0489459165338,4,1,0,90,0,1
135758,-81.6316253304797,4,1,0,90,0,1
135860,-81.2144592800421,4,1,0,90,0,1
135961,-80.8055631714065,4,1,0,90,0,1
136163,-80,4,1,0,90,0,1
143055,-86.9565217391304,4,1,0,90,0,1
145893,-74.0740740740741,4,1,0,90,0,1
146298,-86.9565217391304,4,1,0,90,0,1
146501,-74.0740740740741,4,1,0,90,0,1
146907,-86.9565217391304,4,1,0,90,0,1
147312,-74.0740740740741,4,1,0,90,0,1
147548,405.405405405405,4,1,0,90,1,0
147548,-71.4285714285714,4,1,0,90,0,0
147582,-100,4,1,0,70,0,0
150555,-100,4,1,0,80,0,0
150825,-100,4,1,0,70,0,0
153393,-100,4,1,0,75,0,0
154407,-100,4,1,0,75,0,0
159677,-100,4,1,0,75,0,0
159879,-97.5668513611178,4,1,0,75,0,0
160183,-94.1203811294446,4,1,0,75,0,0
160487,-90.9090909090909,4,1,0,75,0,0
162109,-83.3333333333333,4,1,0,75,0,0
163325,-83.3333333333333,4,1,0,75,0,0
163393,-82.1862348178138,4,1,0,75,0,0
163460,-81.0864789294987,4,1,0,75,0,0
163528,-80,4,1,0,75,0,0
163596,-78.9422516041221,4,1,0,75,0,0
163663,-77.9270633397313,4,1,0,75,0,0
163731,-76.9230769230769,4,1,0,75,0,0
164339,-75.7575757575758,4,1,0,75,0,0
164947,-74.6268656716418,4,1,0,75,0,0
165352,-74.0740740740741,4,1,0,75,0,0
165555,-73.5294117647059,4,1,0,75,0,0
166163,-72.463768115942,4,1,0,75,0,0
166552,-90.9090909090909,4,1,0,75,0,0
166974,-71.4285714285714,4,1,0,75,0,0
167582,-100,4,1,0,75,0,0
168596,-80,4,1,0,75,0,0
169001,-100,4,1,0,75,0,0
169407,-80,4,1,0,75,0,0
169812,-80,4,1,0,75,0,0
170217,-71.4285714285714,4,1,0,75,0,0
171028,-80,4,1,0,75,0,0
171433,-100,4,1,0,75,0,0
171839,-80,4,1,0,75,0,0
172244,-100,4,1,0,75,0,0
172649,-80,4,1,0,75,0,0
172954,-74.0740740740741,4,1,0,75,0,0
173258,-68.9655172413793,4,1,0,75,0,0
173461,-55.5555555555556,4,1,0,75,0,0
173866,-66.6666666666667,4,1,0,90,0,0
173899,-66.6666666666667,4,1,0,90,0,1
174069,-83.3333333333333,4,1,0,90,0,1
178325,-83.3333333333333,4,1,0,90,0,1
178528,-82.4731784207047,4,1,0,90,0,1
178731,-81.6305988928032,4,1,0,90,0,1
178832,-81.2177657603525,4,1,0,90,0,1
178933,-80.8090872857712,4,1,0,90,0,1
179035,-80.4005155150193,4,1,0,90,0,1
179136,-80,4,1,0,90,0,1
179237,-79.6034550451512,4,1,0,90,0,1
179339,-79.2069538040824,4,1,0,90,0,1
179440,-78.8182127411439,4,1,0,90,0,1
179541,-78.4332688588008,4,1,0,90,0,1
179643,-78.0483110383986,4,1,0,90,0,1
179744,-77.6708327347603,4,1,0,90,0,1
179947,-76.9230769230769,4,1,0,90,0,1
186636,-83.3333333333333,4,1,0,90,0,1
189677,-71.4285714285714,4,1,0,90,0,1
190082,-83.3333333333333,4,1,0,90,0,1
190285,-71.4285714285714,4,1,0,90,0,1
190690,-83.3333333333333,4,1,0,90,0,1
191096,-71.4285714285714,4,1,0,90,0,1
191129,-71.4285714285714,4,1,0,80,0,0
191331,405.405405405405,4,1,0,80,1,0
191331,-90.9090909090909,4,1,0,80,0,0
194744,-90.9090909090909,4,1,0,80,0,0
197783,-100,4,1,0,80,0,0
205893,-106.384653738158,4,1,0,80,0,0
207514,-121.946817470822,4,1,0,80,0,0
209136,-142.857142857143,4,1,0,80,0,0

[HitObjects]
264,184,8292,5,4,0:0:0:0:
264,184,8494,1,12,0:0:0:0:
264,184,8697,1,4,0:0:0:0:
264,184,8900,1,12,0:0:0:0:
272,176,9102,1,4,0:0:0:0:
276,168,9508,1,8,0:0:0:0:
256,160,9609,1,8,0:0:0:0:
256,160,9711,1,8,0:0:0:0:
256,160,9812,1,8,0:0:0:0:
284,176,9913,1,0,0:0:0:0:
284,172,10116,1,8,0:0:0:0:
272,160,10319,1,0,0:0:0:0:
284,172,10521,1,0,0:0:0:0:
272,160,10623,1,0,0:0:0:0:
272,160,10724,1,0,0:0:0:0:
272,160,10927,1,8,0:0:0:0:
268,152,11028,1,8,0:0:0:0:
280,156,11130,1,8,0:0:0:0:
260,152,11535,5,0,0:0:0:0:
260,152,11738,1,8,0:0:0:0:
288,160,11839,1,8,0:0:0:0:
260,152,11940,1,0,0:0:0:0:
288,160,12143,1,8,0:0:0:0:
256,160,12244,1,8,0:0:0:0:
288,160,12346,1,0,0:0:0:0:
288,160,12548,1,8,0:0:0:0:
288,160,12751,1,0,0:0:0:0:
256,192,12852,1,0,0:0:0:0:
256,192,12954,1,0,0:0:0:0:
256,192,13055,1,0,0:0:0:0:
256,160,13157,1,8,0:0:0:0:
256,160,13359,1,8,0:0:0:0:
256,160,13562,1,0,0:0:0:0:
256,160,13765,1,8,0:0:0:0:
288,128,13866,1,8,0:0:0:0:
288,128,13967,1,8,0:0:0:0:
288,128,14170,1,8,0:0:0:0:
288,128,14271,1,8,0:0:0:0:
288,128,14373,1,8,0:0:0:0:
264,184,14778,5,0,0:0:0:0:
264,184,14981,1,8,0:0:0:0:
272,184,15082,1,8,0:0:0:0:
264,184,15184,1,0,0:0:0:0:
264,184,15386,1,8,0:0:0:0:
264,184,15488,1,8,0:0:0:0:
272,176,15589,1,0,0:0:0:0:
268,180,15792,1,8,0:0:0:0:
276,168,15994,1,8,0:0:0:0:
256,160,16096,1,8,0:0:0:0:
256,160,16197,1,8,0:0:0:0:
256,160,16298,1,8,0:0:0:0:
284,176,16400,1,0,0:0:0:0:
284,172,16602,1,8,0:0:0:0:
272,160,16805,1,0,0:0:0:0:
284,172,17008,1,0,0:0:0:0:
272,160,17109,1,0,0:0:0:0:
272,160,17211,1,0,0:0:0:0:
272,160,17413,1,8,0:0:0:0:
268,152,17515,1,8,0:0:0:0:
280,156,17616,1,8,0:0:0:0:
260,152,18021,5,0,0:0:0:0:
260,152,18224,1,8,0:0:0:0:
288,160,18325,1,0,0:0:0:0:
260,152,18427,1,8,0:0:0:0:
288,160,18630,1,8,0:0:0:0:
256,160,18731,1,0,0:0:0:0:
288,160,18832,1,8,0:0:0:0:
288,160,19035,1,8,0:0:0:0:
288,160,19238,5,4,0:0:0:0:
256,160,19643,5,12,0:0:0:0:
256,160,19846,5,12,0:0:0:0:
256,192,20251,5,0,0:0:0:0:
288,128,20657,1,8,0:0:0:0:
288,128,20758,1,8,0:0:0:0:
288,128,20859,1,0,0:0:0:0:
288,160,21062,5,12,0:0:0:0:
448,64,21467,1,8,0:0:0:0:
448,64,21670,1,8,0:0:0:0:
64,64,21873,1,0,0:0:0:0:
64,64,22075,1,0,0:0:0:0:
448,64,22278,1,8,0:0:0:0:
256,128,22684,1,0,0:0:0:0:
256,128,22886,1,8,0:0:0:0:
256,128,23089,1,0,0:0:0:0:
256,128,23292,1,8,0:0:0:0:
256,128,23494,1,8,0:0:0:0:
64,64,23697,1,0,0:0:0:0:
448,64,23900,1,8,0:0:0:0:
256,128,24102,1,0,0:0:0:0:
64,64,24305,5,0,0:0:0:0:
64,64,24609,1,0,0:0:0:0:
448,64,24711,1,8,0:0:0:0:
448,64,25116,1,8,0:0:0:0:
64,64,25319,1,0,0:0:0:0:
256,128,25521,1,0,0:0:0:0:
256,128,25724,1,8,0:0:0:0:
256,128,25825,1,8,0:0:0:0:
256,128,25927,1,0,0:0:0:0:
224,128,26332,5,8,0:0:0:0:
256,128,26738,5,8,0:0:0:0:
256,128,27143,5,8,0:0:0:0:
256,128,27548,5,8,0:0:0:0:
256,128,27751,1,0,0:0:0:0:
288,96,27954,1,8,0:0:0:0:
288,96,28359,1,8,0:0:0:0:
256,128,28765,1,0,0:0:0:0:
256,128,28967,1,8,0:0:0:0:
256,128,29069,1,8,0:0:0:0:
256,128,29170,1,0,0:0:0:0:
256,128,29373,1,8,0:0:0:0:
256,128,29575,1,0,0:0:0:0:
256,128,29778,1,8,0:0:0:0:
256,128,29981,1,8,0:0:0:0:
256,128,30184,1,8,0:0:0:0:
256,128,30386,1,0,0:0:0:0:
256,128,30488,1,0,0:0:0:0:
256,128,30589,1,8,0:0:0:0:
256,128,30792,5,0,0:0:0:0:
256,128,31197,1,8,0:0:0:0:
448,64,31602,1,8,0:0:0:0:
64,64,31805,1,0,0:0:0:0:
102,80,32008,1,0,0:0:0:0:
256,128,32211,5,8,0:0:0:0:
256,128,32616,1,8,0:0:0:0:
256,128,32819,1,8,0:0:0:0:
256,160,33224,1,0,0:0:0:0:
256,128,33325,1,8,0:0:0:0:
224,128,33630,1,8,0:0:0:0:
224,128,33832,1,8,0:0:0:0:
256,128,34035,5,4,0:0:0:0:
256,160,34440,1,8,0:0:0:0:
256,160,34542,1,8,0:0:0:0:
256,160,34643,1,8,0:0:0:0:
256,160,34846,1,0,0:0:0:0:
256,160,34947,1,0,0:0:0:0:
256,160,35048,1,0,0:0:0:0:
256,160,35251,1,8,0:0:0:0:
256,192,35454,1,0,0:0:0:0:
256,160,35555,1,8,0:0:0:0:
256,192,35657,1,0,0:0:0:0:
224,160,35859,1,0,0:0:0:0:
256,192,36062,1,8,0:0:0:0:
64,64,36163,1,0,0:0:0:0:
448,64,36265,1,8,0:0:0:0:
256,160,36467,1,0,0:0:0:0:
64,64,36670,1,8,0:0:0:0:
256,160,36873,1,8,0:0:0:0:
256,160,37075,1,0,0:0:0:0:
256,192,37278,1,0,0:0:0:0:
256,192,37380,1,0,0:0:0:0:
256,192,37481,1,0,0:0:0:0:
256,192,37684,1,8,0:0:0:0:
256,160,37886,1,8,0:0:0:0:
256,160,38089,1,0,0:0:0:0:
256,128,38292,1,8,0:0:0:0:
256,160,38393,1,0,0:0:0:0:
224,192,38494,1,8,0:0:0:0:
448,64,38697,1,8,0:0:0:0:
224,192,38798,1,8,0:0:0:0:
224,192,38900,1,0,0:0:0:0:
224,192,39102,5,8,0:0:0:0:
224,192,39305,1,8,0:0:0:0:
224,192,39508,1,0,0:0:0:0:
224,192,39711,1,8,0:0:0:0:
192,192,39812,1,8,0:0:0:0:
224,192,39913,1,0,0:0:0:0:
192,192,40116,1,8,0:0:0:0:
192,192,40217,1,8,0:0:0:0:
192,192,40319,1,0,0:0:0:0:
224,192,40521,5,12,0:0:0:0:
224,160,40927,1,8,0:0:0:0:
224,160,41028,1,0,0:0:0:0:
224,160,41130,1,8,0:0:0:0:
224,160,41332,1,0,0:0:0:0:
224,160,41434,1,0,0:0:0:0:
224,160,41535,1,0,0:0:0:0:
256,160,41738,1,8,0:0:0:0:
256,192,41940,1,8,0:0:0:0:
256,160,42042,1,8,0:0:0:0:
256,192,42143,1,0,0:0:0:0:
64,64,42346,1,0,0:0:0:0:
256,192,42548,1,8,0:0:0:0:
64,64,42650,1,0,0:0:0:0:
448,64,42751,1,8,0:0:0:0:
64,64,42954,1,0,0:0:0:0:
256,192,43157,1,0,0:0:0:0:
256,160,43359,1,8,0:0:0:0:
256,160,43562,1,0,0:0:0:0:
256,192,43765,1,0,0:0:0:0:
256,192,43967,1,0,0:0:0:0:
256,192,44170,1,8,0:0:0:0:
256,160,44271,1,0,0:0:0:0:
256,160,44373,1,8,0:0:0:0:
256,160,44575,1,8,0:0:0:0:
233,180,44778,1,0,0:0:0:0:
256,128,44880,1,8,0:0:0:0:
248,156,44981,1,0,0:0:0:0:
224,160,45184,5,12,0:0:0:0:
256,160,45589,1,0,0:0:0:0:
256,160,45792,1,0,0:0:0:0:
256,160,46197,1,8,0:0:0:0:
264,175,46298,1,0,0:0:0:0:
256,160,46400,1,0,0:0:0:0:
256,192,46602,1,8,0:0:0:0:
264,175,46704,1,0,0:0:0:0:
256,160,46805,1,0,0:0:0:0:
256,160,47008,5,12,0:0:0:0:
256,160,47312,1,0,0:0:0:0:
256,192,47413,1,8,0:0:0:0:
256,160,47616,1,0,0:0:0:0:
256,160,47819,1,8,0:0:0:0:
256,160,48427,1,0,0:0:0:0:
448,64,48630,5,8,0:0:0:0:
256,192,48731,1,0,0:0:0:0:
256,160,48934,1,0,0:0:0:0:
256,192,49035,1,8,0:0:0:0:
256,160,49238,1,0,0:0:0:0:
256,160,49440,1,8,0:0:0:0:
256,160,49542,1,8,0:0:0:0:
256,160,49643,1,8,0:0:0:0:
256,160,49846,1,8,0:0:0:0:
256,160,49947,1,8,0:0:0:0:
256,160,50048,1,8,0:0:0:0:
256,160,50251,5,0,0:0:0:0:
320,160,50352,1,8,0:0:0:0:
288,160,50555,1,0,0:0:0:0:
320,160,50657,1,0,0:0:0:0:
288,160,50859,1,0,0:0:0:0:
288,160,51062,1,8,0:0:0:0:
288,160,51163,1,0,0:0:0:0:
288,160,51366,1,8,0:0:0:0:
288,160,51467,1,8,0:0:0:0:
288,160,51670,1,8,0:0:0:0:
448,64,51873,5,0,0:0:0:0:
288,160,52177,1,0,0:0:0:0:
288,160,52481,1,0,0:0:0:0:
288,160,52684,1,8,0:0:0:0:
288,160,52785,1,0,0:0:0:0:
288,160,52886,1,8,0:0:0:0:
288,160,53089,1,12,0:0:0:0:
288,160,53494,5,4,0:0:0:0:
288,160,53697,1,8,0:0:0:0:
288,160,53900,1,8,0:0:0:0:
288,160,54102,1,8,0:0:0:0:
288,160,54204,1,0,0:0:0:0:
288,160,54305,1,8,0:0:0:0:
288,160,54508,1,0,0:0:0:0:
288,160,54711,1,8,0:0:0:0:
288,160,54913,1,0,0:0:0:0:
288,160,55015,1,8,0:0:0:0:
288,160,55116,1,0,0:0:0:0:
64,64,55319,1,0,0:0:0:0:
288,160,55521,1,8,0:0:0:0:
288,160,55724,1,0,0:0:0:0:
320,160,55825,1,0,0:0:0:0:
288,160,55927,1,0,0:0:0:0:
288,160,56130,1,8,0:0:0:0:
288,160,56231,1,8,0:0:0:0:
288,160,56332,1,8,0:0:0:0:
288,160,56535,1,0,0:0:0:0:
288,160,56738,5,12,0:0:0:0:
288,160,57143,1,8,0:0:0:0:
288,160,57244,1,0,0:0:0:0:
288,160,57346,1,8,0:0:0:0:
288,160,57447,1,8,0:0:0:0:
288,160,57548,1,0,0:0:0:0:
288,160,57751,1,8,0:0:0:0:
288,160,57852,1,0,0:0:0:0:
288,160,57954,1,8,0:0:0:0:
288,160,58157,5,4,0:0:0:0:
320,160,58562,1,0,0:0:0:0:
224,160,58663,1,0,0:0:0:0:
320,160,58765,1,8,0:0:0:0:
320,160,58967,5,8,0:0:0:0:
448,320,59981,5,12,0:0:0:0:
256,192,60386,1,8,0:0:0:0:
224,160,60454,1,8,0:0:0:0:
256,192,60521,1,8,0:0:0:0:
224,192,60589,1,8,0:0:0:0:
247,180,60792,1,0,0:0:0:0:
253,165,60893,1,8,0:0:0:0:
256,192,60994,1,0,0:0:0:0:
256,192,61096,1,0,0:0:0:0:
256,192,61197,1,8,0:0:0:0:
224,192,61400,1,0,0:0:0:0:
224,192,61501,1,8,0:0:0:0:
224,192,61602,1,0,0:0:0:0:
224,192,61805,1,8,0:0:0:0:
224,192,62008,1,8,0:0:0:0:
224,192,62109,1,8,0:0:0:0:
224,192,62211,1,0,0:0:0:0:
224,192,62413,1,0,0:0:0:0:
224,192,62515,1,8,0:0:0:0:
244,202,62616,1,0,0:0:0:0:
256,192,62819,1,8,0:0:0:0:
256,192,63021,1,8,0:0:0:0:
256,192,63224,5,0,0:0:0:0:
256,192,63325,1,0,0:0:0:0:
256,192,63427,1,0,0:0:0:0:
224,192,63630,1,8,0:0:0:0:
224,192,63697,1,8,0:0:0:0:
224,192,63765,1,8,0:0:0:0:
256,192,63832,1,8,0:0:0:0:
256,192,64035,1,0,0:0:0:0:
256,192,64136,1,0,0:0:0:0:
256,192,64238,1,8,0:0:0:0:
256,192,64339,1,8,0:0:0:0:
256,192,64440,1,8,0:0:0:0:
256,192,64643,1,0,0:0:0:0:
256,192,64744,1,0,0:0:0:0:
224,192,64846,1,0,0:0:0:0:
256,160,65048,1,8,0:0:0:0:
256,160,65251,1,8,0:0:0:0:
256,192,65352,1,8,0:0:0:0:
256,192,65454,1,0,0:0:0:0:
256,192,65657,1,0,0:0:0:0:
256,192,65859,1,8,0:0:0:0:
256,160,66062,1,8,0:0:0:0:
448,64,66163,1,8,0:0:0:0:
448,64,66265,1,0,0:0:0:0:
256,192,66467,5,12,0:0:0:0:
256,192,66873,1,0,0:0:0:0:
256,192,67075,1,8,0:0:0:0:
256,192,67177,1,8,0:0:0:0:
256,192,67278,1,8,0:0:0:0:
256,192,67481,1,0,0:0:0:0:
256,192,67684,1,8,0:0:0:0:
256,192,67785,1,8,0:0:0:0:
256,192,67886,1,0,0:0:0:0:
256,192,68089,1,0,0:0:0:0:
256,192,68190,1,8,0:0:0:0:
256,192,68292,1,0,0:0:0:0:
256,192,68393,1,0,0:0:0:0:
256,192,68494,1,8,0:0:0:0:
256,192,68697,1,8,0:0:0:0:
256,192,68798,1,8,0:0:0:0:
256,192,68900,1,8,0:0:0:0:
256,192,69102,1,0,0:0:0:0:
256,192,69204,1,0,0:0:0:0:
256,192,69305,1,8,0:0:0:0:
256,192,69508,1,0,0:0:0:0:
256,192,69711,5,12,0:0:0:0:
224,192,70116,1,0,0:0:0:0:
256,192,70319,1,0,0:0:0:0:
224,192,70521,1,8,0:0:0:0:
221,205,70623,1,0,0:0:0:0:
224,192,70724,1,8,0:0:0:0:
231,183,70825,1,0,0:0:0:0:
256,192,70927,1,8,0:0:0:0:
256,192,71130,5,12,0:0:0:0:
256,192,71535,1,0,0:0:0:0:
256,192,71738,1,8,0:0:0:0:
256,192,71839,1,8,0:0:0:0:
256,192,71940,1,8,0:0:0:0:
256,192,72042,1,0,0:0:0:0:
256,192,72143,1,8,0:0:0:0:
256,192,72244,1,8,0:0:0:0:
256,192,72346,1,8,0:0:0:0:
256,192,72447,1,8,0:0:0:0:
224,192,72548,1,0,0:0:0:0:
224,192,72650,1,0,0:0:0:0:
224,192,72751,1,0,0:0:0:0:
256,192,72954,5,12,0:0:0:0:
256,192,73359,1,8,0:0:0:0:
256,192,73427,1,8,0:0:0:0:
256,192,73494,1,8,0:0:0:0:
256,192,73562,1,8,0:0:0:0:
256,192,73765,1,0,0:0:0:0:
256,192,73866,1,8,0:0:0:0:
224,192,73967,1,0,0:0:0:0:
224,160,74069,1,0,0:0:0:0:
224,192,74170,1,8,0:0:0:0:
256,192,74373,1,0,0:0:0:0:
256,192,74474,1,8,0:0:0:0:
256,192,74575,1,0,0:0:0:0:
256,192,74778,1,0,0:0:0:0:
256,192,74880,1,8,0:0:0:0:
256,192,74981,1,8,0:0:0:0:
256,192,75082,1,0,0:0:0:0:
256,192,75184,1,8,0:0:0:0:
256,192,75386,1,0,0:0:0:0:
224,224,75488,1,0,0:0:0:0:
256,192,75589,1,8,0:0:0:0:
256,192,75792,1,8,0:0:0:0:
256,192,75994,1,8,0:0:0:0:
256,192,76197,5,0,0:0:0:0:
256,192,76298,1,0,0:0:0:0:
256,192,76400,1,0,0:0:0:0:
256,192,76602,1,8,0:0:0:0:
224,192,76670,1,8,0:0:0:0:
256,192,76738,1,8,0:0:0:0:
256,192,76805,1,8,0:0:0:0:
256,192,77008,1,0,0:0:0:0:
224,192,77109,1,0,0:0:0:0:
256,192,77211,1,8,0:0:0:0:
256,192,77312,1,0,0:0:0:0:
256,192,77413,1,8,0:0:0:0:
256,192,77616,1,8,0:0:0:0:
256,192,77717,1,8,0:0:0:0:
224,192,77819,1,0,0:0:0:0:
256,160,78021,1,8,0:0:0:0:
256,160,78224,1,8,0:0:0:0:
256,192,78325,1,8,0:0:0:0:
256,192,78427,1,0,0:0:0:0:
256,192,78630,1,0,0:0:0:0:
256,192,78832,1,8,0:0:0:0:
256,192,79035,1,8,0:0:0:0:
448,64,79136,1,8,0:0:0:0:
448,64,79238,1,8,0:0:0:0:
256,192,79440,5,4,0:0:0:0:
64,64,79846,1,0,0:0:0:0:
256,192,80048,1,0,0:0:0:0:
256,192,80150,1,0,0:0:0:0:
256,192,80251,1,0,0:0:0:0:
448,64,80454,1,8,0:0:0:0:
64,64,80657,1,0,0:0:0:0:
256,192,80758,1,8,0:0:0:0:
256,192,80859,1,0,0:0:0:0:
448,64,81062,1,8,0:0:0:0:
256,192,81163,1,0,0:0:0:0:
256,192,81265,1,8,0:0:0:0:
256,192,81366,1,0,0:0:0:0:
64,64,81467,1,0,0:0:0:0:
448,64,81670,1,8,0:0:0:0:
256,192,81771,1,8,0:0:0:0:
256,192,81873,1,0,0:0:0:0:
256,192,82075,1,0,0:0:0:0:
256,192,82177,1,0,0:0:0:0:
64,64,82278,1,8,0:0:0:0:
448,64,82481,1,8,0:0:0:0:
64,320,82684,5,4,0:0:0:0:
256,192,83089,5,0,0:0:0:0:
224,192,83292,1,12,0:0:0:0:
224,192,83697,5,0,0:0:0:0:
448,64,83900,1,8,0:0:0:0:
256,192,84102,1,4,0:0:0:0:
256,192,84507,5,4,0:0:0:0:
256,192,84710,1,12,0:0:0:0:
256,192,84913,1,4,0:0:0:0:
256,192,85115,1,12,0:0:0:0:
256,192,85318,1,4,0:0:0:0:
256,192,85723,1,8,0:0:0:0:
256,192,85825,1,8,0:0:0:0:
256,192,85926,1,8,0:0:0:0:
256,192,86027,1,8,0:0:0:0:
256,192,86129,1,0,0:0:0:0:
256,192,86332,1,8,0:0:0:0:
256,192,86534,1,0,0:0:0:0:
256,192,86737,1,0,0:0:0:0:
256,192,86838,1,0,0:0:0:0:
256,192,86940,1,0,0:0:0:0:
256,192,87142,1,8,0:0:0:0:
256,192,87244,1,8,0:0:0:0:
256,192,87345,1,8,0:0:0:0:
260,152,87750,5,0,0:0:0:0:
260,152,87953,1,8,0:0:0:0:
288,160,88055,1,0,0:0:0:0:
260,152,88156,1,8,0:0:0:0:
288,160,88359,1,0,0:0:0:0:
256,160,88460,1,8,0:0:0:0:
288,160,88561,1,0,0:0:0:0:
288,160,88764,1,8,0:0:0:0:
288,160,88967,1,0,0:0:0:0:
288,160,89068,1,0,0:0:0:0:
288,160,89169,1,0,0:0:0:0:
288,160,89271,1,0,0:0:0:0:
256,160,89372,1,8,0:0:0:0:
256,160,89575,1,8,0:0:0:0:
256,160,89777,1,0,0:0:0:0:
256,160,89980,1,8,0:0:0:0:
288,128,90082,1,8,0:0:0:0:
288,128,90183,1,8,0:0:0:0:
288,128,90386,1,8,0:0:0:0:
288,128,90487,1,8,0:0:0:0:
288,128,90588,1,8,0:0:0:0:
264,184,90994,5,0,0:0:0:0:
264,184,91196,1,8,0:0:0:0:
272,184,91298,1,8,0:0:0:0:
264,184,91399,1,8,0:0:0:0:
264,184,91602,1,0,0:0:0:0:
264,184,91703,1,0,0:0:0:0:
272,176,91805,1,0,0:0:0:0:
268,180,92007,1,0,0:0:0:0:
276,168,92210,1,8,0:0:0:0:
256,160,92311,1,8,0:0:0:0:
256,160,92413,1,8,0:0:0:0:
256,160,92514,1,8,0:0:0:0:
284,176,92615,1,0,0:0:0:0:
284,172,92818,1,0,0:0:0:0:
272,160,93021,1,8,0:0:0:0:
284,172,93223,1,0,0:0:0:0:
272,160,93325,1,0,0:0:0:0:
272,160,93426,1,0,0:0:0:0:
272,160,93629,1,8,0:0:0:0:
268,152,93730,1,8,0:0:0:0:
280,156,93832,1,8,0:0:0:0:
260,152,94237,5,0,0:0:0:0:
260,152,94440,1,8,0:0:0:0:
288,160,94541,1,0,0:0:0:0:
260,152,94642,1,8,0:0:0:0:
288,160,94845,1,0,0:0:0:0:
256,160,94946,1,8,0:0:0:0:
288,160,95048,1,0,0:0:0:0:
288,160,95250,1,8,0:0:0:0:
288,160,95453,5,4,0:0:0:0:
256,160,95859,5,12,0:0:0:0:
256,160,96061,5,12,0:0:0:0:
256,160,96467,5,0,0:0:0:0:
288,128,96872,1,8,0:0:0:0:
288,128,96973,1,8,0:0:0:0:
288,128,97075,1,0,0:0:0:0:
288,160,97277,5,12,0:0:0:0:
288,160,97683,1,0,0:0:0:0:
283,157,97886,1,8,0:0:0:0:
288,160,98088,1,8,0:0:0:0:
288,160,98494,1,0,0:0:0:0:
288,160,98696,1,8,0:0:0:0:
288,160,98798,1,8,0:0:0:0:
288,160,98899,1,8,0:0:0:0:
288,160,99102,1,0,0:0:0:0:
288,160,99304,1,8,0:0:0:0:
288,160,99507,1,0,0:0:0:0:
288,160,99710,1,0,0:0:0:0:
288,160,99913,1,0,0:0:0:0:
288,160,100115,1,8,0:0:0:0:
256,160,100318,1,0,0:0:0:0:
288,160,100419,1,0,0:0:0:0:
288,160,100521,1,8,0:0:0:0:
288,160,100926,1,8,0:0:0:0:
288,160,101332,1,0,0:0:0:0:
288,160,101534,1,8,0:0:0:0:
243,168,101737,1,0,0:0:0:0:
288,160,101940,1,8,0:0:0:0:
299,178,102041,1,0,0:0:0:0:
288,192,102142,1,8,0:0:0:0:
288,160,102345,5,0,0:0:0:0:
288,160,102446,1,0,0:0:0:0:
288,160,102548,1,8,0:0:0:0:
288,192,102953,1,0,0:0:0:0:
288,160,103156,1,8,0:0:0:0:
288,128,103257,1,0,0:0:0:0:
288,160,103359,1,8,0:0:0:0:
288,160,103561,1,8,0:0:0:0:
288,160,103764,5,4,0:0:0:0:
288,160,104169,1,8,0:0:0:0:
256,192,104372,1,0,0:0:0:0:
288,160,104575,1,8,0:0:0:0:
288,160,104980,1,8,0:0:0:0:
288,160,105183,1,0,0:0:0:0:
288,160,105284,1,0,0:0:0:0:
288,160,105386,1,8,0:0:0:0:
288,160,105588,1,0,0:0:0:0:
288,128,105791,1,8,0:0:0:0:
288,160,105994,1,8,0:0:0:0:
288,160,106196,1,0,0:0:0:0:
288,128,106298,1,0,0:0:0:0:
288,160,106399,1,0,0:0:0:0:
288,160,106602,1,8,0:0:0:0:
320,160,106804,1,8,0:0:0:0:
320,160,106906,1,8,0:0:0:0:
320,160,107007,1,0,0:0:0:0:
288,160,107413,1,8,0:0:0:0:
288,160,107615,1,0,0:0:0:0:
288,160,107818,1,0,0:0:0:0:
288,160,108122,1,8,0:0:0:0:
288,128,108223,1,8,0:0:0:0:
288,160,108426,5,4,0:0:0:0:
288,160,108832,1,0,0:0:0:0:
256,192,109034,1,8,0:0:0:0:
288,160,109136,1,8,0:0:0:0:
256,192,109237,1,0,0:0:0:0:
256,192,109440,1,8,0:0:0:0:
288,160,109541,1,0,0:0:0:0:
288,160,109642,1,0,0:0:0:0:
256,160,109845,1,8,0:0:0:0:
256,160,109946,1,0,0:0:0:0:
256,160,110048,1,0,0:0:0:0:
224,160,110250,5,12,0:0:0:0:
224,160,110554,1,0,0:0:0:0:
224,160,110656,1,8,0:0:0:0:
224,160,110859,1,0,0:0:0:0:
224,160,111061,1,8,0:0:0:0:
224,160,111669,1,8,0:0:0:0:
224,160,111872,5,0,0:0:0:0:
224,160,111973,1,8,0:0:0:0:
224,160,112176,1,0,0:0:0:0:
224,160,112277,1,8,0:0:0:0:
224,160,112480,1,0,0:0:0:0:
224,160,112683,1,8,0:0:0:0:
224,160,112784,1,8,0:0:0:0:
224,128,112886,1,8,0:0:0:0:
224,160,113088,1,8,0:0:0:0:
224,160,113190,1,8,0:0:0:0:
224,160,113291,1,8,0:0:0:0:
224,160,113494,5,0,0:0:0:0:
192,160,113595,1,8,0:0:0:0:
192,160,113798,1,0,0:0:0:0:
192,160,113899,1,8,0:0:0:0:
224,160,114102,1,0,0:0:0:0:
224,160,114304,1,8,0:0:0:0:
224,160,114406,1,0,0:0:0:0:
224,160,114609,1,8,0:0:0:0:
224,160,114710,1,0,0:0:0:0:
224,160,114913,1,8,0:0:0:0:
224,160,115115,5,0,0:0:0:0:
224,160,115419,1,0,0:0:0:0:
224,160,115723,1,0,0:0:0:0:
224,160,115926,1,8,0:0:0:0:
192,128,116027,1,8,0:0:0:0:
192,128,116129,1,0,0:0:0:0:
224,160,116332,1,12,0:0:0:0:
224,160,116737,5,4,0:0:0:0:
192,160,116940,1,0,0:0:0:0:
224,160,117142,1,8,0:0:0:0:
224,160,117345,1,8,0:0:0:0:
224,160,117548,1,0,0:0:0:0:
224,160,117750,1,0,0:0:0:0:
224,160,117953,1,8,0:0:0:0:
224,160,118054,1,0,0:0:0:0:
224,160,118156,1,8,0:0:0:0:
224,160,118257,1,0,0:0:0:0:
224,160,118359,1,0,0:0:0:0:
224,160,118561,1,0,0:0:0:0:
224,160,118764,1,8,0:0:0:0:
224,160,118967,1,0,0:0:0:0:
224,192,119068,1,8,0:0:0:0:
224,192,119169,1,0,0:0:0:0:
224,160,119372,1,8,0:0:0:0:
224,160,119473,1,0,0:0:0:0:
224,160,119575,1,8,0:0:0:0:
192,160,119676,1,8,0:0:0:0:
224,160,119777,1,0,0:0:0:0:
192,160,119980,5,12,0:0:0:0:
224,160,120386,1,0,0:0:0:0:
64,64,120487,1,0,0:0:0:0:
224,160,120588,1,8,0:0:0:0:
224,160,120690,1,8,0:0:0:0:
192,160,120791,1,0,0:0:0:0:
192,160,120994,1,8,0:0:0:0:
64,64,121095,1,0,0:0:0:0:
199,164,121196,1,8,0:0:0:0:
224,160,121399,5,12,0:0:0:0:
224,160,121804,1,0,0:0:0:0:
448,64,121906,1,8,0:0:0:0:
224,160,122007,1,0,0:0:0:0:
224,160,122210,1,0,0:0:0:0:
224,160,122615,1,8,0:0:0:0:
224,160,122717,1,8,0:0:0:0:
224,160,122818,1,8,0:0:0:0:
224,160,122919,1,8,0:0:0:0:
224,160,123021,1,8,0:0:0:0:
224,160,123223,5,4,0:0:0:0:
256,192,123629,1,8,0:0:0:0:
224,160,123696,1,8,0:0:0:0:
256,192,123764,1,8,0:0:0:0:
224,192,123832,1,8,0:0:0:0:
256,192,124034,1,0,0:0:0:0:
256,192,124136,1,0,0:0:0:0:
256,192,124237,1,8,0:0:0:0:
256,192,124338,1,0,0:0:0:0:
256,192,124440,1,8,0:0:0:0:
224,192,124642,1,0,0:0:0:0:
224,192,124744,1,8,0:0:0:0:
224,192,124845,1,0,0:0:0:0:
224,192,125048,1,8,0:0:0:0:
192,192,125149,1,0,0:0:0:0:
224,192,125250,1,8,0:0:0:0:
224,192,125352,1,8,0:0:0:0:
224,192,125453,1,0,0:0:0:0:
224,192,125656,1,0,0:0:0:0:
240,208,125757,1,8,0:0:0:0:
240,208,125859,1,0,0:0:0:0:
256,192,126061,1,8,0:0:0:0:
160,64,126264,1,8,0:0:0:0:
256,192,126467,5,8,0:0:0:0:
256,192,126568,1,8,0:0:0:0:
256,192,126669,1,0,0:0:0:0:
224,192,126872,1,8,0:0:0:0:
224,192,126940,1,8,0:0:0:0:
224,192,127007,1,8,0:0:0:0:
256,192,127075,1,8,0:0:0:0:
256,192,127277,1,0,0:0:0:0:
256,192,127379,1,8,0:0:0:0:
256,192,127480,1,0,0:0:0:0:
256,192,127582,1,0,0:0:0:0:
256,192,127683,1,8,0:0:0:0:
256,192,127886,1,0,0:0:0:0:
256,192,127987,1,8,0:0:0:0:
224,192,128088,1,0,0:0:0:0:
256,160,128291,1,8,0:0:0:0:
256,192,128392,1,0,0:0:0:0:
256,160,128494,1,8,0:0:0:0:
256,192,128595,1,0,0:0:0:0:
256,192,128696,1,8,0:0:0:0:
256,192,128899,1,0,0:0:0:0:
256,192,129102,1,8,0:0:0:0:
256,160,129304,1,8,0:0:0:0:
288,160,129406,1,8,0:0:0:0:
448,64,129507,1,8,0:0:0:0:
256,192,129710,5,4,0:0:0:0:
256,192,130115,1,8,0:0:0:0:
256,192,130318,1,8,0:0:0:0:
256,160,130419,1,8,0:0:0:0:
256,160,130521,1,0,0:0:0:0:
256,192,130723,1,8,0:0:0:0:
256,192,130926,1,0,0:0:0:0:
256,192,131027,1,0,0:0:0:0:
256,192,131129,1,8,0:0:0:0:
256,192,131332,1,0,0:0:0:0:
256,192,131433,1,8,0:0:0:0:
256,192,131534,1,0,0:0:0:0:
256,192,131636,1,0,0:0:0:0:
256,192,131737,1,8,0:0:0:0:
256,192,131940,1,0,0:0:0:0:
256,192,132041,1,8,0:0:0:0:
256,192,132142,1,8,0:0:0:0:
256,192,132345,1,0,0:0:0:0:
256,192,132446,1,0,0:0:0:0:
256,192,132548,1,8,0:0:0:0:
256,192,132750,1,0,0:0:0:0:
256,192,132953,5,12,0:0:0:0:
224,192,133359,1,0,0:0:0:0:
215,182,133561,1,8,0:0:0:0:
236,184,133663,1,8,0:0:0:0:
224,192,133764,1,8,0:0:0:0:
224,192,133967,1,0,0:0:0:0:
224,192,134068,1,0,0:0:0:0:
256,192,134169,1,8,0:0:0:0:
256,192,134372,5,12,0:0:0:0:
256,192,134777,1,0,0:0:0:0:
256,192,134980,1,8,0:0:0:0:
256,192,135082,1,8,0:0:0:0:
256,192,135183,1,8,0:0:0:0:
256,192,135284,1,0,0:0:0:0:
256,192,135386,1,8,0:0:0:0:
256,192,135487,1,8,0:0:0:0:
256,192,135588,1,8,0:0:0:0:
256,192,135690,1,8,0:0:0:0:
224,192,135791,1,0,0:0:0:0:
224,192,135892,1,0,0:0:0:0:
224,192,135994,1,0,0:0:0:0:
256,192,136196,5,12,0:0:0:0:
256,192,136602,1,8,0:0:0:0:
224,160,136669,1,8,0:0:0:0:
256,192,136737,1,8,0:0:0:0:
224,192,136804,1,8,0:0:0:0:
256,192,137007,1,0,0:0:0:0:
256,192,137109,1,0,0:0:0:0:
256,192,137210,1,8,0:0:0:0:
256,192,137311,1,0,0:0:0:0:
256,192,137413,1,8,0:0:0:0:
224,192,137615,1,0,0:0:0:0:
224,192,137717,1,8,0:0:0:0:
224,192,137818,1,0,0:0:0:0:
224,192,138021,1,0,0:0:0:0:
224,192,138122,1,0,0:0:0:0:
224,192,138223,1,8,0:0:0:0:
224,192,138325,1,0,0:0:0:0:
224,192,138426,1,8,0:0:0:0:
224,192,138629,1,0,0:0:0:0:
226,184,138730,1,0,0:0:0:0:
243,185,138832,1,8,0:0:0:0:
243,185,139034,1,8,0:0:0:0:
160,64,139237,1,8,0:0:0:0:
256,192,139440,5,0,0:0:0:0:
256,192,139541,1,8,0:0:0:0:
256,192,139642,1,0,0:0:0:0:
224,192,139845,1,8,0:0:0:0:
224,192,139913,1,8,0:0:0:0:
224,192,139980,1,8,0:0:0:0:
256,192,140048,1,8,0:0:0:0:
256,192,140250,1,0,0:0:0:0:
256,192,140352,1,8,0:0:0:0:
256,192,140453,1,8,0:0:0:0:
256,192,140554,1,0,0:0:0:0:
256,192,140656,1,8,0:0:0:0:
256,192,140859,1,0,0:0:0:0:
256,192,140960,1,8,0:0:0:0:
224,192,141061,1,0,0:0:0:0:
256,160,141264,1,8,0:0:0:0:
256,192,141365,1,0,0:0:0:0:
256,160,141467,1,8,0:0:0:0:
256,192,141568,1,8,0:0:0:0:
256,192,141669,1,0,0:0:0:0:
256,192,141872,1,0,0:0:0:0:
256,192,142075,1,8,0:0:0:0:
256,160,142277,1,8,0:0:0:0:
288,160,142379,1,8,0:0:0:0:
448,64,142480,1,0,0:0:0:0:
256,192,142683,5,12,0:0:0:0:
256,192,143088,1,0,0:0:0:0:
256,192,143291,1,8,0:0:0:0:
288,192,143392,1,8,0:0:0:0:
288,192,143494,1,0,0:0:0:0:
256,192,143696,1,0,0:0:0:0:
256,192,143899,1,8,0:0:0:0:
256,192,144000,1,0,0:0:0:0:
256,192,144102,1,8,0:0:0:0:
256,192,144304,1,0,0:0:0:0:
256,192,144406,1,8,0:0:0:0:
256,192,144507,1,0,0:0:0:0:
256,192,144609,1,8,0:0:0:0:
256,192,144710,1,8,0:0:0:0:
256,192,144913,1,0,0:0:0:0:
256,192,145014,1,0,0:0:0:0:
256,192,145115,1,8,0:0:0:0:
267,189,145217,1,8,0:0:0:0:
256,192,145318,1,0,0:0:0:0:
256,192,145419,1,0,0:0:0:0:
256,192,145521,1,8,0:0:0:0:
256,192,145723,1,0,0:0:0:0:
256,192,145926,5,12,0:0:0:0:
256,192,146332,5,8,0:0:0:0:
224,192,146534,1,4,0:0:0:0:
224,192,146940,5,0,0:0:0:0:
256,192,147142,1,8,0:0:0:0:
256,192,147345,1,4,0:0:0:0:
256,192,147548,1,12,0:0:0:0:
256,192,150588,5,0,0:0:0:0:
256,192,150791,1,4,0:0:0:0:
256,192,153426,5,8,0:0:0:0:
256,192,153730,5,8,0:0:0:0:
256,192,154034,5,4,0:0:0:0:
251,200,154439,1,8,0:0:0:0:
251,199,154642,1,0,0:0:0:0:
251,199,154743,1,0,0:0:0:0:
251,199,154845,1,0,0:0:0:0:
259,198,155250,1,8,0:0:0:0:
259,198,155453,1,8,0:0:0:0:
259,198,155554,1,0,0:0:0:0:
259,198,155656,1,0,0:0:0:0:
254,201,156061,1,8,0:0:0:0:
254,201,156264,1,8,0:0:0:0:
254,201,156365,1,8,0:0:0:0:
254,201,156466,1,0,0:0:0:0:
258,199,156770,1,8,0:0:0:0:
258,199,156872,1,8,0:0:0:0:
448,64,157075,1,8,0:0:0:0:
64,320,157277,5,4,0:0:0:0:
256,192,157683,1,8,0:0:0:0:
256,192,157885,1,0,0:0:0:0:
256,192,157987,1,0,0:0:0:0:
256,192,158088,1,0,0:0:0:0:
320,192,158493,1,8,0:0:0:0:
320,192,158696,1,8,0:0:0:0:
320,192,158798,1,0,0:0:0:0:
320,192,158899,1,0,0:0:0:0:
320,192,159304,1,8,0:0:0:0:
320,192,159507,1,8,0:0:0:0:
320,192,159608,1,8,0:0:0:0:
320,192,159710,1,0,0:0:0:0:
288,192,159912,1,8,0:0:0:0:
288,192,160216,1,8,0:0:0:0:
64,320,160520,5,4,0:0:0:0:
320,192,160926,1,8,0:0:0:0:
320,192,161027,1,0,0:0:0:0:
320,192,161129,1,0,0:0:0:0:
320,192,161230,1,8,0:0:0:0:
320,192,161331,1,0,0:0:0:0:
328,186,161433,1,0,0:0:0:0:
320,192,161534,1,8,0:0:0:0:
320,192,161635,1,0,0:0:0:0:
320,192,161737,1,8,0:0:0:0:
64,320,162142,5,4,0:0:0:0:
320,192,162548,1,8,0:0:0:0:
320,192,162649,1,0,0:0:0:0:
320,192,162750,1,0,0:0:0:0:
320,192,162852,1,8,0:0:0:0:
320,160,162953,1,0,0:0:0:0:
320,160,163054,1,0,0:0:0:0:
288,192,163156,1,8,0:0:0:0:
320,160,163257,1,0,0:0:0:0:
320,192,163358,1,8,0:0:0:0:
320,192,163426,1,8,0:0:0:0:
448,64,163493,1,8,0:0:0:0:
448,64,163561,1,8,0:0:0:0:
320,192,163764,5,4,0:0:0:0:
320,192,164372,5,4,0:0:0:0:
320,192,164980,5,12,0:0:0:0:
320,192,165588,5,12,0:0:0:0:
320,192,166196,5,4,0:0:0:0:
453,211,166602,1,0,0:0:0:0:
320,192,167007,5,12,0:0:0:0:
448,64,167615,1,8,0:0:0:0:
64,64,167716,1,0,0:0:0:0:
448,64,167818,1,8,0:0:0:0:
448,64,168020,1,8,0:0:0:0:
64,64,168223,1,0,0:0:0:0:
256,192,168629,5,12,0:0:0:0:
256,192,169034,1,0,0:0:0:0:
256,192,169439,5,12,0:0:0:0:
256,192,169845,5,4,0:0:0:0:
256,192,170250,5,12,0:0:0:0:
256,192,171061,5,12,0:0:0:0:
256,192,171466,1,0,0:0:0:0:
256,192,171872,5,12,0:0:0:0:
256,192,172277,1,0,0:0:0:0:
64,320,172683,5,4,0:0:0:0:
256,192,172987,5,12,0:0:0:0:
256,192,173291,5,12,0:0:0:0:
64,320,173899,5,4,0:0:0:0:
448,64,174102,1,8,0:0:0:0:
256,192,174203,1,8,0:0:0:0:
448,64,174304,1,8,0:0:0:0:
256,192,174507,1,8,0:0:0:0:
256,192,174710,1,8,0:0:0:0:
256,192,174811,1,8,0:0:0:0:
256,192,174912,1,0,0:0:0:0:
256,192,175115,1,0,0:0:0:0:
256,192,175216,1,8,0:0:0:0:
256,192,175318,1,0,0:0:0:0:
256,192,175419,1,0,0:0:0:0:
256,192,175520,1,8,0:0:0:0:
256,192,175723,1,0,0:0:0:0:
256,192,175825,1,0,0:0:0:0:
256,192,175926,1,8,0:0:0:0:
256,192,176129,1,8,0:0:0:0:
256,192,176230,1,0,0:0:0:0:
256,192,176331,1,8,0:0:0:0:
256,192,176433,1,8,0:0:0:0:
256,192,176534,1,0,0:0:0:0:
256,192,176737,5,12,0:0:0:0:
224,192,177142,1,8,0:0:0:0:
256,192,177345,1,0,0:0:0:0:
256,192,177446,1,0,0:0:0:0:
224,192,177547,1,0,0:0:0:0:
256,192,177649,1,8,0:0:0:0:
256,192,177750,1,0,0:0:0:0:
256,192,177852,1,8,0:0:0:0:
256,192,177953,1,0,0:0:0:0:
256,192,178156,5,12,0:0:0:0:
256,192,178561,1,0,0:0:0:0:
256,192,178764,1,8,0:0:0:0:
256,192,178865,1,8,0:0:0:0:
256,192,178966,1,8,0:0:0:0:
256,192,179068,1,0,0:0:0:0:
256,192,179169,1,8,0:0:0:0:
256,192,179270,1,8,0:0:0:0:
256,192,179372,1,8,0:0:0:0:
256,192,179473,1,8,0:0:0:0:
224,192,179575,1,0,0:0:0:0:
224,192,179676,1,0,0:0:0:0:
224,192,179777,1,0,0:0:0:0:
256,192,179980,5,12,0:0:0:0:
256,192,180385,1,8,0:0:0:0:
224,192,180453,1,8,0:0:0:0:
224,192,180520,1,8,0:0:0:0:
224,160,180588,1,8,0:0:0:0:
256,192,180689,1,0,0:0:0:0:
256,192,180791,1,8,0:0:0:0:
256,192,180892,1,8,0:0:0:0:
224,192,180993,1,0,0:0:0:0:
224,160,181095,1,0,0:0:0:0:
224,192,181196,1,8,0:0:0:0:
448,64,181399,1,0,0:0:0:0:
448,64,181500,1,0,0:0:0:0:
64,64,181602,1,8,0:0:0:0:
224,192,181703,1,0,0:0:0:0:
256,192,181804,1,8,0:0:0:0:
256,192,181906,1,0,0:0:0:0:
256,192,182007,1,8,0:0:0:0:
260,182,182108,1,8,0:0:0:0:
257,176,182210,1,0,0:0:0:0:
256,192,182412,1,8,0:0:0:0:
269,195,182514,1,0,0:0:0:0:
256,192,182615,1,8,0:0:0:0:
256,192,182818,1,8,0:0:0:0:
256,192,183020,1,8,0:0:0:0:
256,192,183223,5,0,0:0:0:0:
256,192,183325,1,8,0:0:0:0:
256,192,183426,1,0,0:0:0:0:
256,192,183629,1,8,0:0:0:0:
288,192,183696,1,8,0:0:0:0:
288,192,183764,1,8,0:0:0:0:
288,192,183831,1,8,0:0:0:0:
256,192,183933,1,0,0:0:0:0:
256,192,184034,1,8,0:0:0:0:
224,192,184135,1,0,0:0:0:0:
256,192,184237,1,8,0:0:0:0:
256,192,184338,1,0,0:0:0:0:
64,64,184439,1,0,0:0:0:0:
448,64,184642,1,8,0:0:0:0:
256,192,184743,1,8,0:0:0:0:
224,192,184845,1,0,0:0:0:0:
224,192,184946,1,0,0:0:0:0:
256,160,185047,1,8,0:0:0:0:
256,160,185149,1,0,0:0:0:0:
224,192,185250,1,8,0:0:0:0:
256,192,185352,1,8,0:0:0:0:
256,192,185453,1,0,0:0:0:0:
256,192,185656,1,0,0:0:0:0:
64,64,185757,1,0,0:0:0:0:
256,192,185858,1,8,0:0:0:0:
256,192,186061,1,8,0:0:0:0:
256,160,186162,1,8,0:0:0:0:
448,64,186264,1,0,0:0:0:0:
256,192,186466,5,12,0:0:0:0:
256,192,186872,1,8,0:0:0:0:
256,192,187075,1,0,0:0:0:0:
256,192,187176,1,0,0:0:0:0:
256,192,187277,1,0,0:0:0:0:
448,64,187379,1,0,0:0:0:0:
448,64,187480,1,8,0:0:0:0:
256,192,187683,1,8,0:0:0:0:
256,192,187784,1,0,0:0:0:0:
256,192,187885,1,8,0:0:0:0:
256,192,188088,1,0,0:0:0:0:
256,192,188189,1,0,0:0:0:0:
256,192,188291,1,8,0:0:0:0:
256,192,188392,1,0,0:0:0:0:
256,192,188493,1,8,0:0:0:0:
256,192,188696,1,0,0:0:0:0:
256,192,188797,1,8,0:0:0:0:
256,192,188899,1,0,0:0:0:0:
256,192,189000,1,0,0:0:0:0:
256,192,189102,1,8,0:0:0:0:
256,192,189203,1,0,0:0:0:0:
256,192,189304,1,8,0:0:0:0:
448,64,189507,1,8,0:0:0:0:
64,320,189710,5,4,0:0:0:0:
256,192,190115,5,0,0:0:0:0:
224,192,190318,1,12,0:0:0:0:
224,192,190723,5,0,0:0:0:0:
448,64,190926,1,8,0:0:0:0:
256,192,191129,1,4,0:0:0:0:
256,160,191533,5,4,0:0:0:0:
256,160,191736,1,12,0:0:0:0:
256,160,191939,1,4,0:0:0:0:
256,160,192141,1,12,0:0:0:0:
256,160,192344,1,4,0:0:0:0:
256,128,192749,1,8,0:0:0:0:
256,160,192851,1,8,0:0:0:0:
256,128,192952,1,0,0:0:0:0:
256,160,193053,1,8,0:0:0:0:
448,64,193155,1,8,0:0:0:0:
256,160,193358,1,8,0:0:0:0:
256,160,193459,1,8,0:0:0:0:
256,160,193560,1,8,0:0:0:0:
256,128,193763,1,0,0:0:0:0:
256,128,193864,1,0,0:0:0:0:
256,128,193966,1,0,0:0:0:0:
256,160,194168,1,8,0:0:0:0:
256,128,194270,1,8,0:0:0:0:
256,128,194371,1,8,0:0:0:0:
256,128,194776,5,0,0:0:0:0:
256,128,194979,1,8,0:0:0:0:
256,128,195081,1,8,0:0:0:0:
288,128,195182,1,8,0:0:0:0:
256,128,195385,1,0,0:0:0:0:
288,128,195486,1,0,0:0:0:0:
288,128,195587,1,0,0:0:0:0:
288,128,195790,1,8,0:0:0:0:
288,128,195993,1,4,0:0:0:0:
288,128,196398,1,0,0:0:0:0:
288,128,196601,1,8,0:0:0:0:
288,128,196702,1,8,0:0:0:0:
288,128,196803,1,0,0:0:0:0:
288,128,197006,1,8,0:0:0:0:
288,128,197108,1,0,0:0:0:0:
288,128,197209,1,8,0:0:0:0:
288,128,197412,1,0,0:0:0:0:
288,128,197513,1,8,0:0:0:0:
288,128,197614,1,0,0:0:0:0:
288,128,198020,5,12,0:0:0:0:
288,128,198222,1,4,0:0:0:0:
288,128,198425,1,12,0:0:0:0:
288,128,198628,1,4,0:0:0:0:
288,128,198831,1,12,0:0:0:0:
256,128,199236,1,0,0:0:0:0:
256,160,199337,1,0,0:0:0:0:
256,128,199439,1,8,0:0:0:0:
256,160,199540,1,0,0:0:0:0:
256,128,199641,1,0,0:0:0:0:
256,160,199844,1,0,0:0:0:0:
256,160,199945,1,0,0:0:0:0:
256,160,200047,1,0,0:0:0:0:
256,128,200249,1,8,0:0:0:0:
256,128,200351,1,8,0:0:0:0:
256,128,200452,1,8,0:0:0:0:
256,160,200655,1,0,0:0:0:0:
256,128,200756,1,0,0:0:0:0:
256,128,200858,1,0,0:0:0:0:
256,128,201263,5,8,0:0:0:0:
256,128,201466,1,0,0:0:0:0:
256,128,201567,1,0,0:0:0:0:
288,128,201668,1,0,0:0:0:0:
256,128,201871,1,8,0:0:0:0:
288,128,201972,1,8,0:0:0:0:
288,128,202074,1,8,0:0:0:0:
288,128,202276,1,0,0:0:0:0:
288,128,202479,5,12,0:0:0:0:
288,128,202885,5,8,0:0:0:0:
288,128,203087,1,8,0:0:0:0:
288,128,203189,1,0,0:0:0:0:
288,128,203290,1,0,0:0:0:0:
448,64,203493,1,8,0:0:0:0:
288,128,203594,1,0,0:0:0:0:
288,128,203695,1,0,0:0:0:0:
288,128,203898,5,12,0:0:0:0:
288,128,204101,5,12,0:0:0:0:
288,128,204709,5,4,0:0:0:0:
256,192,205114,12,0,209168,0:0:0:0:
