osu file format v14

[General]
AudioFilename: audio.mp3
AudioLeadIn: 0
PreviewTime: 59614
Countdown: 1
SampleSet: Soft
StackLeniency: 0.5
Mode: 0
LetterboxInBreaks: 0
WidescreenStoryboard: 1

[Editor]
Bookmarks: 8331,21101,34276,47047,53533,60020,66303,72993,79276,84547,97317,110290,116776,123263,129547,136236,142520,147790,160560,166641,173939,180020,186303,191574,198060,208803
DistanceSpacing: 0.8
BeatDivisor: 4
GridSize: 4
TimelineZoom: 2.900005

[Metadata]
Title:Round off the Square Earth
TitleUnicode:四角い地球を丸くする
Artist:TOKOTOKO (NishizawasanP) feat. HATSUNE MIKU
ArtistUnicode:TOKOTOKO (西沢さんP) feat. 初音ミク
Creator:nosindo
Version:Insane
Source:
Tags:Shikakui Chikyuu wo Maruku Suru KARENT presents 雪あかりの夜想曲 雪ミク
BeatmapID:1845325
BeatmapSetID:882673

[Difficulty]
HPDrainRate:6
CircleSize:3.9
OverallDifficulty:8.9
ApproachRate:9.3
SliderMultiplier:1.6
SliderTickRate:1

[Events]
//Background and Video events
0,0,"Konachan.com - 258985 sample.jpg",0,0
//Break Periods
2,147790,149817
2,151033,153060
//Storyboard Layer 0 (Background)
//Storyboard Layer 1 (Fail)
//Storyboard Layer 2 (Pass)
//Storyboard Layer 3 (Foreground)
//Storyboard Sound Samples

[TimingPoints]
8331,405.405405405405,4,2,1,70,1,0
8331,-74.6268656716418,4,2,1,70,0,0
19276,-69.4444444444444,4,2,1,70,0,0
21101,-87.719298245614,4,2,1,70,0,0
27790,-80.6451612903226,4,2,1,70,0,0
29006,-87.719298245614,4,2,1,70,0,0
34276,-80.6451612903226,4,2,1,70,0,0
41979,-74.6268656716418,4,2,1,70,0,0
47047,-119.047619047619,4,2,1,70,0,0
50493,-119.047619047619,4,2,0,5,0,0
50594,-119.047619047619,4,2,1,70,0,0
50797,-119.047619047619,4,2,1,70,0,0
53533,-80.6451612903226,4,2,1,70,0,0
59614,-96.1538461538461,4,2,1,70,0,0
59918,-96.1538461538461,4,2,0,5,0,0
60020,-69.4444444444444,4,2,1,70,0,1
62858,-80.6451612903226,4,2,1,70,0,1
63162,-80.6451612903226,4,2,0,5,0,1
63263,-69.4444444444444,4,2,1,70,0,1
66303,-64.9350649350649,4,2,1,70,0,1
69749,-80.6451612903226,4,2,1,70,0,1
71168,-74.6268656716418,4,2,1,70,0,1
72993,-69.4444444444444,4,2,1,70,0,1
75830,-80.6451612903226,4,2,1,70,0,1
76135,-80.6451612903226,4,2,0,5,0,1
76236,-69.4444444444444,4,2,1,70,0,1
79276,-64.9350649350649,4,2,1,70,0,1
82520,-74.6268656716418,4,2,1,70,0,1
84547,-74.6268656716418,4,2,1,70,0,0
95493,-69.4444444444444,4,2,1,70,0,0
97317,-87.719298245614,4,2,1,70,0,0
102182,-80.6451612903226,4,2,1,70,0,0
103601,-87.719298245614,4,2,1,70,0,0
104209,-80.6451612903226,4,2,1,70,0,0
105020,-87.719298245614,4,2,1,70,0,0
110290,-119.047619047619,4,2,1,70,0,0
110493,-119.047619047619,4,2,0,5,0,0
110594,-119.047619047619,4,2,1,70,0,0
113736,-119.047619047619,4,2,0,5,0,0
113837,-119.047619047619,4,2,1,70,0,0
113939,-119.047619047619,4,2,0,5,0,0
114141,-119.047619047619,4,2,1,70,0,0
116776,-80.6451612903226,4,2,1,70,0,0
123263,-69.4444444444444,4,2,1,70,0,1
126101,-80.6451612903226,4,2,1,70,0,1
126506,-69.4444444444444,4,2,1,70,0,1
129547,-64.9350649350649,4,2,1,70,0,1
132790,-80.6451612903226,4,2,1,70,0,1
134412,-74.6268656716418,4,2,1,70,0,1
136236,-69.4444444444444,4,2,1,70,0,1
139074,-80.6451612903226,4,2,1,70,0,1
139479,-69.4444444444444,4,2,1,70,0,1
142520,-64.9350649350649,4,2,1,70,0,1
145763,-74.6268656716418,4,2,1,70,0,1
147790,-119.047619047619,4,2,1,70,0,0
160560,-96.1538461538461,4,2,1,70,0,0
163398,-80.6451612903226,4,2,1,70,0,0
167047,-87.7192982456139,4,2,1,70,0,0
171101,-80.6451612903226,4,2,1,70,0,0
173939,-64.9350649350649,4,2,1,70,0,1
176574,-74.6268656716418,4,2,1,70,0,1
178195,-64.9350649350649,4,2,1,70,0,1
180020,-69.4444444444444,4,2,1,70,0,1
182858,-80.6451612903226,4,2,1,70,0,1
183263,-69.4444444444444,4,2,1,70,0,1
186303,-64.9350649350649,4,2,1,70,0,1
189547,-74.6268656716418,4,2,1,70,0,1
191168,-74.6268656716418,4,2,1,70,0,0
191574,-69.4444444444444,4,2,1,70,0,1
198060,-74.6268656716418,4,2,1,70,0,0
208803,-74.6268656716418,4,2,0,5,0,0

[Colours]
Combo1 : 255,248,106
Combo2 : 32,93,210
Combo3 : 245,48,48
Combo4 : 126,169,233

[HitObjects]
307,40,8331,5,4,3:1:0:0:
374,154,8533,1,4,3:1:0:0:
496,41,8736,1,4,3:1:0:0:
445,219,8939,1,4,3:1:0:0:
221,125,9141,6,0,P|212:72|194:21,1,107.199994929199,0|2,3:0|3:0,0:0:0:0:
90,69,9547,2,0,P|68:135|63:198,1,107.199994929199,0|0,3:0|0:0,0:0:0:0:
149,316,9952,1,0,3:0:0:0:
219,170,10155,1,2,3:0:0:0:
221,351,10358,1,0,3:0:0:0:
133,196,10560,5,0,3:0:0:0:
298,148,10763,1,0,3:0:0:0:
125,242,10966,1,2,3:0:0:0:
317,34,11168,1,0,3:0:0:0:
461,257,11574,5,0,3:0:0:0:
374,123,11776,1,2,3:0:0:0:
346,298,11979,1,0,3:0:0:0:
461,120,12182,1,0,3:0:0:0:
250,264,12385,1,0,3:0:0:0:
202,78,12790,6,0,P|135:49|93:20,1,107.199994929199,0|0,3:0|0:0,0:0:0:0:
50,286,13195,1,0,3:0:0:0:
157,132,13398,1,2,3:0:0:0:
196,322,13601,1,0,3:0:0:0:
45,197,13803,5,0,3:0:0:0:
251,129,14006,1,0,3:0:0:0:
45,124,14209,1,2,3:0:0:0:
279,201,14412,1,0,3:0:0:0:
134,338,14817,5,0,3:0:0:0:
206,157,15020,1,2,3:0:0:0:
49,278,15222,1,0,3:0:0:0:
242,258,15425,1,0,3:0:0:0:
49,137,15628,2,0,P|44:76|29:31,1,107.199994929199,0|2,0:0|3:0,0:0:0:0:
125,158,16033,6,0,P|128:211|144:262,1,107.199994929199,0|0,3:0|0:0,0:0:0:0:
281,335,16439,1,0,3:0:0:0:
246,133,16641,1,2,3:0:0:0:
386,235,16844,1,0,3:0:0:0:
202,269,17047,5,0,3:0:0:0:
337,126,17249,1,0,3:0:0:0:
156,198,17452,1,2,3:0:0:0:
388,309,17655,1,0,3:0:0:0:
490,105,18060,5,0,3:0:0:0:
387,235,18263,1,2,3:0:0:0:
360,29,18466,1,0,3:0:0:0:
476,195,18668,1,0,3:0:0:0:
264,106,18871,1,0,3:0:0:0:
146,273,19276,6,0,P|129:209|83:136,1,115.2000028125,4|0,3:1|0:0,0:0:0:0:
218,297,19682,1,2,3:0:0:0:
283,122,19885,1,0,3:0:0:0:
349,300,20087,1,2,3:0:0:0:
442,177,20290,2,0,P|452:117|468:61,1,115.2000028125,8|0,3:0|0:0,0:0:0:0:
283,208,20695,1,2,3:0:0:0:
283,208,20797,1,2,3:0:0:0:
283,208,20898,1,0,3:0:0:0:
252,54,21101,5,4,0:0:0:0:
176,117,21303,1,0,0:0:0:0:
90,177,21506,2,0,P|36:207|8:239,1,91.1999988867188,0|0,3:0|0:0,0:0:0:0:
192,215,21912,2,0,P|232:195|264:163,1,91.1999988867188,0|0,3:0|0:0,0:0:0:0:
145,56,22317,2,0,P|95:20|54:9,1,91.1999988867188,0|0,3:0|0:0,0:0:0:0:
34,200,22722,5,0,3:0:0:0:
116,300,22925,1,0,0:0:0:0:
117,188,23128,1,0,3:0:0:0:
116,300,23330,1,0,0:0:0:0:
214,211,23533,1,0,3:0:0:0:
64,240,23736,5,0,0:0:0:0:
175,144,23939,1,0,3:0:0:0:
256,273,24141,1,0,0:0:0:0:
371,165,24344,2,0,P|432:144|481:141,1,91.1999988867188,0|0,3:0|0:0,0:0:0:0:
304,96,24749,2,0,P|261:112|216:120,1,91.1999988867188,0|0,3:0|0:0,0:0:0:0:
382,49,25155,1,0,3:0:0:0:
294,180,25358,2,0,P|259:231|240:286,1,91.1999988867188,0|0,0:0|3:0,0:0:0:0:
445,255,25763,2,0,P|414:195|399:178,1,91.1999988867188,0|0,0:0|3:0,0:0:0:0:
290,131,26168,5,2,0:0:0:0:
215,235,26371,1,2,3:2:0:0:
212,110,26574,1,0,0:0:0:0:
114,146,26776,1,2,3:2:0:0:
269,178,26979,5,0,0:0:0:0:
314,37,27182,1,2,3:2:0:0:
412,216,27385,2,0,P|429:284|430:330,1,91.1999988867188,0|2,0:0|3:2,0:0:0:0:
361,114,27790,5,0,0:0:0:0:
238,276,27993,2,0,P|224:319|217:374,1,99.1999960644533,0|0,3:0|0:0,0:0:0:0:
321,192,28398,2,0,P|242:140|162:189,1,198.399992128907,0|0,3:0|3:0,0:0:0:0:
238,61,29006,6,0,P|293:34|362:31,1,91.1999988867188,0|0,0:0|3:0,0:0:0:0:
414,220,29412,1,0,0:0:0:0:
453,47,29614,1,0,3:0:0:0:
325,164,29817,1,0,0:0:0:0:
491,183,30020,5,0,3:0:0:0:
323,81,30222,1,0,0:0:0:0:
501,61,30425,1,0,3:0:0:0:
325,164,30628,1,0,0:0:0:0:
149,61,30830,6,0,P|101:34|45:29,1,91.1999988867188,0|0,3:0|0:0,0:0:0:0:
165,192,31236,2,0,P|213:219|269:224,1,91.1999988867188,0|0,3:0|0:0,0:0:0:0:
124,126,31641,1,0,3:0:0:0:
58,226,31844,2,0,P|36:282|22:351,1,91.1999988867188,0|0,0:0|3:0,0:0:0:0:
214,269,32249,2,0,B|310:228|319:289|404:255,1,182.399997773438,2|2,3:0|3:0,0:0:0:0:
252,123,32858,5,2,3:0:0:0:
136,281,33060,2,0,P|207:262|226:240,1,91.1999988867188,0|0,0:0|3:0,0:0:0:0:
249,227,33364,1,2,3:0:0:0:
249,227,33466,1,0,3:0:0:0:
124,126,33668,1,2,3:0:0:0:
275,29,33871,1,2,3:0:0:0:
275,29,33972,1,2,3:0:0:0:
275,29,34074,1,4,3:2:0:0:
401,26,34479,6,0,P|414:80|411:128,1,99.1999960644533,2|0,3:2|0:0,0:0:0:0:
285,295,34885,2,0,P|272:241|275:193,1,99.1999960644533,0|0,3:0|0:0,0:0:0:0:
415,215,35290,1,2,3:2:0:0:
214,115,35493,2,0,P|157:95|104:91,1,99.1999960644533,0|0,0:0|3:0,0:0:0:0:
254,39,35898,1,0,0:0:0:0:
341,226,36101,1,2,3:2:0:0:
394,77,36303,1,0,0:0:0:0:
218,194,36506,1,0,3:0:0:0:
115,60,36709,5,0,0:0:0:0:
105,204,36912,1,2,3:2:0:0:
317,101,37114,1,0,0:0:0:0:
302,273,37317,2,0,P|320:215|341:179,1,99.1999960644533,0|0,3:0|0:0,0:0:0:0:
437,55,37722,5,2,3:2:0:0:
249,135,37925,1,0,0:0:0:0:
436,179,38128,1,0,3:0:0:0:
248,60,38330,2,0,P|160:50|132:61,1,99.1999960644533,0|2,0:0|3:2,0:0:0:0:
247,209,38736,2,0,P|294:222|343:216,1,99.1999960644533,0|0,0:0|3:0,0:0:0:0:
337,77,39141,5,0,0:0:0:0:
397,266,39344,1,2,3:2:0:0:
217,177,39547,1,0,0:0:0:0:
446,203,39749,5,0,3:0:0:0:
241,97,39952,1,2,3:0:0:0:
330,306,40155,1,2,3:0:0:0:
314,61,40358,1,0,3:0:0:0:
314,61,40459,1,0,3:0:0:0:
314,61,40560,1,4,3:2:0:0:
220,204,40763,5,0,0:0:0:0:
260,346,40966,2,0,P|273:290|301:234,1,99.1999960644533,2|0,3:0|0:0,0:0:0:0:
163,302,41371,2,0,P|150:246|122:190,1,99.1999960644533,0|0,3:0|0:0,0:0:0:0:
64,63,41776,1,2,3:0:0:0:
285,175,41979,6,0,P|337:208|374:254,1,107.199994929199,0|0,0:0|3:0,0:0:0:0:
279,19,42385,1,0,0:0:0:0:
190,200,42587,1,2,3:0:0:0:
387,155,42790,1,0,0:0:0:0:
191,96,42993,2,0,L|82:72,1,107.199994929199,0|0,3:0|0:0,0:0:0:0:
190,200,43398,1,2,3:2:0:0:
359,65,43601,1,0,0:0:0:0:
336,274,43803,5,0,3:0:0:0:
191,96,44006,1,0,0:0:0:0:
398,133,44209,1,2,3:2:0:0:
199,215,44412,1,0,0:0:0:0:
324,3,44614,1,8,3:0:0:0:
389,251,44817,2,0,P|419:313|425:356,1,107.199994929199,2|2,3:0|3:0,0:0:0:0:
429,377,45121,1,2,3:0:0:0:
429,374,45222,2,0,P|456:314|478:279,1,107.199994929199,4|0,3:1|0:0,0:0:0:0:
289,287,45628,5,8,3:0:0:0:
280,97,45830,1,2,3:0:0:0:
156,178,46033,1,0,0:0:0:0:
366,138,46236,1,2,3:0:0:0:
219,289,46439,1,8,3:0:0:0:
253,79,46641,1,2,3:0:0:0:
77,126,46844,1,8,3:0:0:0:
77,126,46945,1,8,3:0:0:0:
77,126,47047,5,4,3:2:0:0:
146,267,47351,1,0,3:0:0:0:
260,158,47655,1,0,3:0:0:0:
334,233,47858,2,0,P|346:176|387:107,1,134.399995898438,2|0,3:0|0:0,0:0:0:0:
267,273,48466,5,0,3:0:0:0:
173,190,48668,1,0,3:0:0:0:
281,44,48972,1,0,3:0:0:0:
388,190,49276,1,0,0:0:0:0:
446,129,49479,2,0,P|485:92|508:79,1,67.1999979492188,2|0,3:0|0:0,0:0:0:0:
271,195,49885,5,0,0:0:0:0:
162,93,50087,1,0,0:0:0:0:
119,235,50290,2,0,P|93:291|83:317,1,67.1999979492188,0|0,3:0|0:0,0:0:0:0:
117,325,50594,2,0,P|153:317|201:324,1,67.1999979492188,0|0,3:0|0:0,0:0:0:0:
217,325,50898,5,0,3:0:0:0:
235,126,51101,1,2,3:0:0:0:
377,237,51405,1,0,0:0:0:0:
415,59,51709,1,0,3:0:0:0:
235,126,51912,2,0,P|164:154|148:236,1,134.399995898438,0|0,0:0|0:0,0:0:0:0:
335,69,52722,5,0,3:0:0:0:
361,175,52925,1,0,3:0:0:0:
412,82,53128,1,2,3:0:0:0:
288,216,53330,1,0,0:0:0:0:
131,284,53533,5,4,3:1:0:0:
181,132,53736,1,0,0:0:0:0:
200,368,53939,1,0,3:0:0:0:
119,194,54142,1,0,0:0:0:0:
295,295,54344,1,0,3:0:0:0:
362,118,54547,5,0,0:0:0:0:
202,224,54749,1,2,3:2:0:0:
388,246,54952,2,0,P|439:269|503:311,1,99.1999960644533,0|0,0:0|3:0,0:0:0:0:
446,144,55358,1,0,0:0:0:0:
387,20,55560,1,2,3:2:0:0:
299,209,55763,2,0,P|281:271|272:340,1,99.1999960644533,0|0,0:0|3:0,0:0:0:0:
204,137,56168,2,0,P|222:75|231:6,1,99.1999960644533,0|2,0:0|3:2,0:0:0:0:
126,190,56574,5,0,0:0:0:0:
319,80,56776,1,4,3:1:0:0:
310,227,56979,1,0,0:0:0:0:
205,97,57182,1,2,3:2:0:0:
396,182,57385,1,0,0:0:0:0:
211,258,57587,5,2,3:2:0:0:
337,41,57790,1,2,3:0:0:0:
388,292,57993,1,2,3:0:0:0:
169,118,58195,2,0,P|141:78|103:23,1,99.1999960644533,4|0,3:1|3:0,0:0:0:0:
48,291,58601,1,0,3:0:0:0:
202,91,58803,1,0,3:0:0:0:
274,355,59006,2,0,P|295:307|336:263,1,99.1999960644533,2|0,3:0|0:0,0:0:0:0:
485,183,59614,6,0,P|430:159|360:109,1,124.799999238281,0|0,0:0|0:0,0:0:0:0:
332,124,60020,6,0,P|249:58|175:132,1,230.400005625,4|0,3:1|3:0,0:0:0:0:
167,335,60628,1,0,0:0:0:0:
181,317,60729,1,0,0:0:0:0:
195,299,60830,2,0,P|233:248|283:215,1,115.2000028125,0|0,3:0|0:0,0:0:0:0:
330,367,61236,1,2,3:2:0:0:
177,186,61439,2,0,P|120:137|97:93,1,115.2000028125,0|0,0:0|3:0,0:0:0:0:
303,113,61844,5,0,0:0:0:0:
156,278,62047,1,2,3:2:0:0:
220,66,62249,1,0,0:0:0:0:
279,304,62452,2,0,B|329:258|290:237|341:195,1,115.2000028125,0|0,3:0|0:0,0:0:0:0:
421,27,62858,6,0,P|412:97|457:177,1,148.79999409668,0|0,3:0|0:0,0:0:0:0:
434,209,63263,2,0,P|375:244|442:360,1,230.400005625,0|2,3:0|3:2,0:0:0:0:
343,102,63871,1,0,0:0:0:0:
326,91,63972,1,0,0:0:0:0:
307,83,64074,2,0,P|238:81|197:109,2,115.2000028125,0|0|2,3:0|0:0|3:2,0:0:0:0:
263,299,64682,6,0,P|230:243|183:203,1,115.2000028125,0|0,0:0|3:0,0:0:0:0:
130,369,65087,1,0,0:0:0:0:
282,183,65290,2,0,P|322:151|385:126,1,115.2000028125,2|0,3:2|0:0,0:0:0:0:
164,112,65695,2,0,P|125:143|65:175,1,115.2000028125,0|2,3:0|3:0,0:0:0:0:
173,270,66101,1,2,3:0:0:0:
173,270,66202,1,2,3:0:0:0:
173,270,66303,5,0,0:0:0:0:
264,73,66506,1,4,3:1:0:0:
272,322,66709,1,0,3:0:0:0:
142,28,66912,1,2,3:0:0:0:
57,289,67114,2,0,P|88:235|145:165,1,123.199997556152,0|0,3:0|0:0,0:0:0:0:
146,321,67520,5,0,3:0:0:0:
247,102,67722,1,2,3:0:0:0:
348,321,67925,1,0,0:0:0:0:
173,179,68128,5,0,3:0:0:0:
329,54,68330,1,0,3:0:0:0:
378,240,68533,1,2,3:0:0:0:
206,233,68736,2,0,P|149:268|94:288,1,123.199997556152,0|0,3:0|0:0,0:0:0:0:
274,113,69141,2,0,P|315:85|386:57,1,123.199997556152,0|2,3:0|3:0,0:0:0:0:
281,282,69547,5,0,0:0:0:0:
161,153,69749,2,0,P|97:122|53:108,1,99.1999960644533,4|0,3:1|0:0,0:0:0:0:
117,289,70155,2,0,P|161:311|207:329,1,99.1999960644533,2|0,3:0|0:0,0:0:0:0:
311,126,70560,1,0,3:0:0:0:
196,273,70763,1,2,3:0:0:0:
412,99,70966,1,2,3:0:0:0:
330,365,71168,2,0,B|264:293|311:237|239:167,1,214.399989858399,4|0,3:1|3:0,0:0:0:0:
177,91,71776,5,2,3:0:0:0:
177,91,71878,1,0,3:0:0:0:
177,91,71979,1,0,3:0:0:0:
362,95,72182,5,2,3:0:0:0:
362,95,72283,1,2,3:0:0:0:
362,95,72385,1,0,3:0:0:0:
374,132,72486,5,0,3:0:0:0:
339,166,72587,1,8,3:0:0:0:
289,159,72689,1,8,3:0:0:0:
248,130,72790,1,8,3:0:0:0:
201,145,72891,1,8,3:0:0:0:
163,173,72993,6,0,P|91:253|154:339,1,230.400005625,4|2,3:1|3:0,0:0:0:0:
252,155,73601,1,0,0:0:0:0:
356,298,73803,1,0,3:0:0:0:
337,93,74006,1,0,0:0:0:0:
269,298,74209,1,2,3:2:0:0:
181,86,74412,2,0,P|123:53|93:12,1,115.2000028125,0|0,0:0|3:0,0:0:0:0:
279,169,74817,1,0,0:0:0:0:
446,37,75020,2,0,P|456:122|442:183,1,115.2000028125,2|0,3:2|0:0,0:0:0:0:
332,359,75425,2,0,P|322:274|336:213,1,115.2000028125,0|0,3:0|0:0,0:0:0:0:
138,132,75830,6,0,P|190:98|301:71,1,148.79999409668,0|0,3:0|0:0,0:0:0:0:
276,122,76236,2,0,B|191:213|245:264|185:330,1,230.400005625,0|2,3:0|3:2,0:0:0:0:
313,195,76844,1,0,0:0:0:0:
134,264,77047,2,0,P|81:313|21:355,1,115.2000028125,0|0,3:0|0:0,0:0:0:0:
179,157,77452,1,2,3:2:0:0:
311,311,77655,2,0,P|257:254|215:226,1,115.2000028125,0|0,0:0|3:0,0:0:0:0:
50,124,78060,1,0,0:0:0:0:
215,47,78263,2,0,P|272:24|335:9,1,115.2000028125,2|0,3:2|0:0,0:0:0:0:
476,135,78668,2,0,P|422:156|366:171,1,115.2000028125,0|0,3:0|0:0,0:0:0:0:
151,185,79074,1,2,3:0:0:0:
151,185,79175,1,2,3:0:0:0:
151,185,79276,5,0,3:0:0:0:
230,17,79479,1,4,3:1:0:0:
302,238,79682,1,0,3:0:0:0:
143,73,79885,1,2,3:0:0:0:
199,368,80087,2,0,P|174:306|128:242,1,123.199997556152,0|0,3:0|0:0,0:0:0:0:
303,91,80493,5,0,3:0:0:0:
166,195,80695,1,2,3:0:0:0:
313,309,80898,1,0,0:0:0:0:
175,88,81101,5,0,3:0:0:0:
160,311,81303,1,0,3:0:0:0:
310,194,81506,1,2,3:0:0:0:
97,162,81709,2,0,P|71:95|20:33,1,123.199997556152,0|0,3:0|0:0,0:0:0:0:
199,252,82114,2,0,P|219:309|254:360,1,123.199997556152,0|2,3:0|3:0,0:0:0:0:
309,170,82520,5,0,0:0:0:0:
104,207,82722,1,4,3:1:0:0:
184,98,82925,1,0,0:0:0:0:
211,337,83128,1,2,3:0:0:0:
93,119,83330,2,0,P|48:55|21:25,1,107.199994929199,4|0,3:1|0:0,0:0:0:0:
154,309,83736,1,2,3:0:0:0:
139,66,83939,1,2,3:0:0:0:
281,313,84141,1,2,3:0:0:0:
208,128,84547,5,4,3:1:0:0:
196,297,84749,1,4,3:1:0:0:
340,199,84952,1,4,3:1:0:0:
165,219,85155,1,4,3:1:0:0:
381,295,85358,2,0,P|429:329|459:368,1,107.199994929199,0|2,0:0|3:0,0:0:0:0:
429,145,85763,6,0,P|395:76|351:41,1,107.199994929199,0|0,3:0|0:0,0:0:0:0:
292,217,86168,1,0,3:0:0:0:
250,53,86371,1,2,3:0:0:0:
394,170,86574,1,0,3:0:0:0:
188,174,86776,5,0,3:0:0:0:
385,75,86979,1,0,3:0:0:0:
164,70,87182,1,2,3:0:0:0:
392,159,87385,1,0,3:0:0:0:
248,297,87790,5,0,3:0:0:0:
171,128,87993,1,2,3:0:0:0:
94,297,88195,1,0,3:0:0:0:
243,157,88398,1,0,3:0:0:0:
25,246,88601,1,0,3:0:0:0:
202,25,89006,6,0,P|269:73|293:116,1,107.199994929199,0|0,3:0|0:0,0:0:0:0:
432,50,89412,1,0,3:0:0:0:
329,217,89615,1,2,3:0:0:0:
497,183,89817,1,0,3:0:0:0:
277,154,90020,5,0,3:0:0:0:
479,86,90222,1,0,3:0:0:0:
270,71,90425,1,2,3:0:0:0:
497,183,90628,1,0,3:0:0:0:
230,221,91033,5,0,3:0:0:0:
125,360,91236,1,2,3:0:0:0:
78,191,91439,1,0,3:0:0:0:
233,301,91641,1,0,3:0:0:0:
35,295,91844,2,0,P|12:237|2:152,1,107.199994929199,0|2,3:0|3:0,0:0:0:0:
218,77,92249,6,0,P|191:178|188:215,1,107.199994929199,0|0,3:0|0:0,0:0:0:0:
123,32,92655,1,0,3:0:0:0:
195,238,92858,1,2,3:0:0:0:
304,58,93060,1,0,3:0:0:0:
111,134,93263,1,0,3:0:0:0:
309,146,93466,1,0,3:0:0:0:
121,213,93668,1,2,3:0:0:0:
304,58,93871,1,0,3:0:0:0:
359,269,94276,5,0,3:0:0:0:
257,131,94479,1,2,3:0:0:0:
206,285,94682,1,0,3:0:0:0:
366,172,94885,1,0,3:0:0:0:
143,226,95087,1,0,3:0:0:0:
295,130,95493,6,0,P|315:70|350:18,1,115.2000028125,4|0,3:1|0:0,0:0:0:0:
355,215,95898,1,2,3:0:0:0:
214,50,96101,1,2,3:0:0:0:
275,254,96303,1,0,3:0:0:0:
384,98,96506,2,0,P|431:63|473:19,1,115.2000028125,0|0,3:0|0:0,0:0:0:0:
261,137,96912,1,2,3:0:0:0:
261,137,97013,1,2,3:0:0:0:
261,137,97114,1,0,3:0:0:0:
118,80,97317,5,4,3:2:0:0:
124,186,97520,1,0,0:0:0:0:
181,282,97722,2,0,P|218:318|263:349,1,91.1999988867188,2|0,1:2|0:0,0:0:0:0:
124,186,98128,2,0,P|87:150|42:119,1,91.1999988867188,0|0,3:0|0:0,0:0:0:0:
63,259,98533,1,2,1:2:0:0:
197,156,98736,2,0,P|247:120|277:60,1,91.1999988867188,0|0,0:0|3:0,0:0:0:0:
395,200,99141,5,0,0:0:0:0:
346,93,99344,1,2,1:2:0:0:
471,102,99547,1,0,0:0:0:0:
346,93,99750,1,0,3:0:0:0:
467,233,99952,1,0,0:0:0:0:
322,161,100155,1,2,1:2:0:0:
177,233,100358,1,0,0:0:0:0:
177,233,100459,1,0,0:0:0:0:
177,233,100560,6,0,P|168:178|197:128,1,91.1999988867188,0|0,3:0|0:0,0:0:0:0:
404,218,100966,2,0,P|413:273|384:323,1,91.1999988867188,2|0,1:2|0:0,0:0:0:0:
251,197,101371,1,0,3:0:0:0:
408,132,101574,2,0,P|460:151|488:201,1,91.1999988867188,0|2,0:0|1:2,0:0:0:0:
269,109,101979,1,0,0:0:0:0:
269,109,102182,2,0,P|216:89|180:38,1,99.1999960644533,0|0,3:0|0:0,0:0:0:0:
100,147,102587,5,2,1:2:0:0:
25,68,102790,1,0,0:0:0:0:
85,232,102993,1,0,3:0:0:0:
229,106,103195,5,0,0:0:0:0:
264,280,103398,1,2,3:2:0:0:
391,159,103601,1,0,0:0:0:0:
194,246,103803,1,4,3:2:0:0:
387,66,104006,1,0,0:0:0:0:
509,209,104209,2,0,P|498:257|460:291,1,99.1999960644533,2|0,1:2|0:0,0:0:0:0:
387,66,104614,2,0,P|419:29|467:18,1,99.1999960644533,0|0,3:0|0:0,0:0:0:0:
423,211,105020,5,2,1:2:0:0:
365,292,105222,2,0,P|337:332|300:366,1,91.1999988867188,0|0,0:0|3:0,0:0:0:0:
167,252,105628,1,0,0:0:0:0:
67,370,105830,1,2,1:2:0:0:
239,315,106033,1,0,0:0:0:0:
98,193,106236,2,0,P|48:148|15:107,1,91.1999988867188,0|0,3:0|0:0,0:0:0:0:
272,247,106641,1,2,1:2:0:0:
91,323,106844,1,0,0:0:0:0:
177,187,107047,6,0,P|161:133|131:91,1,91.1999988867188,0|0,3:0|0:0,0:0:0:0:
272,247,107452,2,0,P|283:203|306:163,1,91.1999988867188,2|0,1:2|0:0,0:0:0:0:
398,285,107858,1,0,3:0:0:0:
454,143,108060,1,0,0:0:0:0:
511,305,108263,1,0,1:0:0:0:
511,305,108364,1,0,1:0:0:0:
511,305,108466,2,4,P|482:236|440:205,1,91.1999988867188,4|4,3:1|3:1,3:1:0:0:
311,120,108871,5,0,3:0:0:0:
218,270,109074,1,2,1:2:0:0:
100,129,109276,1,0,0:0:0:0:
301,163,109479,1,2,3:0:0:0:
122,253,109682,1,8,3:0:0:0:
217,67,109885,1,2,3:0:0:0:
259,229,110087,1,0,3:0:0:0:
271,258,110189,1,0,3:0:0:0:
282,287,110290,6,0,P|289:336|289:367,1,67.1999979492188,4|0,3:1|0:0,0:0:0:0:
278,384,110594,1,0,3:0:0:0:
184,252,110898,1,0,3:0:0:0:
103,323,111101,2,0,P|67:267|84:204,1,134.399995898438,2|0,3:0|0:0,0:0:0:0:
9,128,111709,5,0,3:0:0:0:
65,36,111912,1,0,3:0:0:0:
165,161,112216,1,0,3:0:0:0:
210,6,112520,1,0,3:0:0:0:
65,36,112722,1,2,3:0:0:0:
180,132,112925,1,0,0:0:0:0:
263,64,113128,1,0,0:0:0:0:
308,160,113330,1,0,0:0:0:0:
427,45,113533,6,0,P|440:74|475:105,1,67.1999979492188,0|0,3:0|0:0,0:0:0:0:
483,120,113837,2,0,P|496:150|498:171,1,33.5999989746094,0|0,3:0|0:0,0:0:0:0:
456,272,114141,1,0,3:0:0:0:
308,160,114344,1,2,3:0:0:0:
252,314,114648,1,0,0:0:0:0:
215,152,114952,1,0,3:0:0:0:
288,231,115155,2,0,P|336:275|339:342,1,134.399995898438,0|0,3:0|0:0,0:0:0:0:
72,239,115966,5,2,3:0:0:0:
124,319,116168,1,0,3:0:0:0:
161,212,116371,1,2,3:0:0:0:
30,316,116574,1,0,0:0:0:0:
89,119,116776,6,0,P|74:55|35:6,1,99.1999960644533,4|0,3:1|0:0,0:0:0:0:
162,181,117182,1,2,3:0:0:0:
229,59,117385,1,0,0:0:0:0:
274,224,117587,1,0,3:0:0:0:
141,74,117790,1,0,0:0:0:0:
349,173,117993,1,2,3:0:0:0:
101,258,118195,2,0,P|133:212|162:180,1,99.1999960644533,0|0,0:0|3:0,0:0:0:0:
266,330,118601,5,0,0:0:0:0:
349,173,118803,1,2,3:0:0:0:
171,100,119006,2,0,P|103:78|62:43,1,99.1999960644533,0|0,0:0|3:0,0:0:0:0:
277,48,119412,2,0,P|345:70|386:105,1,99.1999960644533,0|2,0:0|3:0,0:0:0:0:
273,205,119817,5,0,0:0:0:0:
144,19,120020,1,4,3:2:0:0:
69,150,120222,1,0,0:0:0:0:
232,93,120425,1,2,3:0:0:0:
57,223,120628,1,0,0:0:0:0:
162,43,120830,5,8,3:0:0:0:
252,222,121033,1,2,3:0:0:0:
386,33,121236,1,2,3:0:0:0:
69,150,121439,2,0,P|31:207|14:279,1,99.1999960644533,4|0,3:2|0:0,0:0:0:0:
173,80,121844,1,2,3:0:0:0:
208,302,122047,1,2,3:0:0:0:
92,44,122249,1,2,3:0:0:0:
289,17,122655,5,2,3:0:0:0:
320,41,122756,1,0,3:0:0:0:
343,73,122858,1,2,3:0:0:0:
318,103,122959,1,2,3:0:0:0:
298,137,123060,1,2,3:0:0:0:
308,175,123162,1,2,3:0:0:0:
341,203,123263,6,0,P|416:277|349:357,1,230.400005625,4|2,3:1|3:2,0:0:0:0:
192,148,123871,1,0,0:0:0:0:
338,281,124074,1,0,3:0:0:0:
91,316,124276,1,0,0:0:0:0:
284,134,124479,1,2,3:2:0:0:
185,362,124682,2,0,P|169:295|139:244,1,115.2000028125,0|0,0:0|3:0,0:0:0:0:
345,327,125087,1,0,0:0:0:0:
228,163,125290,2,0,P|182:115|129:83,1,115.2000028125,2|0,3:2|0:0,0:0:0:0:
222,277,125695,2,0,P|268:325|321:357,1,115.2000028125,0|0,3:0|0:0,0:0:0:0:
420,99,126101,6,0,P|342:73|284:69,1,99.1999960644533,2|0,3:0|0:0,0:0:0:0:
93,267,126506,6,0,P|21:190|90:111,1,230.400005625,0|2,0:0|3:2,0:0:0:0:
249,323,127114,1,0,0:0:0:0:
103,190,127317,1,0,3:0:0:0:
253,96,127520,1,0,0:0:0:0:
174,274,127722,1,2,3:2:0:0:
308,171,127925,2,0,P|370:125|447:109,1,115.2000028125,0|0,0:0|3:0,0:0:0:0:
411,360,128330,1,0,0:0:0:0:
256,243,128533,2,0,P|194:197|117:181,1,115.2000028125,2|0,3:2|0:0,0:0:0:0:
47,75,128939,2,0,P|89:19|138:-16,1,115.2000028125,2|2,3:2|3:0,0:0:0:0:
158,180,129344,1,2,3:0:0:0:
158,180,129445,1,2,3:0:0:0:
158,180,129547,5,0,3:0:0:0:
331,23,129749,1,4,3:1:0:0:
396,255,129952,1,0,3:0:0:0:
223,104,130155,1,2,3:0:0:0:
436,135,130358,2,0,P|504:172|533:214,1,123.199997556152,0|0,3:0|0:0,0:0:0:0:
396,255,130763,5,0,3:0:0:0:
244,63,130966,1,2,3:0:0:0:
191,309,131168,1,0,0:0:0:0:
366,136,131371,5,0,3:0:0:0:
158,190,131574,1,0,3:0:0:0:
332,329,131776,1,2,3:0:0:0:
203,102,131979,2,0,P|161:37|125:-2,1,123.199997556152,0|0,3:0|0:0,0:0:0:0:
259,230,132385,2,0,P|291:282|331:328,1,123.199997556152,0|2,3:0|3:0,0:0:0:0:
363,141,132790,5,0,0:0:0:0:
215,297,132993,2,0,P|190:339|157:382,1,99.1999960644533,4|0,3:1|0:0,0:0:0:0:
142,152,133398,2,0,P|173:86|199:50,1,99.1999960644533,2|0,3:0|0:0,0:0:0:0:
367,169,133803,1,0,3:0:0:0:
138,240,134006,1,0,3:0:0:0:
280,42,134209,1,2,3:0:0:0:
406,275,134412,2,0,P|451:182|419:69,1,214.399989858399,4|0,3:1|3:0,0:0:0:0:
289,277,135020,5,2,3:0:0:0:
289,277,135121,1,2,3:0:0:0:
289,277,135222,1,0,3:0:0:0:
113,140,135425,5,2,3:0:0:0:
113,140,135526,1,2,3:0:0:0:
113,140,135628,1,0,3:0:0:0:
156,161,135729,5,0,3:0:0:0:
199,182,135830,1,8,3:0:0:0:
237,151,135932,1,8,3:0:0:0:
279,129,136033,1,8,3:0:0:0:
324,145,136135,1,8,3:0:0:0:
364,177,136236,6,0,B|450:259|380:298|481:384,1,230.400005625,4|2,3:1|3:2,0:0:0:0:
485,132,136844,1,0,0:0:0:0:
334,262,137047,1,0,3:0:0:0:
329,62,137249,1,0,0:0:0:0:
351,308,137452,1,2,3:2:0:0:
194,127,137655,2,0,P|141:75|86:46,1,115.2000028125,0|0,0:0|3:0,0:0:0:0:
116,284,138060,1,0,0:0:0:0:
288,139,138263,2,0,P|343:97|411:69,1,115.2000028125,2|0,3:2|0:0,0:0:0:0:
212,222,138668,2,0,P|157:264|89:292,1,115.2000028125,0|0,3:0|0:0,0:0:0:0:
200,20,139074,6,0,P|213:82|210:139,1,99.1999960644533,2|0,3:2|0:0,0:0:0:0:
111,376,139479,2,0,P|34:324|69:201,1,230.400005625,0|2,3:0|3:2,0:0:0:0:
264,344,140087,1,0,0:0:0:0:
311,122,140290,1,0,3:0:0:0:
174,256,140493,1,0,0:0:0:0:
401,266,140695,1,2,3:2:0:0:
239,77,140898,2,0,P|176:58|95:46,1,115.2000028125,0|0,0:0|3:0,0:0:0:0:
174,256,141303,1,0,0:0:0:0:
368,142,141506,2,0,P|422:113|454:68,1,115.2000028125,2|0,3:2|0:0,0:0:0:0:
259,185,141912,2,0,P|207:210|173:255,1,115.2000028125,0|2,3:0|3:0,0:0:0:0:
375,371,142317,1,2,3:0:0:0:
375,371,142418,1,2,3:0:0:0:
375,371,142520,5,0,3:0:0:0:
443,148,142722,1,4,3:1:0:0:
284,301,142925,1,0,3:0:0:0:
510,295,143128,1,2,3:0:0:0:
310,99,143330,2,0,P|263:67|201:84,1,123.199997556152,0|0,3:0|0:0,0:0:0:0:
148,357,143736,5,0,3:0:0:0:
247,144,143939,1,2,3:0:0:0:
369,359,144141,1,0,0:0:0:0:
148,213,144344,5,0,3:0:0:0:
352,195,144547,1,0,3:0:0:0:
229,384,144749,1,2,3:0:0:0:
168,131,144952,2,0,P|128:85|123:25,1,123.199997556152,0|0,3:0|0:0,0:0:0:0:
397,90,145358,2,0,P|387:162|340:202,1,123.199997556152,0|2,3:0|3:0,0:0:0:0:
201,55,145763,5,0,3:0:0:0:
352,195,145966,1,4,3:1:0:0:
178,261,146168,1,0,3:0:0:0:
278,129,146371,1,2,3:0:0:0:
355,341,146574,2,0,P|405:272|414:233,1,107.199994929199,4|0,3:1|0:0,0:0:0:0:
161,339,146979,1,0,3:0:0:0:
237,62,147182,1,2,3:0:0:0:
369,206,147385,1,0,3:0:0:0:
369,206,147587,1,4,3:1:0:0:
139,15,150628,5,0,3:0:0:0:
270,209,150830,1,4,3:2:0:0:
320,44,153871,5,0,3:0:0:0:
189,229,154074,2,0,P|156:166|156:89,1,134.399995898438,4|2,3:2|3:0,0:0:0:0:
398,150,154682,1,0,3:0:0:0:
278,327,154885,2,0,P|225:282|188:228,1,134.399995898438,0|2,3:0|3:0,3:0:0:0:
126,15,155493,5,0,0:0:0:0:
339,92,155695,2,0,P|373:130|395:217,1,134.399995898438,0|2,3:0|3:0,0:0:0:0:
158,180,156303,1,0,3:0:0:0:
372,293,156506,1,0,3:0:0:0:
261,166,156709,1,0,0:0:0:0:
261,166,156810,1,2,3:0:0:0:
261,166,156912,1,2,3:0:0:0:
102,278,157114,5,0,0:0:0:0:
103,47,157317,2,0,L|103:190,1,134.399995898438,4|2,3:2|3:0,0:0:0:0:
249,353,157925,1,0,3:0:0:0:
251,124,158128,2,0,L|251:264,1,134.399995898438,0|2,3:0|3:0,0:0:0:0:
165,42,158736,5,0,0:0:0:0:
164,270,158939,2,0,L|163:136,1,134.399995898438,0|2,3:0|3:0,0:0:0:0:
348,106,159547,1,0,0:0:0:0:
347,336,159750,2,0,L|347:201,1,134.399995898438,0|0,3:0|3:0,0:0:0:0:
350,184,160256,1,2,0:0:0:0:
350,184,160358,5,0,3:0:0:0:
234,290,160560,2,0,P|219:252|195:218,1,83.1999994921875,4|0,3:2|0:0,0:0:0:0:
94,342,160966,2,0,P|74:263|85:237,1,83.1999994921875,2|0,3:0|0:0,0:0:0:0:
85,231,161270,1,2,3:0:0:0:
92,203,161371,1,0,3:0:0:0:
165,93,161574,1,2,3:0:0:0:
234,1,161776,2,0,P|267:75|279:93,1,83.1999994921875,2|0,3:0|0:0,0:0:0:0:
396,149,162182,2,0,P|381:187|361:224,1,83.1999994921875,4|0,3:2|0:0,0:0:0:0:
211,170,162587,2,0,P|173:125|133:99,1,83.1999994921875,2|0,3:0|0:0,0:0:0:0:
131,97,162891,1,2,3:0:0:0:
131,97,162993,1,0,3:0:0:0:
272,89,163195,1,2,3:0:0:0:
220,262,163398,2,0,L|194:298,5,33.0666653548178,2|2|2|2|2|2,3:0|3:0|3:0|3:0|3:0|3:0,3:0:0:0:
178,317,163803,5,4,3:1:0:0:
196,293,164412,1,4,3:1:0:0:
214,270,165020,1,4,3:1:0:0:
226,296,165628,1,4,3:1:0:0:
238,323,166236,1,4,3:1:0:0:
238,323,166641,6,0,P|264:269|254:228,1,99.1999960644533,8|0,3:0|0:0,0:0:0:0:
58,192,167047,6,0,B|66:150|144:134|194:135|194:135|305:53|206:-44|86:36|194:135|194:135|305:148|359:71,1,638.399992207031,4|0,3:1|0:0,0:0:0:0:
405,164,168668,6,0,B|468:134|510:180|477:262|461:300|390:357,1,273.599996660156,4|0,3:1|0:0,0:0:0:0:
389,248,169479,1,4,3:1:0:0:
391,204,169885,1,0,3:0:0:0:
391,163,170290,2,0,B|328:133|286:179|319:261|335:299|406:356,1,273.599996660156,4|0,3:1|0:0,0:0:0:0:
253,281,171101,6,0,B|230:235|187:202|116:220|74:282|96:365|145:375|199:351|180:290,1,297.59998819336,4|0,3:1|0:0,0:0:0:0:
328,282,171912,2,0,B|350:236|393:203|465:221|506:283|485:366|436:376|382:352|401:291,1,297.59998819336,4|0,3:1|3:0,0:0:0:0:
399,323,172621,1,0,3:0:0:0:
399,323,172722,1,4,3:1:0:0:
317,160,173026,1,4,3:1:0:0:
211,305,173330,6,0,P|175:348|137:373,1,99.1999960644533,4|2,3:1|3:0,0:0:0:0:
102,188,173736,1,0,3:0:0:0:
129,159,173837,1,0,3:0:0:0:
175,141,173939,5,2,3:0:0:0:
339,244,174141,2,0,P|390:209|421:141,1,123.199997556152,0|0,0:0|3:0,0:0:0:0:
232,34,174547,5,0,3:0:0:0:
210,258,174749,1,2,3:0:0:0:
417,157,174952,1,0,0:0:0:0:
197,148,175155,5,0,3:0:0:0:
339,304,175358,1,0,3:0:0:0:
379,87,175560,1,2,3:0:0:0:
230,288,175763,2,0,P|181:338|114:361,1,123.199997556152,0|0,3:0|0:0,0:0:0:0:
114,109,176168,2,0,P|159:68|234:55,1,123.199997556152,0|2,3:0|3:0,0:0:0:0:
197,148,176574,5,0,0:0:0:0:
41,137,176776,2,0,P|10:71|-4:9,1,107.199994929199,4|0,3:1|0:0,0:0:0:0:
124,202,177182,2,0,P|148:249|164:300,1,107.199994929199,2|0,3:0|0:0,0:0:0:0:
254,110,177587,1,0,3:0:0:0:
356,328,177790,1,0,3:0:0:0:
474,143,177993,1,2,3:0:0:0:
245,197,178195,2,0,P|172:109|245:23,1,246.399995112305,4|0,3:1|3:0,0:0:0:0:
249,201,178803,5,2,3:0:0:0:
249,201,178905,1,2,3:0:0:0:
249,201,179006,1,0,3:0:0:0:
114,109,179209,5,2,3:0:0:0:
114,109,179310,1,2,3:0:0:0:
114,109,179412,1,0,3:0:0:0:
88,158,179513,5,0,3:0:0:0:
81,212,179614,1,8,3:0:0:0:
110,259,179716,1,8,3:0:0:0:
158,285,179817,1,8,3:0:0:0:
211,270,179918,1,8,3:0:0:0:
257,289,180020,2,0,B|356:283|346:172|454:140,1,230.400005625,4|2,3:1|3:2,0:0:0:0:
401,353,180628,5,0,0:0:0:0:
277,159,180830,1,0,3:0:0:0:
208,364,181033,1,0,0:0:0:0:
413,246,181236,1,2,3:2:0:0:
198,171,181439,2,0,P|141:137|108:91,1,115.2000028125,0|0,0:0|3:0,0:0:0:0:
340,71,181844,1,0,0:0:0:0:
163,268,182047,2,0,P|88:342|66:395,1,115.2000028125,2|0,3:2|0:0,0:0:0:0:
357,345,182452,2,0,P|391:299|412:245,1,115.2000028125,0|0,3:0|0:0,0:0:0:0:
241,229,182858,6,0,P|234:163|252:124,1,99.1999960644533,2|0,3:2|0:0,0:0:0:0:
464,191,183263,2,0,P|441:78|340:22,1,230.400005625,0|2,3:0|3:2,0:0:0:0:
323,244,183871,1,0,0:0:0:0:
176,91,184074,2,0,P|111:57|58:44,1,115.2000028125,0|0,3:0|0:0,0:0:0:0:
158,275,184479,1,2,3:2:0:0:
336,91,184682,2,0,P|401:57|454:44,1,115.2000028125,0|0,0:0|3:0,0:0:0:0:
443,279,185087,1,0,0:0:0:0:
257,117,185290,2,0,P|213:176|165:211,1,115.2000028125,2|0,3:2|0:0,0:0:0:0:
52,357,185695,2,0,P|118:376|182:370,1,115.2000028125,0|2,3:0|3:0,0:0:0:0:
377,281,186101,1,2,3:0:0:0:
401,249,186202,1,2,3:0:0:0:
413,210,186303,5,0,3:0:0:0:
140,248,186506,1,4,3:1:0:0:
341,378,186709,1,0,3:0:0:0:
247,144,186912,1,2,3:0:0:0:
99,331,187114,2,0,P|60:286|51:213,1,123.199997556152,0|0,3:0|0:0,0:0:0:0:
208,75,187520,5,0,3:0:0:0:
223,303,187722,1,2,3:0:0:0:
392,171,187925,1,0,0:0:0:0:
313,364,188128,5,0,3:0:0:0:
173,196,188330,1,0,3:0:0:0:
392,171,188533,1,2,3:0:0:0:
223,303,188736,2,0,P|134:298|87:248,1,123.199997556152,0|0,3:0|0:0,0:0:0:0:
392,171,189141,2,0,P|448:164|507:197,1,123.199997556152,0|2,3:0|3:0,0:0:0:0:
286,367,189547,5,0,0:0:0:0:
154,139,189749,1,4,3:1:0:0:
356,309,189952,1,0,0:0:0:0:
121,270,190155,1,2,3:0:0:0:
332,146,190358,2,0,P|391:109|416:75,1,107.199994929199,4|0,3:1|0:0,0:0:0:0:
168,41,190763,5,2,3:0:0:0:
266,319,190966,1,2,3:0:0:0:
89,82,191168,1,2,3:0:0:0:
89,82,191574,5,4,3:1:0:0:
179,252,191776,1,4,3:1:0:0:
288,82,191979,1,4,3:1:0:0:
73,197,192182,1,4,3:1:0:0:
225,24,192385,2,0,P|281:-1|336:14,1,115.2000028125,0|2,0:0|3:0,0:0:0:0:
453,211,192790,6,0,P|405:254|338:265,1,115.2000028125,0|0,3:0|0:0,0:0:0:0:
177,114,193195,1,0,3:0:0:0:
241,325,193398,1,2,3:0:0:0:
368,154,193601,1,0,3:0:0:0:
136,205,193803,5,0,3:0:0:0:
368,154,194006,1,0,3:0:0:0:
142,110,194209,1,2,3:0:0:0:
356,253,194412,1,0,3:0:0:0:
356,253,194817,5,0,3:0:0:0:
250,53,195020,1,2,3:0:0:0:
134,286,195222,1,0,3:0:0:0:
318,168,195425,1,0,3:0:0:0:
145,363,195628,1,0,3:0:0:0:
145,363,196033,6,0,P|68:343|47:286,1,115.2000028125,4|0,3:1|0:0,0:0:0:0:
242,185,196439,1,2,3:0:0:0:
346,330,196641,1,2,3:0:0:0:
368,296,196743,1,2,3:0:0:0:
390,262,196844,1,0,3:0:0:0:
165,208,197047,5,0,3:0:0:0:
410,109,197249,1,2,3:0:0:0:
172,118,197452,1,0,3:0:0:0:
390,262,197655,1,2,3:0:0:0:
390,262,198060,5,4,3:1:0:0:
320,136,198263,1,4,3:1:0:0:
204,298,198466,1,4,3:1:0:0:
327,215,198668,1,4,3:1:0:0:
121,224,198871,2,0,P|78:180|63:131,1,107.199994929199,0|2,3:0|3:0,0:0:0:0:
280,47,199276,6,0,P|244:110|207:157,1,107.199994929199,0|0,3:0|0:0,0:0:0:0:
79,325,199682,1,0,3:0:0:0:
221,224,199885,1,2,3:0:0:0:
337,368,200087,1,0,3:0:0:0:
160,284,200290,5,0,3:0:0:0:
341,281,200493,1,0,3:0:0:0:
194,364,200695,1,2,3:0:0:0:
300,209,200898,1,0,3:0:0:0:
300,209,201303,5,0,3:0:0:0:
424,131,201506,1,2,3:0:0:0:
506,289,201709,1,0,3:0:0:0:
290,290,201912,1,0,3:0:0:0:
502,191,202114,1,0,3:0:0:0:
502,190,202520,6,0,P|486:87|408:16,1,214.399989858399,4|2,3:1|3:0,0:0:0:0:
270,125,203128,2,0,P|201:124|165:97,1,107.199994929199,2|0,3:0|3:0,0:0:0:0:
260,29,203533,5,2,3:0:0:0:
295,43,203635,1,8,3:0:0:0:
326,62,203736,1,8,3:0:0:0:
349,91,203837,1,8,3:0:0:0:
366,124,203939,5,4,3:1:0:0:
189,344,204141,1,4,3:1:0:0:
189,344,204749,1,4,3:1:0:0:
256,192,204851,12,0,208803,0:0:0:0:
