osu file format v14

[General]
AudioFilename: audio.mp3
AudioLeadIn: 0
PreviewTime: 64000
Countdown: 0
SampleSet: Normal
StackLeniency: 0.7
Mode: 1
LetterboxInBreaks: 0
WidescreenStoryboard: 1

[Editor]
Bookmarks: 72670
DistanceSpacing: 3.9
BeatDivisor: 4
GridSize: 4
TimelineZoom: 1.9

[Metadata]
Title:heartbeat from you feat. yuikonnu (Cut Ver.)
TitleUnicode:ハートビート・フロムユー feat. ゆいこんぬ (Cut Ver.)
Artist:TOKOTOKO (NishizawasanP)
ArtistUnicode:TOKOTOKO(西沢さんP)
Creator:Edward_Tsui
Version:Inner Oni
Source:
Tags:初音ミク Hatsune Miku Vocaloid 友達募集P tomobop TomodachiboshuuP utaite pop japanese zawaso tama たま 7@
BeatmapID:2747067
BeatmapSetID:1306370

[Difficulty]
HPDrainRate:5
CircleSize:7
OverallDifficulty:6
ApproachRate:5
SliderMultiplier:1.4
SliderTickRate:1

[Events]
//Background and Video events
0,0,"2451928522143741289.jpg",0,-20
//Break Periods
//Storyboard Layer 0 (Background)
//Storyboard Layer 1 (Fail)
//Storyboard Layer 2 (Pass)
//Storyboard Layer 3 (Foreground)
//Storyboard Layer 4 (Overlay)
//Storyboard Sound Samples

[TimingPoints]
1048,483.870967741935,4,1,0,85,1,0
62922,-83.3333333333333,4,1,0,85,0,0
64918,-76.9230769230769,4,1,0,85,0,1
95402,-84.0336134453781,4,1,0,85,0,1
95523,-86.2068965517241,4,1,0,85,0,1
95644,-88.4955752212389,4,1,0,85,0,1
95886,-90.9090909090909,4,1,0,85,0,0
103628,-83.3333333333333,4,1,0,85,0,0
119233,-100,4,1,0,85,0,0

[HitObjects]
36,57,8064,5,0,0:0:0:0:
58,49,8144,5,0,0:0:0:0:
109,40,8225,1,0,0:0:0:0:
153,40,8306,1,8,0:0:0:0:
230,45,8789,1,4,0:0:0:0:
283,49,9152,1,8,0:0:0:0:
306,47,9273,1,8,0:0:0:0:
358,44,9515,1,0,0:0:0:0:
129,46,9999,1,0,0:0:0:0:
245,45,10241,1,8,0:0:0:0:
53,116,10725,1,0,0:0:0:0:
235,44,11088,1,0,0:0:0:0:
117,114,11209,1,8,0:0:0:0:
194,112,11451,1,0,0:0:0:0:
355,50,11814,1,8,0:0:0:0:
397,52,11935,1,0,0:0:0:0:
256,116,12177,1,8,0:0:0:0:
298,114,12418,1,0,0:0:0:0:
324,115,12660,1,0,0:0:0:0:
451,57,13023,1,8,0:0:0:0:
387,112,13144,1,8,0:0:0:0:
439,112,13386,1,0,0:0:0:0:
460,55,13749,1,8,0:0:0:0:
493,110,13870,1,0,0:0:0:0:
29,169,14112,1,8,0:0:0:0:
61,167,14354,1,4,0:0:0:0:
138,167,14838,1,0,0:0:0:0:
193,167,15080,1,8,0:0:0:0:
254,165,15322,1,0,0:0:0:0:
320,165,15564,1,8,0:0:0:0:
381,163,15806,1,0,0:0:0:0:
437,165,15927,1,0,0:0:0:0:
76,228,16047,1,8,0:0:0:0:
124,227,16289,1,8,0:0:0:0:
173,226,16410,1,8,0:0:0:0:
224,226,16531,1,4,0:0:0:0:
350,228,16773,1,0,0:0:0:0:
129,56,16894,1,2,0:0:0:0:
160,56,17015,1,0,0:0:0:0:
205,58,17136,1,0,0:0:0:0:
385,227,17257,1,0,0:0:0:0:
441,228,17499,1,8,0:0:0:0:
68,295,17983,1,8,0:0:0:0:
119,294,18467,1,0,0:0:0:0:
114,66,18709,1,8,0:0:0:0:
181,295,18830,1,0,0:0:0:0:
235,293,18951,1,8,0:0:0:0:
164,68,19072,1,8,0:0:0:0:
288,294,19193,1,0,0:0:0:0:
350,293,19435,1,8,0:0:0:0:
414,291,19918,1,8,0:0:0:0:
261,342,20160,1,0,0:0:0:0:
34,343,20402,1,0,0:0:0:0:
154,66,20644,1,0,0:0:0:0:
89,341,20765,1,0,0:0:0:0:
142,341,20886,1,8,0:0:0:0:
354,336,21007,1,8,0:0:0:0:
204,338,21128,1,0,0:0:0:0:
246,336,21370,1,8,0:0:0:0:
300,334,21854,1,8,0:0:0:0:
82,28,22096,1,0,0:0:0:0:
38,26,22338,1,0,0:0:0:0:
117,26,22580,1,0,0:0:0:0:
157,26,22701,1,0,0:0:0:0:
197,26,22822,1,8,0:0:0:0:
232,27,22943,1,0,0:0:0:0:
269,28,23064,1,0,0:0:0:0:
343,27,23306,1,8,0:0:0:0:
51,96,23547,1,0,0:0:0:0:
125,97,23789,1,8,0:0:0:0:
242,92,24031,1,0,0:0:0:0:
286,93,24273,1,12,0:0:0:0:
337,98,24515,1,8,0:0:0:0:
47,152,24636,1,0,0:0:0:0:
100,151,24757,1,8,0:0:0:0:
154,149,24878,1,0,0:0:0:0:
194,148,24999,1,0,0:0:0:0:
274,147,25241,1,8,0:0:0:0:
351,143,25725,1,8,0:0:0:0:
413,142,25967,1,0,0:0:0:0:
62,201,26209,1,8,0:0:0:0:
466,149,26451,1,8,0:0:0:0:
125,202,26572,1,0,0:0:0:0:
174,203,26693,1,8,0:0:0:0:
229,202,26814,1,8,0:0:0:0:
283,200,26935,1,0,0:0:0:0:
339,201,27177,1,8,0:0:0:0:
401,203,27660,1,8,0:0:0:0:
458,200,27902,1,0,0:0:0:0:
72,264,28144,1,12,0:0:0:0:
42,268,28386,1,8,0:0:0:0:
129,265,28507,1,0,0:0:0:0:
185,264,28628,1,8,0:0:0:0:
244,266,28749,1,0,0:0:0:0:
294,265,28870,1,0,0:0:0:0:
360,264,29112,1,8,0:0:0:0:
411,270,29354,1,0,0:0:0:0:
459,267,29596,1,8,0:0:0:0:
503,268,29838,1,0,0:0:0:0:
28,317,29959,1,0,0:0:0:0:
53,317,30080,1,12,0:0:0:0:
142,320,30443,1,8,0:0:0:0:
197,319,30564,1,8,0:0:0:0:
261,321,30806,1,0,0:0:0:0:
314,323,31047,1,12,0:0:0:0:
422,322,31289,1,0,0:0:0:0:
368,323,31531,1,8,0:0:0:0:
55,354,31773,1,0,0:0:0:0:
117,354,32015,1,4,0:0:0:0:
182,349,32499,1,0,0:0:0:0:
309,29,32983,1,8,0:0:0:0:
391,26,33467,1,0,0:0:0:0:
461,26,33709,1,8,0:0:0:0:
489,28,33830,1,8,0:0:0:0:
42,75,33951,1,0,0:0:0:0:
430,78,34193,1,8,0:0:0:0:
120,75,34314,1,0,0:0:0:0:
164,72,34435,1,8,0:0:0:0:
213,74,34556,1,0,0:0:0:0:
256,73,34677,1,0,0:0:0:0:
329,73,34918,1,8,0:0:0:0:
457,78,35402,1,8,0:0:0:0:
501,81,35644,1,0,0:0:0:0:
25,126,35886,1,0,0:0:0:0:
425,122,36128,1,8,0:0:0:0:
93,122,36249,1,0,0:0:0:0:
154,120,36370,1,8,0:0:0:0:
200,124,36491,1,8,0:0:0:0:
252,121,36612,1,0,0:0:0:0:
320,122,36854,1,8,0:0:0:0:
441,118,37338,1,8,0:0:0:0:
495,118,37580,1,8,0:0:0:0:
506,130,37701,1,8,0:0:0:0:
48,162,37822,1,0,0:0:0:0:
454,158,38064,1,8,0:0:0:0:
110,158,38185,1,0,0:0:0:0:
174,160,38306,1,8,0:0:0:0:
226,163,38427,1,0,0:0:0:0:
278,156,38547,1,0,0:0:0:0:
348,157,38789,1,8,0:0:0:0:
410,154,39031,1,0,0:0:0:0:
464,153,39273,1,8,0:0:0:0:
118,56,39515,1,0,0:0:0:0:
80,204,39757,1,12,0:0:0:0:
99,201,39999,1,0,0:0:0:0:
141,202,40120,1,0,0:0:0:0:
187,202,40241,1,8,0:0:0:0:
236,203,40362,1,8,0:0:0:0:
285,205,40483,1,0,0:0:0:0:
345,199,40725,1,8,0:0:0:0:
462,201,41209,1,8,0:0:0:0:
501,200,41451,1,0,0:0:0:0:
49,263,41693,1,0,0:0:0:0:
102,263,41935,1,8,0:0:0:0:
149,262,42056,1,8,0:0:0:0:
188,264,42177,1,0,0:0:0:0:
234,263,42297,1,8,0:0:0:0:
276,265,42418,1,0,0:0:0:0:
326,269,42660,1,8,0:0:0:0:
425,267,43144,1,8,0:0:0:0:
470,264,43386,1,0,0:0:0:0:
57,337,43628,1,12,0:0:0:0:
85,333,43870,1,0,0:0:0:0:
114,331,43991,1,8,0:0:0:0:
174,329,44112,1,8,0:0:0:0:
146,332,44233,1,8,0:0:0:0:
229,329,44354,1,0,0:0:0:0:
295,329,44596,1,8,0:0:0:0:
93,162,44838,1,0,0:0:0:0:
184,159,44918,1,8,0:0:0:0:
138,160,44999,1,8,0:0:0:0:
232,155,45080,1,8,0:0:0:0:
67,40,45322,1,8,0:0:0:0:
113,41,45443,1,8,0:0:0:0:
159,42,45564,1,4,0:0:0:0:
227,44,45927,1,8,0:0:0:0:
256,44,46047,1,0,0:0:0:0:
195,45,46168,1,0,0:0:0:0:
302,44,46289,1,8,0:0:0:0:
343,47,46531,1,0,0:0:0:0:
390,50,46773,1,8,0:0:0:0:
430,46,46894,1,8,0:0:0:0:
461,47,47015,1,0,0:0:0:0:
476,63,47136,1,0,0:0:0:0:
498,83,47257,1,0,0:0:0:0:
35,122,47499,1,12,0:0:0:0:
141,124,47983,1,8,0:0:0:0:
207,121,48104,1,8,0:0:0:0:
234,120,48225,1,0,0:0:0:0:
288,119,48467,1,8,0:0:0:0:
342,119,48709,1,0,0:0:0:0:
403,123,48951,1,8,0:0:0:0:
414,56,49193,1,8,0:0:0:0:
448,67,49314,1,8,0:0:0:0:
478,111,49435,1,0,0:0:0:0:
428,161,49677,1,8,0:0:0:0:
85,173,49797,1,0,0:0:0:0:
123,175,49918,1,8,0:0:0:0:
160,182,50039,1,8,0:0:0:0:
196,179,50160,1,0,0:0:0:0:
269,184,50402,1,12,0:0:0:0:
335,184,50644,1,0,0:0:0:0:
383,188,50886,1,8,0:0:0:0:
430,192,51128,1,0,0:0:0:0:
480,191,51370,1,12,0:0:0:0:
20,233,51612,1,0,0:0:0:0:
49,236,51733,1,0,0:0:0:0:
101,238,51854,1,8,0:0:0:0:
161,235,51975,1,8,0:0:0:0:
204,232,52096,1,0,0:0:0:0:
212,123,52338,1,8,0:0:0:0:
356,221,52822,1,8,0:0:0:0:
308,112,53064,1,8,0:0:0:0:
400,131,53185,1,8,0:0:0:0:
448,173,53306,1,0,0:0:0:0:
76,304,53547,1,8,0:0:0:0:
142,305,53668,1,0,0:0:0:0:
288,308,53789,1,8,0:0:0:0:
200,307,53910,1,8,0:0:0:0:
253,310,54031,1,0,0:0:0:0:
327,310,54273,1,12,0:0:0:0:
382,310,54515,1,0,0:0:0:0:
426,316,54757,1,8,0:0:0:0:
67,364,54999,1,0,0:0:0:0:
142,366,55120,1,0,0:0:0:0:
213,364,55241,1,12,0:0:0:0:
276,358,55604,1,0,0:0:0:0:
340,353,55725,1,8,0:0:0:0:
386,355,55846,1,0,0:0:0:0:
415,350,55967,1,0,0:0:0:0:
57,47,56209,1,12,0:0:0:0:
124,39,56451,1,0,0:0:0:0:
202,39,56693,1,8,0:0:0:0:
226,40,56814,1,8,0:0:0:0:
253,37,56935,1,0,0:0:0:0:
293,39,57056,1,0,0:0:0:0:
341,43,57177,1,12,0:0:0:0:
57,102,57539,1,0,0:0:0:0:
112,97,57660,1,8,0:0:0:0:
166,101,57781,1,0,0:0:0:0:
206,101,57902,1,0,0:0:0:0:
231,100,58144,1,12,0:0:0:0:
295,97,58386,1,0,0:0:0:0:
330,98,58467,1,0,0:0:0:0:
362,97,58547,1,0,0:0:0:0:
385,97,58628,1,8,0:0:0:0:
80,143,58749,1,8,0:0:0:0:
453,94,58870,1,0,0:0:0:0:
510,99,59112,1,12,0:0:0:0:
50,142,59596,1,8,0:0:0:0:
111,143,59838,1,0,0:0:0:0:
176,142,60080,1,8,0:0:0:0:
229,139,60322,1,8,0:0:0:0:
288,143,60564,1,0,0:0:0:0:
347,137,60806,1,8,0:0:0:0:
393,138,61047,1,8,0:0:0:0:
123,210,61531,1,8,0:0:0:0:
50,214,61773,1,0,0:0:0:0:
201,215,62015,1,8,0:0:0:0:
281,213,62257,1,0,0:0:0:0:
350,219,62499,1,8,0:0:0:0:
408,220,62741,1,8,0:0:0:0:
108,283,62983,1,12,0:0:0:0:
167,294,63225,1,12,0:0:0:0:
250,296,63467,1,4,0:0:0:0:
331,296,63709,1,4,0:0:0:0:
47,47,64918,5,4,0:0:0:0:
125,47,65160,1,8,0:0:0:0:
175,46,65281,1,0,0:0:0:0:
230,46,65402,1,8,0:0:0:0:
286,52,65644,1,0,0:0:0:0:
401,50,65886,1,8,0:0:0:0:
436,55,66007,1,8,0:0:0:0:
469,56,66128,1,0,0:0:0:0:
492,61,66249,1,0,0:0:0:0:
110,109,66370,1,8,0:0:0:0:
184,109,66612,1,0,0:0:0:0:
218,112,66733,1,8,0:0:0:0:
251,109,66854,1,0,0:0:0:0:
314,106,67096,1,8,0:0:0:0:
390,102,67338,1,0,0:0:0:0:
80,174,67580,1,0,0:0:0:0:
125,171,67701,1,0,0:0:0:0:
192,180,67822,1,8,0:0:0:0:
239,171,67943,1,8,0:0:0:0:
283,169,68064,1,0,0:0:0:0:
391,167,68306,1,8,0:0:0:0:
218,70,68547,1,0,0:0:0:0:
118,234,68668,1,0,0:0:0:0:
175,235,68789,1,8,0:0:0:0:
234,233,69031,1,0,0:0:0:0:
288,232,69273,1,8,0:0:0:0:
133,69,69515,1,8,0:0:0:0:
163,66,69636,1,8,0:0:0:0:
213,56,69757,1,0,0:0:0:0:
256,55,69878,1,8,0:0:0:0:
298,55,69999,1,0,0:0:0:0:
353,57,70241,1,8,0:0:0:0:
404,59,70483,1,8,0:0:0:0:
431,57,70604,1,8,0:0:0:0:
207,311,70725,1,0,0:0:0:0:
325,317,71209,1,8,0:0:0:0:
386,310,71451,1,0,0:0:0:0:
431,313,71572,1,8,0:0:0:0:
479,317,71693,1,0,0:0:0:0:
79,41,71935,1,0,0:0:0:0:
147,40,72177,1,12,0:0:0:0:
214,47,72418,1,8,0:0:0:0:
283,51,72660,1,4,0:0:0:0:
347,49,73023,1,0,0:0:0:0:
387,49,73144,1,8,0:0:0:0:
223,49,73386,1,8,0:0:0:0:
271,49,73507,1,8,0:0:0:0:
401,50,73628,1,0,0:0:0:0:
469,56,73749,1,8,0:0:0:0:
436,55,73870,1,0,0:0:0:0:
492,61,73991,1,0,0:0:0:0:
110,109,74112,1,8,0:0:0:0:
184,109,74354,1,0,0:0:0:0:
218,112,74475,1,8,0:0:0:0:
251,109,74596,1,0,0:0:0:0:
314,106,74838,1,8,0:0:0:0:
382,172,75080,1,0,0:0:0:0:
81,230,75322,1,8,0:0:0:0:
140,224,75443,1,0,0:0:0:0:
198,225,75564,1,0,0:0:0:0:
249,223,75685,1,8,0:0:0:0:
313,223,75806,1,0,0:0:0:0:
379,225,76047,1,8,0:0:0:0:
247,64,76289,1,8,0:0:0:0:
301,59,76410,1,8,0:0:0:0:
182,53,76531,1,0,0:0:0:0:
57,306,76773,1,0,0:0:0:0:
118,307,77015,1,8,0:0:0:0:
179,312,77257,1,0,0:0:0:0:
221,312,77378,1,8,0:0:0:0:
250,312,77499,1,0,0:0:0:0:
265,313,77620,1,8,0:0:0:0:
315,317,77741,1,0,0:0:0:0:
463,306,77983,1,8,0:0:0:0:
503,308,78225,1,12,0:0:0:0:
74,353,78709,1,8,0:0:0:0:
149,356,78951,1,8,0:0:0:0:
206,352,79072,1,0,0:0:0:0:
278,353,79435,1,0,0:0:0:0:
69,50,79677,1,8,0:0:0:0:
114,46,79797,1,8,0:0:0:0:
159,47,79918,1,0,0:0:0:0:
191,43,80039,1,0,0:0:0:0:
231,45,80160,1,8,0:0:0:0:
487,72,80281,1,8,0:0:0:0:
330,51,80402,1,4,0:0:0:0:
394,54,80644,1,0,0:0:0:0:
442,50,80765,1,0,0:0:0:0:
478,57,80886,1,8,0:0:0:0:
277,46,81128,1,8,0:0:0:0:
330,51,81249,1,8,0:0:0:0:
401,50,81370,1,0,0:0:0:0:
469,56,81491,1,8,0:0:0:0:
436,55,81612,1,0,0:0:0:0:
492,61,81733,1,0,0:0:0:0:
110,109,81854,1,8,0:0:0:0:
184,109,82096,1,0,0:0:0:0:
218,112,82217,1,8,0:0:0:0:
251,109,82338,1,0,0:0:0:0:
112,144,82580,1,8,0:0:0:0:
314,106,82822,1,0,0:0:0:0:
423,144,83064,1,0,0:0:0:0:
357,140,83185,1,8,0:0:0:0:
298,144,83306,1,8,0:0:0:0:
240,144,83427,1,0,0:0:0:0:
186,145,83547,1,0,0:0:0:0:
483,141,83789,1,8,0:0:0:0:
153,90,84031,1,8,0:0:0:0:
239,89,84152,1,8,0:0:0:0:
330,72,84273,1,0,0:0:0:0:
246,184,84515,1,0,0:0:0:0:
320,183,84757,1,8,0:0:0:0:
383,184,84999,1,0,0:0:0:0:
431,184,85120,1,0,0:0:0:0:
467,179,85241,1,8,0:0:0:0:
490,179,85362,1,0,0:0:0:0:
508,180,85483,1,8,0:0:0:0:
72,229,85725,1,8,0:0:0:0:
157,235,85967,1,0,0:0:0:0:
212,237,86088,1,8,0:0:0:0:
270,238,86209,1,0,0:0:0:0:
334,238,86451,1,0,0:0:0:0:
389,236,86693,1,8,0:0:0:0:
447,240,86935,1,8,0:0:0:0:
275,303,87056,1,8,0:0:0:0:
492,243,87177,1,0,0:0:0:0:
65,294,87418,1,0,0:0:0:0:
148,298,87660,1,12,0:0:0:0:
215,300,87902,1,0,0:0:0:0:
275,303,88144,1,4,0:0:0:0:
347,296,88628,1,8,0:0:0:0:
391,295,88870,1,0,0:0:0:0:
431,295,88991,1,0,0:0:0:0:
457,291,89112,1,8,0:0:0:0:
476,295,89233,1,0,0:0:0:0:
507,289,89354,1,0,0:0:0:0:
80,349,89596,1,8,0:0:0:0:
155,338,89838,1,0,0:0:0:0:
205,342,89959,1,8,0:0:0:0:
265,343,90080,1,0,0:0:0:0:
350,325,90322,1,0,0:0:0:0:
411,325,90564,1,8,0:0:0:0:
60,51,90806,1,0,0:0:0:0:
118,55,90927,1,8,0:0:0:0:
184,60,91047,1,8,0:0:0:0:
239,57,91168,1,8,0:0:0:0:
289,54,91289,1,0,0:0:0:0:
374,60,91531,1,8,0:0:0:0:
438,60,91773,1,0,0:0:0:0:
481,63,92015,1,12,0:0:0:0:
71,105,92257,1,0,0:0:0:0:
142,97,92499,1,8,0:0:0:0:
214,94,92741,1,0,0:0:0:0:
253,94,92862,1,8,0:0:0:0:
305,94,92983,1,0,0:0:0:0:
39,152,93225,1,8,0:0:0:0:
368,96,93346,1,8,0:0:0:0:
414,96,93467,1,0,0:0:0:0:
94,154,93709,1,4,0:0:0:0:
189,152,94193,1,8,0:0:0:0:
268,154,94435,1,8,0:0:0:0:
335,151,94677,1,0,0:0:0:0:
361,151,94757,1,0,0:0:0:0:
396,149,94838,1,0,0:0:0:0:
438,156,94918,1,8,0:0:0:0:
206,120,95039,1,8,0:0:0:0:
235,158,95160,1,0,0:0:0:0:
161,199,95402,1,0,0:0:0:0:
312,114,95523,1,0,0:0:0:0:
337,188,95644,1,0,0:0:0:0:
381,200,95886,1,12,0:0:0:0:
441,203,96370,1,8,0:0:0:0:
491,200,96854,1,8,0:0:0:0:
510,214,97338,1,8,0:0:0:0:
54,254,97822,1,0,0:0:0:0:
134,258,98306,1,0,0:0:0:0:
205,269,98789,5,0,0:0:0:0:
295,275,99273,1,0,0:0:0:0:
362,285,99515,5,8,0:0:0:0:
407,280,99636,1,8,0:0:0:0:
462,279,99757,1,4,0:0:0:0:
64,338,99999,1,0,0:0:0:0:
139,337,100241,1,0,0:0:0:0:
223,333,100483,1,0,0:0:0:0:
301,333,100725,1,12,0:0:0:0:
63,52,100967,1,0,0:0:0:0:
128,57,101088,1,0,0:0:0:0:
190,52,101209,1,0,0:0:0:0:
315,51,101451,1,12,0:0:0:0:
384,52,101935,1,0,0:0:0:0:
448,55,102177,1,8,0:0:0:0:
485,56,102418,1,8,0:0:0:0:
49,47,103628,1,4,0:0:0:0:
117,45,103991,1,0,0:0:0:0:
169,46,104112,1,8,0:0:0:0:
332,38,104354,1,0,0:0:0:0:
332,38,104475,1,0,0:0:0:0:
341,38,104596,1,8,0:0:0:0:
348,40,104717,1,0,0:0:0:0:
333,42,104838,1,0,0:0:0:0:
348,40,105080,1,8,0:0:0:0:
405,42,105322,1,0,0:0:0:0:
419,42,105443,1,8,0:0:0:0:
470,51,105564,1,8,0:0:0:0:
177,95,105806,1,8,0:0:0:0:
246,52,105927,1,0,0:0:0:0:
111,97,106047,1,8,0:0:0:0:
382,87,106289,1,8,0:0:0:0:
207,95,106410,1,8,0:0:0:0:
237,94,106531,1,0,0:0:0:0:
268,96,106652,1,8,0:0:0:0:
303,95,106773,1,0,0:0:0:0:
359,94,107015,1,8,0:0:0:0:
416,93,107257,1,0,0:0:0:0:
443,91,107378,1,8,0:0:0:0:
405,146,107499,5,0,0:0:0:0:
51,146,107741,1,0,0:0:0:0:
133,150,107983,1,8,0:0:0:0:
418,119,108225,1,0,0:0:0:0:
379,145,108346,1,0,0:0:0:0:
335,146,108467,1,8,0:0:0:0:
280,144,108588,1,0,0:0:0:0:
244,146,108709,1,8,0:0:0:0:
441,143,108951,1,8,0:0:0:0:
490,144,109193,1,4,0:0:0:0:
56,195,109677,1,0,0:0:0:0:
115,195,109918,1,8,0:0:0:0:
181,194,110160,1,0,0:0:0:0:
252,196,110402,1,8,0:0:0:0:
307,196,110644,1,0,0:0:0:0:
375,198,110886,1,8,0:0:0:0:
446,194,111128,1,8,0:0:0:0:
478,193,111249,1,8,0:0:0:0:
501,196,111370,1,4,0:0:0:0:
62,260,111733,1,0,0:0:0:0:
98,261,111854,1,8,0:0:0:0:
164,264,112096,1,0,0:0:0:0:
215,263,112217,1,8,0:0:0:0:
262,263,112338,1,0,0:0:0:0:
367,264,112459,1,8,0:0:0:0:
316,264,112580,1,0,0:0:0:0:
64,327,112822,1,8,0:0:0:0:
106,329,113064,1,8,0:0:0:0:
119,325,113185,1,8,0:0:0:0:
146,331,113306,1,0,0:0:0:0:
189,328,113547,1,0,0:0:0:0:
223,327,113668,1,0,0:0:0:0:
254,332,113789,1,8,0:0:0:0:
306,328,114031,1,0,0:0:0:0:
332,303,114152,1,8,0:0:0:0:
349,326,114273,1,0,0:0:0:0:
379,300,114394,1,8,0:0:0:0:
393,328,114515,1,8,0:0:0:0:
42,44,114757,1,8,0:0:0:0:
117,44,114999,1,0,0:0:0:0:
159,46,115120,1,8,0:0:0:0:
490,61,115241,1,0,0:0:0:0:
250,48,115483,1,0,0:0:0:0:
299,49,115725,1,8,0:0:0:0:
343,51,115967,1,0,0:0:0:0:
383,52,116088,1,8,0:0:0:0:
418,52,116209,1,0,0:0:0:0:
457,57,116330,1,8,0:0:0:0:
486,57,116451,1,0,0:0:0:0:
53,99,116693,1,8,0:0:0:0:
119,97,116935,1,4,0:0:0:0:
175,95,117418,1,0,0:0:0:0:
229,92,117660,1,8,0:0:0:0:
280,91,117902,1,0,0:0:0:0:
331,91,118023,1,8,0:0:0:0:
374,93,118144,1,0,0:0:0:0:
425,95,118386,1,8,0:0:0:0:
474,96,118628,1,8,0:0:0:0:
60,138,118870,1,8,0:0:0:0:
111,138,118991,1,8,0:0:0:0:
158,140,119112,1,4,0:0:0:0:
223,71,119596,1,8,0:0:0:0:
249,133,119838,1,0,0:0:0:0:
440,134,120322,1,0,0:0:0:0:
483,141,120564,1,8,0:0:0:0:
53,202,121047,1,0,0:0:0:0:
165,215,121410,1,0,0:0:0:0:
310,159,121531,1,8,0:0:0:0:
96,206,121773,1,0,0:0:0:0:
417,159,122257,1,8,0:0:0:0:
477,161,122499,1,8,0:0:0:0:
163,84,122741,1,0,0:0:0:0:
278,141,122983,1,0,0:0:0:0:
470,253,123467,1,8,0:0:0:0:
192,198,123709,1,0,0:0:0:0:
314,194,124193,1,8,0:0:0:0:
380,188,124435,1,8,0:0:0:0:
201,194,124677,1,0,0:0:0:0:
406,186,125160,1,8,0:0:0:0:
261,190,125402,1,0,0:0:0:0:
342,139,126370,1,8,0:0:0:0:
255,193,126854,1,12,0:0:0:0:
