osu file format v14

[General]
AudioFilename: audio.mp3
AudioLeadIn: 0
PreviewTime: 64000
Countdown: 0
SampleSet: Normal
StackLeniency: 0.7
Mode: 1
LetterboxInBreaks: 0
WidescreenStoryboard: 1

[Editor]
Bookmarks: 71935,72670
DistanceSpacing: 3.9
BeatDivisor: 8
GridSize: 4
TimelineZoom: 1.3

[Metadata]
Title:heartbeat from you feat. yuikonnu (Cut Ver.)
TitleUnicode:ハートビート・フロムユー feat. ゆいこんぬ (Cut Ver.)
Artist:TOKOTOKO (NishizawasanP)
ArtistUnicode:TOKOTOKO(西沢さんP)
Creator:Edward_Tsui
Version:Futsuu
Source:
Tags:初音ミク Hatsune Miku Vocaloid 友達募集P tomobop TomodachiboshuuP utaite pop japanese zawaso tama たま 7@
BeatmapID:2747970
BeatmapSetID:1306370

[Difficulty]
HPDrainRate:6.5
CircleSize:7
OverallDifficulty:4
ApproachRate:5
SliderMultiplier:1.4
SliderTickRate:1

[Events]
//Background and Video events
0,0,"2451928522143741289.jpg",0,-20
//Break Periods
//Storyboard Layer 0 (Background)
//Storyboard Layer 1 (Fail)
//Storyboard Layer 2 (Pass)
//Storyboard Layer 3 (Foreground)
//Storyboard Layer 4 (Overlay)
//Storyboard Sound Samples

[TimingPoints]
1048,483.870967741935,4,1,0,85,1,0
64918,-90.9090909090909,4,1,0,85,0,1
94918,-93.0232558139535,4,1,0,85,0,1
95402,-95.2380952380952,4,1,0,85,0,1
95644,-96.3855421686747,4,1,0,85,0,1
95886,-97.5609756097561,4,1,0,85,0,0
103628,-95.2380952380952,4,1,0,85,0,0
119233,-100,4,1,0,85,0,0

[HitObjects]
108,86,8789,5,4,0:0:0:0:
170,85,9515,1,8,0:0:0:0:
135,66,10725,1,8,0:0:0:0:
214,63,11451,1,0,0:0:0:0:
147,67,12660,1,0,0:0:0:0:
244,62,13386,1,8,0:0:0:0:
304,82,13870,1,0,0:0:0:0:
241,113,14354,1,12,0:0:0:0:
317,113,15080,1,8,0:0:0:0:
403,112,15806,1,0,0:0:0:0:
465,175,16047,1,8,0:0:0:0:
193,95,16289,1,8,0:0:0:0:
256,191,16531,1,4,0:0:0:0:
332,106,17015,1,0,0:0:0:0:
258,193,17499,1,8,0:0:0:0:
258,193,18467,1,8,0:0:0:0:
396,188,18951,1,0,0:0:0:0:
404,115,19435,1,8,0:0:0:0:
257,195,20402,1,0,0:0:0:0:
142,130,20886,1,0,0:0:0:0:
261,200,21370,1,8,0:0:0:0:
375,184,22338,1,0,0:0:0:0:
225,81,23306,1,8,0:0:0:0:
333,101,23789,1,8,0:0:0:0:
108,93,24273,1,12,0:0:0:0:
373,109,25241,1,8,0:0:0:0:
468,165,25725,1,0,0:0:0:0:
244,93,26209,1,8,0:0:0:0:
107,103,27177,1,0,0:0:0:0:
282,145,27660,1,8,0:0:0:0:
170,215,28144,1,12,0:0:0:0:
195,121,29112,1,0,0:0:0:0:
330,123,29596,1,8,0:0:0:0:
136,106,30080,1,4,0:0:0:0:
366,83,30806,1,0,0:0:0:0:
227,117,31047,1,12,0:0:0:0:
336,110,31531,1,8,0:0:0:0:
199,99,32015,1,4,0:0:0:0:
259,160,32499,1,0,0:0:0:0:
335,230,32983,1,8,0:0:0:0:
166,108,33951,1,8,0:0:0:0:
250,180,34435,1,0,0:0:0:0:
359,253,34918,1,8,0:0:0:0:
133,92,35886,1,8,0:0:0:0:
259,193,36370,1,8,0:0:0:0:
368,274,36854,1,0,0:0:0:0:
140,98,37822,1,0,0:0:0:0:
258,195,38306,1,8,0:0:0:0:
362,277,38789,1,0,0:0:0:0:
218,122,39273,1,0,0:0:0:0:
157,121,39757,1,12,0:0:0:0:
371,284,40725,1,8,0:0:0:0:
140,121,41693,1,0,0:0:0:0:
213,122,42177,1,0,0:0:0:0:
370,289,42660,1,8,0:0:0:0:
148,130,43628,1,12,0:0:0:0:
363,291,44596,1,0,0:0:0:0:
439,152,45080,1,8,0:0:0:0:
154,98,45564,1,4,0:0:0:0:
262,200,46047,1,0,0:0:0:0:
256,134,46289,1,0,0:0:0:0:
371,286,46531,1,8,0:0:0:0:
452,341,47015,1,0,0:0:0:0:
117,82,47499,1,12,0:0:0:0:
252,205,47862,1,0,0:0:0:0:
328,207,48225,1,0,0:0:0:0:
420,205,48467,1,8,0:0:0:0:
381,297,49435,1,0,0:0:0:0:
267,143,49677,1,8,0:0:0:0:
356,150,50039,1,8,0:0:0:0:
406,146,50402,1,12,0:0:0:0:
112,94,51370,1,4,0:0:0:0:
274,143,51733,1,0,0:0:0:0:
423,143,52096,1,0,0:0:0:0:
351,148,52338,1,8,0:0:0:0:
381,297,53306,1,0,0:0:0:0:
267,143,53548,1,8,0:0:0:0:
356,150,53910,1,8,0:0:0:0:
406,146,54273,1,12,0:0:0:0:
401,299,54757,1,0,0:0:0:0:
165,92,54999,1,8,0:0:0:0:
454,336,55241,1,4,0:0:0:0:
80,58,56209,1,12,0:0:0:0:
219,163,57177,1,4,0:0:0:0:
316,234,58144,1,12,0:0:0:0:
406,290,59112,1,4,0:0:0:0:
124,115,59596,1,8,0:0:0:0:
289,237,60080,1,0,0:0:0:0:
233,76,60322,1,0,0:0:0:0:
267,77,60564,1,0,0:0:0:0:
183,91,61047,1,8,0:0:0:0:
272,129,61531,1,8,0:0:0:0:
379,188,62015,1,0,0:0:0:0:
322,105,62499,1,8,0:0:0:0:
247,232,62983,1,12,0:0:0:0:
186,117,63225,1,8,0:0:0:0:
311,141,63467,1,0,0:0:0:0:
363,138,63709,1,0,0:0:0:0:
157,61,64918,5,4,0:0:0:0:
235,180,65402,1,8,0:0:0:0:
313,222,65886,1,0,0:0:0:0:
389,263,66128,1,0,0:0:0:0:
469,304,66370,1,8,0:0:0:0:
281,164,66612,1,0,0:0:0:0:
140,152,67096,1,8,0:0:0:0:
194,209,67338,1,0,0:0:0:0:
228,231,67580,1,8,0:0:0:0:
222,27,68064,1,0,0:0:0:0:
308,70,68547,1,8,0:0:0:0:
273,44,68789,1,0,0:0:0:0:
338,93,69273,1,8,0:0:0:0:
408,158,69757,1,0,0:0:0:0:
482,227,70241,1,8,0:0:0:0:
231,125,70483,1,8,0:0:0:0:
99,143,70725,1,0,0:0:0:0:
37,264,71935,1,0,0:0:0:0:
94,268,72177,1,12,0:0:0:0:
159,273,72418,1,8,0:0:0:0:
234,282,72660,1,4,0:0:0:0:
311,288,73144,1,8,0:0:0:0:
92,63,73628,1,0,0:0:0:0:
198,62,74112,1,8,0:0:0:0:
255,63,74354,1,0,0:0:0:0:
310,53,74838,1,8,0:0:0:0:
357,50,75080,1,8,0:0:0:0:
389,53,75322,1,8,0:0:0:0:
64,132,75806,1,0,0:0:0:0:
128,133,76047,1,8,0:0:0:0:
165,134,76289,1,0,0:0:0:0:
221,132,76531,1,0,0:0:0:0:
296,132,77015,1,8,0:0:0:0:
359,130,77499,1,0,0:0:0:0:
410,131,77741,1,0,0:0:0:0:
440,132,77983,1,8,0:0:0:0:
479,136,78225,1,12,0:0:0:0:
79,212,78709,1,8,0:0:0:0:
137,219,78951,1,8,0:0:0:0:
136,309,79918,1,0,0:0:0:0:
198,313,80160,1,8,0:0:0:0:
256,315,80402,1,4,0:0:0:0:
341,316,80886,1,8,0:0:0:0:
63,45,81370,1,0,0:0:0:0:
187,51,81612,1,0,0:0:0:0:
126,54,81854,1,8,0:0:0:0:
248,39,82096,1,0,0:0:0:0:
301,44,82580,1,8,0:0:0:0:
189,127,82822,1,0,0:0:0:0:
229,138,83064,1,8,0:0:0:0:
66,129,83547,1,0,0:0:0:0:
138,125,84031,1,8,0:0:0:0:
168,126,84273,1,0,0:0:0:0:
243,121,84757,1,8,0:0:0:0:
330,120,85241,1,0,0:0:0:0:
381,120,85483,1,0,0:0:0:0:
428,120,85725,1,8,0:0:0:0:
85,216,85967,1,8,0:0:0:0:
184,225,86451,1,0,0:0:0:0:
254,221,86693,1,8,0:0:0:0:
428,226,87660,1,12,0:0:0:0:
498,231,88144,1,4,0:0:0:0:
246,80,88628,1,8,0:0:0:0:
120,327,88991,1,0,0:0:0:0:
195,329,89354,1,0,0:0:0:0:
292,335,89596,1,8,0:0:0:0:
73,55,90080,1,0,0:0:0:0:
149,43,90443,1,8,0:0:0:0:
197,46,90806,1,8,0:0:0:0:
250,48,91289,1,0,0:0:0:0:
292,49,91531,1,0,0:0:0:0:
312,48,91773,1,0,0:0:0:0:
354,49,92015,1,12,0:0:0:0:
410,57,92378,1,8,0:0:0:0:
72,130,92741,1,0,0:0:0:0:
138,130,92983,1,8,0:0:0:0:
234,127,93467,1,8,0:0:0:0:
298,120,93709,1,12,0:0:0:0:
368,118,94193,1,0,0:0:0:0:
400,118,94435,1,0,0:0:0:0:
262,128,94918,1,8,0:0:0:0:
148,192,95402,1,0,0:0:0:0:
221,203,95644,1,0,0:0:0:0:
286,201,95886,1,12,0:0:0:0:
269,241,96854,1,8,0:0:0:0:
205,33,97822,1,0,0:0:0:0:
402,295,98789,1,8,0:0:0:0:
292,64,99273,1,0,0:0:0:0:
72,166,99757,1,12,0:0:0:0:
273,151,100241,1,0,0:0:0:0:
106,202,100725,1,4,0:0:0:0:
231,251,101209,1,0,0:0:0:0:
340,276,101451,1,12,0:0:0:0:
198,115,101935,1,8,0:0:0:0:
339,169,102177,1,8,0:0:0:0:
252,79,102418,1,8,0:0:0:0:
283,147,103628,1,4,0:0:0:0:
308,83,104112,1,8,0:0:0:0:
397,100,104354,1,0,0:0:0:0:
171,125,104596,1,0,0:0:0:0:
273,178,105080,1,8,0:0:0:0:
351,232,105564,1,0,0:0:0:0:
426,91,106047,1,0,0:0:0:0:
473,95,106289,1,8,0:0:0:0:
159,58,106531,1,8,0:0:0:0:
266,123,107015,1,8,0:0:0:0:
382,183,107499,1,0,0:0:0:0:
134,158,108467,1,0,0:0:0:0:
215,223,108951,1,8,0:0:0:0:
261,250,109193,1,4,0:0:0:0:
298,284,109677,1,8,0:0:0:0:
424,92,110160,1,0,0:0:0:0:
370,304,110402,1,8,0:0:0:0:
289,143,110886,1,8,0:0:0:0:
205,141,111370,1,4,0:0:0:0:
308,83,111854,1,8,0:0:0:0:
397,100,112096,1,0,0:0:0:0:
171,125,112338,1,0,0:0:0:0:
273,178,112822,1,8,0:0:0:0:
351,232,113306,1,0,0:0:0:0:
426,91,113789,1,0,0:0:0:0:
473,95,114031,1,8,0:0:0:0:
105,104,114273,1,0,0:0:0:0:
170,172,114757,1,8,0:0:0:0:
293,265,115241,1,0,0:0:0:0:
285,71,116209,1,8,0:0:0:0:
250,161,116693,1,0,0:0:0:0:
374,189,116935,1,4,0:0:0:0:
439,248,117418,1,0,0:0:0:0:
263,179,117902,1,0,0:0:0:0:
184,121,118386,1,0,0:0:0:0:
266,123,118628,1,8,0:0:0:0:
317,121,118870,1,8,0:0:0:0:
293,299,119112,1,12,0:0:0:0:
55,40,119838,1,8,0:0:0:0:
68,43,121047,1,0,0:0:0:0:
114,43,121773,1,8,0:0:0:0:
218,46,122983,1,8,0:0:0:0:
158,41,123709,1,0,0:0:0:0:
304,50,124677,1,8,0:0:0:0:
229,45,125402,1,8,0:0:0:0:
70,148,126854,1,12,0:0:0:0:
