osu file format v14

[General]
AudioFilename: audio.mp3
AudioLeadIn: 0
PreviewTime: 134735
Countdown: 0
SampleSet: Soft
StackLeniency: 0.3
Mode: 0
LetterboxInBreaks: 0
WidescreenStoryboard: 1

[Editor]
Bookmarks: 1235,6287,16392,26498,36603,46708,56813,66919,69445,79550,89656,99761,109866,119971,125656,135761,155971,176182
DistanceSpacing: 0.4
BeatDivisor: 4
GridSize: 4
TimelineZoom: 2.599999

[Metadata]
Title:Happy End no Intro ga Kikoeru feat. Panaman
TitleUnicode:ハッピーエンドのイントロが聴こえる feat. ぱなまん
Artist:TOKOTOKO (NishizawasanP)
ArtistUnicode:TOKOTOKO(西沢さんP)
Creator:Nevo
Version:Mono's Insane
Source:
Tags:astronic airincat battle glaceon Mononymous japanese rock jrock j-rock zawaso
BeatmapID:3534118
BeatmapSetID:1327813

[Difficulty]
HPDrainRate:5
CircleSize:4
OverallDifficulty:7.5
ApproachRate:9
SliderMultiplier:1.6
SliderTickRate:1

[Events]
//Background and Video events
0,0,"battle_bg.jpg",0,0
//Break Periods
//Storyboard Layer 0 (Background)
//Storyboard Layer 1 (Fail)
//Storyboard Layer 2 (Pass)
//Storyboard Layer 3 (Foreground)
//Storyboard Layer 4 (Overlay)
//Storyboard Sound Samples

[TimingPoints]
-3817,315.789473684211,4,2,22,60,1,0
1235,-117.647058823529,4,2,22,60,0,0
3761,-100,4,2,22,60,0,0
6288,-71.4285714285714,4,2,22,80,0,0
6919,-83.3333333333333,4,2,22,80,0,0
11025,-71.4285714285714,4,2,22,80,0,0
11261,-71.4285714285714,4,2,22,5,0,0
11340,-76.9230769230769,4,2,22,60,0,0
11972,-83.3333333333333,4,2,22,60,0,0
13867,-71.4285714285714,4,2,22,60,0,0
14498,-83.3333333333333,4,2,22,60,0,0
16393,-100,4,2,22,80,0,0
16708,-100,4,2,22,60,0,0
25077,-83.3333333333333,4,2,22,60,0,0
25393,-90.9090909090909,4,2,22,60,0,0
26498,-100,4,2,22,60,0,0
35183,-90.9090909090909,4,2,22,60,0,0
35419,-90.9090909090909,4,2,22,5,0,0
35498,-90.9090909090909,4,2,22,60,0,0
36604,-111.111111111111,4,2,22,50,0,0
41340,-111.111111111111,4,2,22,55,0,0
41498,-80,4,2,22,55,0,0
41656,-90.9090909090909,4,2,22,60,0,0
42761,-76.9230769230769,4,2,22,60,0,0
43235,-90.9090909090909,4,2,22,60,0,0
44183,-86.9565217391304,4,2,22,60,0,0
46709,-68.9655172413793,4,2,22,80,0,1
47340,-80,4,2,22,80,0,1
49235,-68.9655172413793,4,2,22,80,0,1
49867,-80,4,2,22,80,0,1
51761,-68.9655172413793,4,2,22,80,0,1
52393,-80,4,2,22,80,0,1
54288,-68.9655172413793,4,2,22,80,0,1
54919,-80,4,2,22,80,0,1
55393,-68.9655172413793,4,2,22,80,0,1
55629,-68.9655172413793,4,2,22,5,0,1
55709,-68.9655172413793,4,2,22,80,0,1
56498,-80,4,2,22,80,0,1
56814,-68.9655172413793,4,2,22,80,0,1
57446,-80,4,2,22,80,0,1
59340,-68.9655172413793,4,2,22,80,0,1
59972,-80,4,2,22,80,0,1
61867,-80,4,3,22,70,0,0
65656,-100,4,2,22,70,0,0
68814,-83.3333333333333,4,2,22,70,0,0
69446,-83.3333333333333,4,2,22,50,0,0
70077,-111.111111111111,4,2,22,50,0,0
74498,-99.9999999999999,4,2,22,50,0,0
78761,-99.9999999999999,4,2,22,60,0,0
89656,-111.111111111111,4,2,22,50,0,0
94393,-111.111111111111,4,2,22,55,0,0
94551,-80,4,2,22,55,0,0
94709,-90.9090909090909,4,2,22,60,0,0
99761,-68.9655172413793,4,2,22,80,0,1
100393,-80,4,2,22,80,0,1
102288,-68.9655172413793,4,2,22,80,0,1
102604,-80,4,2,22,80,0,1
104814,-68.9655172413793,4,2,22,80,0,1
105446,-80,4,2,22,80,0,1
107340,-68.9655172413793,4,2,22,80,0,1
107656,-80,4,2,22,80,0,1
108446,-68.9655172413793,4,2,22,80,0,1
108682,-68.9655172413793,4,2,22,5,0,1
108761,-68.9655172413793,4,2,22,80,0,1
109235,-80,4,2,22,80,0,1
109867,-68.9655172413793,4,2,22,80,0,1
110498,-80,4,2,22,80,0,1
112393,-68.9655172413793,4,2,22,80,0,1
113025,-80,4,2,22,80,0,1
114919,-80,4,2,22,70,0,0
118709,-100,4,2,22,70,0,0
119972,-90.9090909090909,4,2,22,70,0,0
125656,315.789473684211,4,2,22,70,1,0
125656,-74.0740740740741,4,2,22,70,0,0
125971,-74.0740740740741,4,2,22,65,0,0
126129,-86.9565217391304,4,2,22,65,0,0
133234,-74.0740740740741,4,2,22,75,0,0
135603,-86.9565217391304,4,2,22,75,0,0
135761,-68.9655172413793,4,2,22,80,0,1
136392,-80,4,2,22,80,0,1
138287,-68.9655172413793,4,2,22,80,0,1
138919,-80,4,2,22,80,0,1
140813,-68.9655172413793,4,2,22,80,0,1
141445,-80,4,2,22,80,0,1
143340,-68.9655172413793,4,2,22,80,0,1
144681,-68.9655172413793,4,2,22,5,0,1
144761,-68.9655172413793,4,2,22,80,0,1
145550,-80,4,2,22,80,0,1
145866,-68.9655172413793,4,2,22,80,0,1
146498,-80,4,2,22,80,0,1
148392,-68.9655172413793,4,2,22,80,0,1
149024,-80,4,2,22,80,0,1
150919,-80,4,2,22,70,0,0
153445,-80,4,2,22,80,0,0
155971,-68.9655172413793,4,2,22,80,0,1
156603,-80,4,2,22,80,0,1
158498,-68.9655172413793,4,2,22,80,0,1
159129,-80,4,2,22,80,0,1
161024,-68.9655172413793,4,2,22,80,0,1
161656,-80,4,2,22,80,0,1
163550,-68.9655172413793,4,2,22,80,0,1
163866,-80,4,2,22,80,0,1
164656,-68.9655172413793,4,2,22,80,0,1
164892,-68.9655172413793,4,2,22,5,0,1
164971,-68.9655172413793,4,2,22,80,0,1
165761,-80,4,2,22,80,0,1
166077,-68.9655172413793,4,2,22,80,0,1
167340,-80,4,2,22,80,0,1
168603,-68.9655172413793,4,2,22,80,0,1
169234,-80,4,2,22,80,0,1
171129,-80,4,2,22,70,0,0
174919,-100,4,2,22,70,0,0
176182,-100,4,2,22,60,0,0

[Colours]
Combo1 : 243,77,35
Combo2 : 255,100,100
Combo3 : 66,137,255
Combo4 : 41,231,226

[HitObjects]
93,195,446,5,8,2:0:0:0:
93,195,525,1,8,2:0:0:0:
93,195,604,1,8,1:2:0:0:
195,141,761,1,0,1:2:0:0:
58,85,919,1,0,1:2:0:0:
159,248,1077,1,0,1:2:0:0:
318,115,1235,6,0,B|278:96|243:119|266:133|234:156|194:139,1,136.000000000001,10|0,1:2|1:2,2:0:0:0:
340,289,3604,5,0,1:2:0:0:
340,289,3761,2,0,B|428:193|370:109|280:146|311:210,1,240,6|2,1:2|1:2,2:0:0:0:
432,102,4393,2,0,P|401:70|357:63,2,80,2|0|0,1:2|2:0|1:0,2:0:0:0:
345,233,4867,6,0,L|358:136,1,80,2|0,1:2|2:0,2:0:0:0:
216,53,5183,2,0,L|229:150,1,80,2|0,1:2|2:0,2:0:0:0:
396,40,5498,1,2,1:2:0:0:
335,92,5656,5,10,3:2:0:0:
99,12,5814,1,10,3:2:0:0:
400,147,6288,6,0,B|356:119|306:155|333:177|288:207|241:183,1,168,6|0,1:2|2:0,2:0:0:0:
236,173,6604,1,10,2:0:0:0:
359,318,6761,1,2,1:2:0:0:
359,318,6919,2,0,P|402:279|450:286,1,96,2|2,1:2|2:0,2:0:0:0:
421,356,7235,1,8,2:0:0:0:
224,268,7393,6,0,L|237:159,1,96,2|0,1:2|2:0,2:0:0:0:
437,280,7709,2,0,P|390:283|359:318,1,96,2|8,1:2|2:0,2:0:0:0:
235,172,8025,1,2,1:2:0:0:
235,172,8183,2,0,P|318:195|342:112,1,192,2|10,1:2|2:0,2:0:0:0:
146,31,8814,6,0,B|152:97|152:97|150:110|150:110|156:174,1,144,0|0,1:2|2:0,2:0:0:0:
163,192,9130,1,10,2:0:0:0:
0,113,9288,1,2,1:2:0:0:
0,112,9446,2,0,P|34:76|81:79,1,96,2|2,1:2|2:0,2:0:0:0:
235,172,9761,1,8,2:0:0:0:
62,276,9919,6,0,L|71:170,1,96,2|0,1:2|2:0,2:0:0:0:
231,61,10235,2,0,L|240:167,1,96,2|8,1:2|2:0,2:0:0:0:
0,113,10551,1,2,1:2:0:0:
0,112,10709,2,0,P|34:76|81:79,1,96,2|0,1:2|2:0,2:0:0:0:
144,115,10946,1,0,2:0:0:0:
153,123,11025,2,0,B|146:195|146:195|137:212|137:212|131:289,1,168,10|0,2:0|2:0,2:0:0:0:
186,350,11340,6,0,P|232:330|241:281,1,104,4|0,1:2|2:0,2:0:0:0:
58,177,11656,1,10,2:0:0:0:
3,234,11814,1,2,1:2:0:0:
3,234,11972,2,0,L|20:348,1,96,2|2,1:2|2:0,2:0:0:0:
219,206,12288,5,8,2:0:0:0:
160,157,12446,2,0,B|119:165|119:165|111:173|111:173|69:184,1,96,2|0,1:2|2:0,2:0:0:0:
278,42,12761,2,0,B|318:50|318:50|326:58|326:58|368:69,1,96,2|8,1:2|2:0,2:0:0:0:
200,92,13077,1,2,1:2:0:0:
200,92,13235,2,0,P|183:40|196:2,1,96,2|2,1:2|2:0,2:0:0:0:
368,69,13551,2,0,P|383:137|340:192,1,144,10|0,2:0|2:0,2:0:0:0:
273,217,13867,6,0,B|251:176|194:183|194:183|232:206|231:258,1,168,4|0,1:2|2:0,2:0:0:0:
216,262,14183,1,10,2:0:0:0:
390,188,14340,1,2,1:2:0:0:
390,188,14498,2,0,L|492:208,1,96,2|2,1:2|1:2,2:0:0:0:
339,61,14814,5,8,2:0:0:0:
339,61,14972,1,2,1:2:0:0:
196,338,15288,1,2,1:2:0:0:
47,143,15604,5,2,1:2:0:0:
112,94,15761,1,8,2:0:0:0:
76,257,15919,1,0,2:0:0:0:
2,209,16077,1,10,2:0:0:0:
201,153,16235,5,0,2:0:0:0:
201,153,16393,2,0,B|271:169|271:169|288:186|288:186|359:200,1,160,4|10,1:2|2:0,2:0:0:0:
490,134,16867,1,0,1:2:0:0:
433,82,17025,2,0,P|410:137|470:217,1,160,2|10,1:2|2:0,2:0:0:0:
400,362,17498,6,0,B|434:328|434:328|324:348,1,160,2|2,1:2|1:2,2:0:0:0:
146,267,17972,1,10,2:0:0:0:
185,334,18130,1,0,1:2:0:0:
310,216,18288,2,0,P|324:180|314:142,1,80,0|0,1:2|2:0,2:0:0:0:
180,45,18604,6,0,L|204:134,1,80,8|2,2:0|2:0,2:0:0:0:
211,153,18840,1,0,2:0:0:0:
211,153,18919,1,2,1:2:0:0:
37,75,19077,1,2,2:0:0:0:
37,75,19235,2,0,P|78:40|109:40,1,80,10|2,2:0|1:2,2:0:0:0:
273,114,19551,1,2,1:2:0:0:
339,82,19709,2,0,L|323:-11,1,80,2|8,2:0|2:0,2:0:0:0:
177,154,20025,6,0,P|181:207|251:223,1,120,2|0,1:2|2:0,2:0:0:0:
274,204,20340,2,0,P|265:266|262:295,1,80,2|8,1:2|2:0,2:0:0:0:
441,363,20656,1,2,1:2:0:0:
470,292,20814,2,0,P|427:284|395:312,1,80,0|2,1:2|2:0,2:0:0:0:
279,368,21130,2,0,L|290:278,1,80,10|0,2:0|2:0,2:0:0:0:
240,134,21446,6,0,B|168:148|168:148|152:163|152:163|88:177,2,160,6|10|2,1:2|2:0|1:2,2:0:0:0:
431,181,22393,1,10,2:0:0:0:
431,181,22551,2,0,P|460:145|460:110,1,80,2|0,1:2|2:0,2:0:0:0:
296,37,22867,1,2,1:2:0:0:
296,37,23025,2,0,B|306:75|306:75|305:88|305:88|313:119,1,80,10|0,2:0|1:2,2:0:0:0:
353,244,23340,6,0,P|311:200|257:206,1,120,0|0,1:2|2:0,2:0:0:0:
245,227,23656,2,0,P|209:256|171:257,1,80,8|2,2:0|2:0,2:0:0:0:
64,194,23972,6,0,P|72:150|78:115,2,80,2|2|10,1:2|2:0|2:0,2:0:0:0:
2,263,24446,1,2,1:2:0:0:
2,263,24604,1,2,1:2:0:0:
154,157,24761,1,2,2:0:0:0:
97,101,24919,1,10,2:0:0:0:
96,282,25077,6,0,P|143:273|189:259,1,96,6|0,1:2|2:0,2:0:0:0:
20,61,25393,2,0,P|4:107|17:149,1,88,2|12,1:2|2:0,2:0:0:0:
241,66,25709,1,2,1:2:0:0:
183,116,25867,2,0,P|132:107|79:97,1,88,12|2,2:0|1:2,2:0:0:0:
262,212,26183,5,8,3:2:0:0:
270,208,26261,1,8,3:2:0:0:
278,204,26340,2,0,L|331:212,1,44,8|8,3:2|3:2,2:0:0:0:
393,184,26498,2,0,P|422:134|402:80,1,120,6|0,1:2|2:0,2:0:0:0:
377,60,26814,2,0,L|295:79,1,80,10|0,2:0|1:2,2:0:0:0:
121,26,27130,5,0,1:2:0:0:
121,26,27288,2,0,P|91:76|111:130,1,120,2|0,2:0|2:0,2:0:0:0:
137,151,27604,2,0,L|219:132,1,80,2|0,1:2|2:0,2:0:0:0:
315,240,27919,5,2,1:2:0:0:
313,247,27998,1,0,2:0:0:0:
310,254,28077,1,10,2:0:0:0:
151,315,28235,1,2,1:2:0:0:
231,202,28393,1,2,1:2:0:0:
328,363,28551,1,2,2:0:0:0:
134,309,28709,1,10,2:0:0:0:
300,152,28867,2,0,P|321:190|314:241,1,80,2|0,2:0|1:2,2:0:0:0:
143,157,29183,5,2,2:0:0:0:
143,157,29340,2,0,L|160:71,1,80,10|2,2:0|1:2,2:0:0:0:
311,15,29656,1,2,1:2:0:0:
260,76,29814,1,2,2:0:0:0:
108,11,29972,2,0,P|65:13|39:43,1,80,10|2,2:0|1:2,2:0:0:0:
104,94,30288,5,2,2:0:0:0:
311,15,30446,1,2,1:2:0:0:
311,15,30604,2,0,P|297:82|292:106,1,80,10|2,2:0|1:2,2:0:0:0:
267,227,30919,2,0,P|323:228|363:168,1,120,2|0,1:2|2:0,2:0:0:0:
352,153,31235,1,10,2:0:0:0:
218,60,31393,1,2,2:0:0:0:
272,240,31551,5,6,1:2:0:0:
272,240,31867,2,0,P|226:205|170:217,1,120,10|0,2:0|2:0,2:0:0:0:
138,236,32183,2,0,L|151:323,1,80,2|0,1:2|2:0,2:0:0:0:
0,148,32498,5,8,2:0:0:0:
0,148,32656,2,0,P|46:183|102:171,1,120,2|0,1:2|2:0,2:0:0:0:
133,151,32972,2,0,L|120:64,1,80,2|8,1:2|2:0,2:0:0:0:
262,13,33288,5,2,1:2:0:0:
271,15,33367,1,2,2:0:0:0:
280,18,33446,2,0,L|267:105,1,80,2|2,1:2|2:0,2:0:0:0:
399,183,33761,6,0,B|449:166|449:166|434:102,1,120,10|0,2:0|2:0,2:0:0:0:
394,72,34077,2,0,P|410:25|510:27,1,160,2|8,1:2|2:0,2:0:0:0:
506,23,34551,1,2,1:2:0:0:
399,183,34709,2,0,P|344:166|234:144,1,160,2|8,1:2|2:0,2:0:0:0:
40,95,35183,6,0,B|119:78|119:78|144:93|134:123,1,132,4|0,1:2|2:0,2:0:0:0:
111,139,35498,2,0,P|96:90|122:55,1,88,8|0,2:0|2:0,2:0:0:0:
295,14,35814,5,0,3:2:0:0:
295,14,35893,1,0,2:0:0:0:
295,14,35972,1,8,3:2:0:0:
370,81,36130,1,0,3:2:0:0:
265,201,36288,2,0,P|216:184|170:179,1,88,0|0,3:2|2:0,2:0:0:0:
351,287,36604,6,0,P|384:249|380:186,1,108,6|0,3:2|2:0,2:0:0:0:
357,173,36919,2,0,P|344:134|353:103,1,72.0000000000001,2|2,3:2|3:2,2:0:0:0:
428,17,37235,1,2,3:2:0:0:
435,22,37551,1,10,3:2:0:0:
288,63,37709,6,0,P|254:54|218:48,1,72.0000000000001,2|0,2:0|3:2,2:0:0:0:
105,154,38025,2,0,P|139:145|175:139,1,72.0000000000001,2|0,2:0|3:2,2:0:0:0:
251,173,38340,1,2,3:2:0:0:
28,156,38498,2,0,P|29:191|55:214,1,72.0000000000001,0|2,3:2|2:0,2:0:0:0:
175,130,38814,2,0,L|189:21,1,108,10|0,3:2|2:0,2:0:0:0:
194,10,39130,6,0,P|161:2|132:22,1,72.0000000000001,2|0,3:2|2:0,2:0:0:0:
18,136,39446,2,0,B|-6:110|-6:110|10:77,1,72.0000000000001,2|0,3:2|3:2,2:0:0:0:
175,130,39761,2,0,L|157:244,1,108,2|0,3:2|2:0,2:0:0:0:
146,258,40077,2,0,P|177:242|212:249,1,72.0000000000001,10|0,3:2|2:0,2:0:0:0:
62,357,40393,6,0,P|53:301|37:213,1,144,0|0,3:2|3:2,2:0:0:0:
175,130,40867,1,0,3:2:0:0:
175,130,41025,2,0,P|157:170|124:183,1,72.0000000000001,2|0,3:2|2:0,2:0:0:0:
19,37,41340,1,10,3:2:0:0:
28,31,41419,1,8,3:2:0:0:
36,24,41498,2,0,L|98:34,1,50,8|8,3:2|3:2,2:0:0:0:
249,92,41656,6,0,P|312:88|331:28,1,132,6|0,1:2|2:0,2:0:0:0:
310,12,41972,2,0,L|327:105,1,88,8|0,2:0|2:0,2:0:0:0:
424,231,42288,1,8,2:0:0:0:
486,176,42446,1,0,1:2:0:0:
238,220,42761,6,0,B|180:168|180:168|232:110,1,156,6|0,1:2|2:0,2:0:0:0:
259,97,43077,1,2,1:2:0:0:
424,231,43235,2,0,P|467:219|508:208,1,88,10|0,2:0|2:0,2:0:0:0:
485,53,43551,2,0,P|442:41|400:30,1,88,10|2,2:0|1:2,2:0:0:0:
318,52,43867,2,0,P|298:90|310:131,1,88,10|0,2:0|1:2,2:0:0:0:
420,292,44183,6,0,B|441:294|457:271|457:271|412:239|362:285,1,138,6|0,1:2|2:0,2:0:0:0:
333,290,44498,2,0,B|303:254|303:254|328:208,1,92,10|0,2:0|1:2,2:0:0:0:
405,172,44814,2,0,L|413:74,1,92,10|0,2:0|1:2,2:0:0:0:
169,142,45130,5,2,3:2:0:0:
218,201,45288,1,0,3:2:0:0:
412,80,45446,1,10,3:2:0:0:
485,322,46709,6,0,P|442:359|387:349,1,116,14|0,2:0|2:0,2:0:0:0:
248,238,47025,1,8,2:0:0:0:
315,203,47183,1,2,1:2:0:0:
266,354,47340,2,0,P|208:336|165:332,1,100,10|0,2:0|1:2,2:0:0:0:
93,349,47577,1,0,2:0:0:0:
83,345,47656,2,0,P|54:305|66:258,1,100,8|0,2:0|1:2,2:0:0:0:
258,131,47972,6,0,P|244:200|238:234,1,100,8|0,2:0|2:0,2:0:0:0:
105,88,48288,2,0,P|144:17|244:46,1,200,10|10,2:0|2:0,2:0:0:0:
132,198,48761,1,2,1:2:0:0:
132,198,48919,2,0,P|67:181|26:172,1,100,10|0,2:0|1:2,2:0:0:0:
258,131,49235,6,0,B|325:156|325:156|293:264,1,174,6|0,1:2|2:0,2:0:0:0:
261,275,49551,1,8,2:0:0:0:
469,222,49709,1,2,2:0:0:0:
416,291,49867,2,0,P|390:243|397:197,1,100,10|0,2:0|1:2,2:0:0:0:
498,114,50183,5,10,2:0:0:0:
295,27,50340,1,0,1:2:0:0:
356,80,50498,2,0,P|409:63|462:50,1,100,10|0,2:0|2:0,2:0:0:0:
249,190,50814,2,0,P|196:173|143:160,1,100,8|0,2:0|2:0,2:0:0:0:
327,283,51130,5,10,2:0:0:0:
395,229,51288,1,0,1:2:0:0:
255,111,51446,1,10,2:0:0:0:
246,115,51525,1,0,2:0:0:0:
237,120,51604,2,0,L|247:185,1,50,0|0,2:0|2:0,2:0:0:0:
207,304,51761,6,0,B|103:284|146:351|55:365,1,174,14|2,2:0|2:0,2:0:0:0:
33,350,52077,1,8,2:0:0:0:
120,239,52235,1,2,2:0:0:0:
20,128,52393,2,0,B|-8:171|-8:171|26:212,1,100,10|0,2:0|1:2,2:0:0:0:
207,304,52709,2,0,B|235:261|235:261|201:220,1,100,10|0,2:0|2:0,2:0:0:0:
101,41,53025,6,0,P|111:102|195:105,1,150,10|2,2:0|2:0,2:0:0:0:
205,99,53340,1,8,2:0:0:0:
10,19,53498,1,2,2:0:0:0:
285,105,53656,6,0,P|273:51|235:28,1,100,10|0,2:0|1:2,2:0:0:0:
113,203,53972,1,10,2:0:0:0:
58,133,54130,1,0,2:0:0:0:
285,105,54288,6,0,B|378:134|378:134|400:156|400:156|497:191,1,232,6|10,1:2|2:0,2:0:0:0:
397,22,54761,1,2,1:2:0:0:
397,22,54919,2,0,P|362:66|372:106,1,100,10|2,2:0|1:2,2:0:0:0:
497,191,55235,1,10,2:0:0:0:
336,302,55393,6,0,B|248:266|248:266|221:301|178:310,1,174,6|0,1:2|2:0,2:0:0:0:
161,292,55709,1,2,1:2:0:0:
8,140,55867,2,0,B|17:99|67:93|67:93|96:142|150:138,1,174,10|0,2:0|2:0,2:0:0:0:
179,115,56183,1,10,2:0:0:0:
4,291,56340,1,2,1:2:0:0:
57,356,56498,2,0,P|92:311|84:259,1,100,10|0,2:0|1:2,2:0:0:0:
12,19,56814,6,0,B|27:102|27:102|23:120|23:120|39:206,1,174,6|0,1:2|2:0,2:0:0:0:
55,202,57130,1,8,2:0:0:0:
248,85,57288,1,2,2:0:0:0:
191,33,57446,2,0,B|144:20|144:20|105:56,1,100,10|0,2:0|1:2,2:0:0:0:
278,202,57761,2,0,B|325:215|325:215|364:179,1,100,8|0,2:0|1:2,2:0:0:0:
408,118,57998,5,0,2:0:0:0:
401,110,58077,2,0,L|412:3,1,100,8|0,2:0|2:0,2:0:0:0:
248,88,58393,2,0,L|259:195,1,100,10|2,2:0|2:0,2:0:0:0:
397,266,58709,1,10,2:0:0:0:
449,201,58867,1,2,1:2:0:0:
242,276,59025,2,0,P|194:264|172:221,1,100,10|0,2:0|1:2,2:0:0:0:
346,92,59340,6,0,B|427:127|427:127|388:266,1,232,6|8,1:2|2:0,2:0:0:0:
214,148,59814,1,2,2:0:0:0:
214,148,59972,2,0,P|187:93|208:49,1,100,10|0,2:0|1:2,2:0:0:0:
328,217,60288,2,0,P|262:226|171:239,1,150,10|0,2:0|2:0,2:0:0:0:
101,233,60604,6,0,B|78:199|78:199|98:126,1,100,10|2,2:0|2:0,2:0:0:0:
114,116,60840,1,0,0:0:0:0:
114,116,60919,2,0,P|170:110|201:140,1,100,8|0,0:0|0:0,0:0:0:0:
328,217,61235,1,10,2:0:0:0:
207,352,61393,1,0,1:0:0:0:
137,313,61551,1,0,1:0:0:0:
357,288,61709,5,2,1:2:0:0:
366,284,61788,1,0,2:0:0:0:
375,281,61867,2,0,P|413:237|388:137,2,150,6|2|2,1:2|2:0|1:2,2:0:0:0:
279,360,62498,2,0,B|238:352|238:352|225:353|225:353|172:341,1,100,10|0,2:0|2:0,2:0:0:0:
72,247,62814,2,0,B|113:239|113:239|126:240|126:240|179:228,1,100,2|0,2:0|2:0,2:0:0:0:
273,154,63130,6,0,B|248:116|279:72|298:96|324:57|304:16,2,150,10|2|2,3:2|2:0|1:2,2:0:0:0:
420,286,63761,2,0,P|484:260|470:183,1,150,10|0,2:0|2:0,2:0:0:0:
440,167,64077,2,0,L|340:195,1,100,8|2,2:0|1:2,2:0:0:0:
126,143,64393,5,6,1:2:0:0:
187,90,64551,1,2,2:0:0:0:
156,242,64709,2,0,P|115:207|117:155,1,100,10|2,2:0|2:0,2:0:0:0:
278,103,65025,5,0,3:2:0:0:
293,115,65130,6,0,P|300:155|285:189,1,66.6666666666667,0|0,3:0|3:0,2:0:0:0:
226,282,65340,5,0,3:2:0:0:
214,306,65446,5,0,3:0:0:0:
219,332,65551,5,0,3:0:0:0:
234,346,65656,6,0,P|291:301|374:318,1,160,6|0,1:2|2:0,2:0:0:0:
484,109,66288,2,0,B|467:161|467:161|357:139,1,160,2|2,3:2|2:0,2:0:0:0:
296,91,66761,1,0,2:0:0:0:
122,146,66919,5,4,1:2:0:0:
57,347,68814,6,0,B|21:312|21:312|49:269,1,96,8|0,2:0|2:0,2:0:0:0:
209,170,69130,2,0,L|188:263,1,96,2|0,2:0|2:0,2:0:0:0:
43,121,69446,5,6,1:2:0:0:
33,126,69761,1,10,3:2:0:0:
125,52,69919,1,0,1:2:0:0:
125,51,70077,2,0,P|160:48|192:63,1,72.0000000000001,2|0,1:2|2:0,2:0:0:0:
332,125,70393,5,10,3:2:0:0:
394,86,70551,2,0,P|384:38|377:10,1,72.0000000000001,2|0,1:2|1:2,2:0:0:0:
260,99,70867,1,2,1:2:0:0:
260,99,71025,2,0,P|250:147|243:175,1,72.0000000000001,10|0,3:2|1:2,2:0:0:0:
146,329,71340,6,0,P|95:311|99:224,1,144,0|8,1:2|3:2,2:0:0:0:
158,166,71814,1,2,2:0:0:0:
165,171,71893,1,0,1:2:0:0:
172,176,71972,2,0,P|207:172|243:169,1,72.0000000000001,2|2,1:2|2:0,2:0:0:0:
279,252,72288,2,0,P|243:255|207:258,1,72.0000000000001,10|2,3:2|1:2,2:0:0:0:
376,152,72604,6,0,P|363:222|353:294,1,144,2|8,1:2|3:2,2:0:0:0:
450,356,73077,1,2,1:2:0:0:
512,310,73235,2,0,P|484:281|448:277,1,72.0000000000001,0|2,1:2|1:2,2:0:0:0:
283,338,73551,5,8,3:2:0:0:
283,338,73709,2,0,L|293:258,1,72.0000000000001,2|0,1:2|1:2,2:0:0:0:
191,77,74183,2,0,P|212:123|263:124,1,108,10|0,3:2|2:0,2:0:0:0:
292,101,74498,6,0,L|279:18,1,80.0000000000001,6|0,1:2|2:0,2:0:0:0:
109,80,74814,2,0,B|144:59|144:59|186:74,1,80.0000000000001,10|0,3:2|1:2,2:0:0:0:
196,172,75130,2,0,B|161:193|161:193|119:178,1,80.0000000000001,2|0,1:2|2:0,2:0:0:0:
303,127,75446,5,10,3:2:0:0:
302,127,75604,2,0,P|293:166|289:205,2,80.0000000000001,2|0|2,1:2|1:2|1:2,2:0:0:0:
383,80,76077,2,0,P|378:40|370:1,1,80.0000000000001,10|0,3:2|1:2,2:0:0:0:
489,125,76393,2,0,P|433:104|403:188,1,160,0|8,1:2|3:2,2:0:0:0:
486,259,76867,5,2,2:0:0:0:
480,267,76946,1,0,1:2:0:0:
474,275,77025,2,0,P|478:317|482:358,1,80.0000000000001,2|2,1:2|2:0,2:0:0:0:
330,221,77340,1,10,3:2:0:0:
398,180,77498,1,2,1:2:0:0:
350,357,77656,6,0,P|310:314|249:320,1,120,2|0,1:2|2:0,2:0:0:0:
245,324,77972,1,10,3:2:0:0:
183,271,78130,2,0,P|186:226|192:186,1,80.0000000000001,2|0,1:2|2:0,2:0:0:0:
278,77,78446,1,2,1:2:0:0:
227,24,78604,1,8,3:2:0:0:
103,127,78761,5,2,1:2:0:0:
94,122,78840,1,0,1:2:0:0:
85,115,78919,2,0,P|53:136|13:133,1,80.0000000000001,0|2,1:2|1:2,2:0:0:0:
42,43,79235,1,10,3:2:0:0:
191,191,79393,5,0,2:0:0:0:
119,233,79551,2,0,B|88:198|88:198|103:122,1,120,6|0,1:2|2:0,2:0:0:0:
130,110,79867,2,0,L|121:25,1,80.0000000000001,10|0,2:0|1:2,2:0:0:0:
304,155,80183,5,0,1:2:0:0:
304,155,80340,2,0,P|255:141|225:203,1,120,2|0,2:0|2:0,2:0:0:0:
245,220,80656,2,0,L|227:309,1,80.0000000000001,2|0,1:2|2:0,2:0:0:0:
115,356,80972,5,2,1:2:0:0:
109,347,81051,1,0,2:0:0:0:
102,337,81130,2,0,P|64:334|33:359,1,80.0000000000001,10|2,2:0|1:2,2:0:0:0:
157,275,81446,1,2,1:2:0:0:
101,226,81604,2,0,P|109:168|113:137,1,80.0000000000001,2|10,2:0|2:0,2:0:0:0:
233,22,81919,6,0,B|273:30|273:30|260:48|237:48,1,80.0000000000001,2|0,2:0|1:2,2:0:0:0:
91,23,82235,1,2,2:0:0:0:
91,23,82393,2,0,P|36:20|20:73,1,120,10|0,2:0|2:0,2:0:0:0:
27,88,82709,1,2,1:2:0:0:
226,166,82867,1,2,2:0:0:0:
97,157,83025,5,10,2:0:0:0:
145,98,83183,1,2,1:2:0:0:
309,184,83340,6,0,P|347:180|373:151,2,80.0000000000001,2|2|10,2:0|1:2|2:0,2:0:0:0:
193,38,83814,1,2,1:2:0:0:
193,38,83972,2,0,P|251:48|359:65,1,160,2|10,1:2|2:0,2:0:0:0:
414,22,84446,1,2,2:0:0:0:
493,203,84604,1,6,1:2:0:0:
493,203,84919,6,0,B|451:216|451:216|428:141,1,120,10|0,2:0|2:0,2:0:0:0:
435,110,85235,2,0,P|406:76|368:73,1,80.0000000000001,2|0,1:2|2:0,2:0:0:0:
197,30,85551,1,8,2:0:0:0:
197,30,85709,2,0,L|219:113,1,80.0000000000001,2|0,1:2|2:0,2:0:0:0:
276,188,86025,5,2,1:2:0:0:
102,111,86183,1,8,2:0:0:0:
49,168,86340,1,2,1:2:0:0:
235,112,86498,2,0,P|277:96|319:108,2,80.0000000000001,2|2|10,1:2|2:0|2:0,2:0:0:0:
88,270,87130,6,0,B|34:238|34:238|60:143,1,160,2|8,1:2|2:0,2:0:0:0:
194,230,87604,1,2,1:2:0:0:
194,230,87761,2,0,P|209:271|198:315,1,80.0000000000001,2|0,1:2|2:0,2:0:0:0:
126,345,88077,1,8,2:0:0:0:
281,265,88235,6,0,B|347:285|347:285|368:305|368:305|428:320,1,160,4|8,1:2|2:0,2:0:0:0:
496,287,88709,1,0,1:2:0:0:
337,353,88867,1,0,3:2:0:0:
429,220,89025,2,0,P|434:174|451:139,2,80.0000000000001,8|0|0,3:2|3:2|3:2,2:0:0:0:
273,49,89656,6,0,B|235:26|195:56|216:70|180:98|131:75,1,144,6|2,3:2|3:2,2:0:0:0:
30,27,90130,1,0,3:2:0:0:
30,27,90288,2,0,P|58:86|56:136,1,108,2|0,3:2|2:0,2:0:0:0:
37,158,90604,1,10,3:2:0:0:
169,239,90761,6,0,P|135:228|101:219,1,72.0000000000001,2|0,2:0|3:2,2:0:0:0:
6,334,91077,2,0,P|40:322|74:313,1,72.0000000000001,2|0,2:0|3:2,2:0:0:0:
229,365,91393,2,0,P|286:327|277:259,1,144,2|2,3:2|2:0,2:0:0:0:
206,217,91867,1,10,3:2:0:0:
74,313,92183,6,0,B|27:280|27:280|51:195,2,144,2|2|2,3:2|3:2|3:2,2:0:0:0:
338,231,93130,1,10,3:2:0:0:
338,231,93288,1,0,2:0:0:0:
266,283,93446,2,0,P|247:243|253:206,1,72.0000000000001,2|0,3:2|2:0,2:0:0:0:
363,91,93761,5,0,3:2:0:0:
321,153,93919,1,0,3:2:0:0:
156,57,94077,1,2,3:2:0:0:
156,57,94393,1,10,3:2:0:0:
145,58,94472,1,8,3:2:0:0:
134,61,94551,2,0,L|138:110,1,50,8|8,3:2|3:2,2:0:0:0:
190,204,94709,6,0,B|122:195|122:195|83:220|83:220|17:215,1,176,6|8,1:2|2:0,2:0:0:0:
208,291,95183,1,0,2:0:0:0:
208,291,95340,2,0,P|249:279|266:240,1,88,8|0,2:0|1:2,2:0:0:0:
161,30,95814,6,0,P|177:116|189:203,1,176,6|2,1:2|1:2,2:0:0:0:
132,342,96288,2,0,P|90:330|73:291,1,88,10|2,2:0|2:0,2:0:0:0:
260,199,96604,2,0,P|258:242|224:268,1,88,10|0,2:0|1:2,2:0:0:0:
101,115,96919,2,0,P|144:123|187:131,1,88,10|0,2:0|1:2,2:0:0:0:
351,79,97235,6,0,B|275:55|275:55|250:75|260:108,1,132,6|0,1:2|2:0,2:0:0:0:
263,116,97551,2,0,P|290:83|288:40,1,88,10|0,2:0|1:2,2:0:0:0:
103,121,97867,1,10,2:0:0:0:
174,160,98025,1,0,1:2:0:0:
101,24,98183,2,0,P|61:40|16:47,1,88,2|0,3:2|3:2,2:0:0:0:
200,90,98498,1,10,3:2:0:0:
11,294,99761,6,0,B|68:269|108:298|108:298|131:338|167:333,1,174,14|0,2:0|2:0,2:0:0:0:
188,316,100077,1,8,2:0:0:0:
65,145,100235,1,2,1:2:0:0:
12,194,100393,2,0,P|20:243|24:293,1,100,10|0,2:0|1:2,2:0:0:0:
215,194,100709,2,0,P|219:144|227:94,1,100,8|0,2:0|1:2,2:0:0:0:
50,75,101025,6,0,P|67:8|136:21,1,150,8|0,2:0|2:0,2:0:0:0:
147,37,101340,2,0,L|123:144,1,100,10|0,2:0|2:0,2:0:0:0:
234,249,101656,1,10,2:0:0:0:
298,202,101814,1,2,1:2:0:0:
125,134,101972,6,0,P|77:126|41:159,1,100,10|0,2:0|2:0,2:0:0:0:
70,320,102288,2,0,B|158:292|158:292|178:326|224:334,1,174,6|0,1:2|2:0,2:0:0:0:
250,324,102604,2,0,P|271:275|246:238,1,100,8|2,2:0|2:0,2:0:0:0:
47,164,102919,2,0,P|58:215|100:231,1,100,10|0,2:0|1:2,2:0:0:0:
237,100,103235,6,0,B|296:112|296:112|323:138|323:138|373:150,1,150,10|0,2:0|2:0,2:0:0:0:
412,142,103551,2,0,P|446:98|344:32,1,200,10|8,2:0|2:0,2:0:0:0:
247,179,104025,5,0,2:0:0:0:
247,179,104183,2,0,P|259:235|266:282,1,100,10|0,2:0|1:2,2:0:0:0:
418,372,104498,2,0,P|425:322|436:273,1,100,10|0,2:0|1:2,2:0:0:0:
285,358,104814,6,0,P|214:353|179:258,2,174,14|2|2,2:0|2:0|2:0,2:0:0:0:
511,236,105446,2,0,P|484:196|437:185,1,100,10|0,2:0|1:2,2:0:0:0:
288,223,105761,2,0,P|245:201|244:153,1,100,10|0,2:0|1:2,2:0:0:0:
357,35,106077,5,10,2:0:0:0:
412,92,106235,2,0,P|476:80|517:74,1,100,2|8,2:0|2:0,2:0:0:0:
288,145,106551,1,2,2:0:0:0:
288,145,106709,2,0,B|189:102|189:102|160:145|103:143,1,200,10|10,2:0|2:0,2:0:0:0:
122,65,107183,1,0,1:2:0:0:
235,200,107340,6,0,B|224:275|224:275|210:297|210:297|197:379,1,174,6|0,1:2|2:0,2:0:0:0:
225,370,107656,2,0,P|266:342|314:349,2,100,10|2|10,2:0|1:2|2:0,2:0:0:0:
64,251,108130,1,2,1:2:0:0:
18,316,108288,1,10,2:0:0:0:
197,270,108446,6,0,P|209:181|224:81,1,174,6|0,1:2|2:0,2:0:0:0:
235,83,108761,1,2,1:2:0:0:
50,25,108919,1,10,2:0:0:0:
113,123,109077,1,2,1:2:0:0:
278,15,109235,6,0,P|311:51|313:100,1,100,10|2,2:0|1:2,2:0:0:0:
191,272,109551,2,0,B|179:222|179:222|284:200,1,150,10|0,2:0|2:0,2:0:0:0:
314,218,109867,6,0,P|367:200|385:147,1,116,6|0,1:2|2:0,2:0:0:0:
232,26,110183,1,8,2:0:0:0:
153,111,110340,1,2,2:0:0:0:
153,111,110498,2,0,P|215:127|260:142,1,100,10|0,2:0|2:0,2:0:0:0:
413,12,110814,2,0,P|351:28|306:43,1,100,8|0,2:0|1:2,2:0:0:0:
471,205,111130,6,0,P|484:120|398:127,1,200,8|10,2:0|2:0,2:0:0:0:
248,232,111604,1,2,2:0:0:0:
247,232,111761,2,0,P|296:220|346:213,1,100,10|2,2:0|1:2,2:0:0:0:
483,342,112077,6,0,B|421:358|421:358|398:265,1,150,10|0,2:0|2:0,2:0:0:0:
427,245,112393,2,0,P|395:142|286:143,1,232,6|8,1:2|2:0,2:0:0:0:
210,202,112867,1,2,2:0:0:0:
46,80,113025,6,0,B|141:66|105:125|183:122,1,150,10|0,2:0|2:0,2:0:0:0:
215,104,113340,2,0,P|243:61|222:20,1,100,10|0,2:0|1:2,2:0:0:0:
63,155,113656,6,0,P|74:204|85:253,1,100,10|0,2:0|2:0,2:0:0:0:
85,281,113893,1,2,0:0:0:0:
85,281,113972,2,0,P|140:280|162:238,1,100,8|0,0:0|0:0,0:0:0:0:
215,104,114288,1,10,2:0:0:0:
276,154,114446,1,0,1:0:0:0:
275,154,114604,2,0,P|323:138|373:139,1,100,0|2,1:0|1:2,2:0:0:0:
436,177,114919,6,0,P|506:164|512:94,2,150,6|2|2,1:2|2:0|1:2,2:0:0:0:
371,138,115551,2,0,P|384:195|392:241,1,100,10|0,2:0|2:0,2:0:0:0:
197,317,115867,2,0,P|205:267|217:219,1,100,2|0,2:0|2:0,2:0:0:0:
457,276,116183,5,10,3:2:0:0:
396,317,116340,1,8,2:0:0:0:
397,326,116419,1,2,2:0:0:0:
398,335,116498,2,0,P|357:363|307:359,1,100,0|2,2:0|1:2,2:0:0:0:
230,183,116814,5,10,2:0:0:0:
298,222,116972,1,0,2:0:0:0:
152,241,117130,5,8,2:0:0:0:
375,163,117288,1,0,2:0:0:0:
139,252,117446,2,0,B|100:221|100:221|120:176,2,100,6|2|10,1:2|2:0|2:0,2:0:0:0:
300,142,117919,2,0,P|290:92|280:43,1,100,2|0,2:0|3:2,2:0:0:0:
202,19,118183,5,0,3:2:0:0:
194,30,118288,6,0,P|167:48|134:51,1,66.6666666666667,0|0,3:2|3:2,2:0:0:0:
38,15,118498,5,0,3:2:0:0:
10,33,118604,5,0,3:2:0:0:
10,66,118709,6,0,P|25:142|41:227,1,160,6|0,1:2|2:0,2:0:0:0:
269,353,119340,2,0,B|284:306|284:306|174:271,1,160,2|0,3:2|2:0,2:0:0:0:
71,363,119814,5,0,2:0:0:0:
71,363,119972,2,0,P|3:314|23:233,1,176,6|8,1:2|2:0,2:0:0:0:
23,233,121077,5,2,1:2:0:0:
157,171,121235,2,0,B|227:191|227:191|246:219|246:219|312:239,1,176,2|8,1:2|2:0,2:0:0:0:
312,239,122340,5,2,1:2:0:0:
139,350,122498,2,0,P|172:277|248:301,1,176,2|8,1:2|2:0,2:0:0:0:
139,128,122972,5,2,1:2:0:0:
312,239,123130,2,0,P|279:166|203:190,1,176,2|8,1:2|2:0,2:0:0:0:
325,53,123604,5,2,1:2:0:0:
161,122,123761,2,0,P|170:78|179:35,1,88,6|0,1:2|2:0,2:0:0:0:
337,162,124077,2,0,P|346:205|355:248,1,88,2|0,1:2|2:0,2:0:0:0:
80,137,124393,6,0,P|89:93|98:50,1,88,2|0,1:2|2:0,2:0:0:0:
264,171,124709,1,2,1:2:0:0:
264,171,125656,6,0,P|221:136|163:146,1,108,6|0,1:2|2:0,2:0:0:0:
65,197,125971,1,8,2:0:0:0:
0,121,126129,2,0,P|17:199|38:314,1,184,2|0,1:2|2:0,2:0:0:0:
132,364,126603,6,0,P|170:342|178:298,1,92,10|0,2:0|1:2,2:0:0:0:
129,157,126919,1,0,2:0:0:0:
129,157,127077,2,0,P|137:200|175:223,2,92,2|8|0,1:2|2:0|2:0,2:0:0:0:
342,264,127550,2,0,P|319:225|275:217,1,92,2|2,1:2|2:0,2:0:0:0:
238,368,127866,2,0,P|304:351|387:334,1,138,10|0,2:0|2:0,2:0:0:0:
404,342,128182,5,2,1:2:0:0:
479,285,128340,2,0,P|490:237|500:184,1,92,2|8,2:0|2:0,2:0:0:0:
349,71,128656,6,0,P|360:119|370:172,1,92,2|0,1:2|1:2,2:0:0:0:
274,216,128971,2,0,P|242:186|197:187,1,92,2|8,2:0|2:0,2:0:0:0:
63,234,129287,6,0,B|13:203|13:203|41:114,1,138,2|0,1:2|2:0,2:0:0:0:
64,109,129603,1,2,1:2:0:0:
40,19,129761,2,0,P|97:36|134:43,1,92,10|2,2:0|1:2,2:0:0:0:
248,20,130077,2,0,P|310:27|312:90,1,138,2|0,1:2|2:0,2:0:0:0:
295,105,130392,2,0,P|299:170|309:249,1,138,10|0,2:0|2:0,2:0:0:0:
328,260,130708,1,0,1:2:0:0:
459,200,130866,5,0,2:0:0:0:
459,200,131024,2,0,P|488:155|482:117,2,92,10|2|2,2:0|1:2|1:2,2:0:0:0:
311,119,131498,1,2,2:0:0:0:
255,173,131656,1,8,2:0:0:0:
396,288,131813,6,0,P|389:238|381:187,1,92,2|0,1:2|2:0,2:0:0:0:
200,119,132129,2,0,P|193:169|185:220,1,92,2|8,1:2|2:0,2:0:0:0:
70,301,132445,1,2,1:2:0:0:
14,255,132603,2,0,P|51:223|101:234,1,92,2|2,1:2|2:0,2:0:0:0:
224,308,132919,1,10,3:2:0:0:
224,308,133234,6,0,B|316:277|316:277|290:159,1,216,6|10,1:2|2:0,2:0:0:0:
212,33,133708,1,2,2:0:0:0:
395,112,133866,2,0,B|380:64|332:47|286:61|286:61|261:117|215:111,1,216,6|10,1:2|2:0,2:0:0:0:
151,86,134340,1,2,2:0:0:0:
24,227,134498,5,6,1:2:0:0:
226,187,134656,1,0,1:2:0:0:
158,241,134813,5,14,2:0:0:0:
104,185,134971,1,0,1:2:0:0:
151,86,135129,5,14,2:0:0:0:
85,276,135287,1,2,2:0:0:0:
150,346,135445,5,10,2:0:0:0:
159,344,135524,1,8,2:0:0:0:
167,341,135603,2,0,L|175:280,1,46,8|8,2:0|2:0,2:0:0:0:
226,187,135761,6,0,P|330:170|355:273,1,232,14|8,2:0|2:0,2:0:0:0:
267,360,136234,1,2,1:2:0:0:
267,360,136392,2,0,B|236:318|236:318|259:269,1,100,10|0,2:0|2:0,2:0:0:0:
443,183,136708,2,0,B|474:225|474:225|451:274,1,100,8|0,2:0|1:2,2:0:0:0:
275,121,137024,6,0,B|181:130|181:130|158:158|180:183,1,150,8|0,2:0|2:0,2:0:0:0:
202,189,137340,2,0,P|225:135|208:97,1,100,10|0,2:0|2:0,2:0:0:0:
27,29,137656,1,10,2:0:0:0:
66,95,137813,1,2,1:2:0:0:
195,12,137971,2,0,P|259:33|304:46,1,100,10|0,2:0|1:2,2:0:0:0:
502,120,138287,6,0,B|410:139|410:139|378:171|378:171|277:200,1,232,6|8,1:2|2:0,2:0:0:0:
132,143,138761,1,2,2:0:0:0:
132,143,138919,2,0,P|170:100|220:103,1,100,10|0,2:0|1:2,2:0:0:0:
288,196,139234,2,0,P|276:261|267:302,1,100,10|0,2:0|1:2,2:0:0:0:
148,351,139550,6,0,B|106:319|44:340|44:340|84:303|80:258,1,200,10|8,2:0|2:0,2:0:0:0:
11,142,140024,1,0,2:0:0:0:
11,142,140182,2,0,P|43:186|90:186,1,100,10|0,2:0|1:2,2:0:0:0:
233,54,140498,5,10,2:0:0:0:
223,57,140577,1,0,2:0:0:0:
213,61,140656,2,0,L|162:50,1,50,0|0,1:2|2:0,2:0:0:0:
60,18,140813,6,0,B|33:60|62:111|90:89|120:126|97:178,1,174,14|2,2:0|2:0,2:0:0:0:
85,187,141129,1,8,2:0:0:0:
258,139,141287,1,2,2:0:0:0:
258,139,141445,2,0,P|294:172|293:221,1,100,10|0,2:0|1:2,2:0:0:0:
183,346,141761,2,0,P|147:313|148:264,1,100,10|0,2:0|1:2,2:0:0:0:
314,338,142077,6,0,B|371:345|371:345|399:364|399:364|457:371,1,150,10|2,2:0|2:0,2:0:0:0:
483,349,142392,1,8,2:0:0:0:
360,241,142550,1,2,2:0:0:0:
418,190,142708,2,0,P|466:206|512:225,1,100,10|0,2:0|1:2,2:0:0:0:
301,101,143024,6,0,P|253:137|262:179,1,100,10|0,2:0|1:2,2:0:0:0:
504,97,143340,2,0,B|459:76|453:19|453:19|398:58|323:24,1,232,6|10,1:2|2:0,2:0:0:0:
127,5,143813,5,2,1:2:0:0:
207,154,143971,1,10,2:0:0:0:
282,120,144129,5,2,1:2:0:0:
47,39,144287,1,10,2:0:0:0:
294,133,144445,6,0,B|388:120|388:120|425:151|406:196,1,174,6|0,1:2|2:0,2:0:0:0:
384,218,144761,1,2,1:2:0:0:
490,320,144919,2,0,P|440:303|394:344,1,116,10|2,2:0|1:2,2:0:0:0:
217,366,145234,6,0,B|287:347|287:347|266:242,1,174,10|0,2:0|2:0,2:0:0:0:
223,211,145550,2,0,P|171:196|151:274,1,150,10|0,2:0|2:0,2:0:0:0:
188,297,145866,6,0,B|205:195|205:195|197:168|197:168|213:68,1,232,6|8,1:2|2:0,2:0:0:0:
289,27,146340,1,2,2:0:0:0:
99,110,146498,2,0,P|82:54|105:16,1,100,10|0,2:0|1:2,2:0:0:0:
244,123,146813,2,0,P|261:179|238:217,1,100,8|0,2:0|1:2,2:0:0:0:
86,310,147129,6,0,B|63:286|29:274|29:274|165:263,1,200,8|10,2:0|2:0,2:0:0:0:
225,310,147603,1,2,2:0:0:0:
377,228,147761,1,10,2:0:0:0:
319,179,147919,1,2,1:2:0:0:
354,355,148077,2,0,P|409:338|417:298,1,100,10|0,2:0|1:2,2:0:0:0:
227,132,148392,6,0,P|237:196|261:367,1,232,6|8,1:2|2:0,2:0:0:0:
98,310,148866,1,2,2:0:0:0:
88,312,148945,1,0,2:0:0:0:
78,314,149024,2,0,P|43:273|56:230,1,100,10|0,2:0|1:2,2:0:0:0:
205,144,149340,2,0,P|202:197|163:220,1,100,10|0,2:0|1:2,2:0:0:0:
0,36,149656,6,0,P|67:28|108:25,1,100,10|0,0:0|0:0,0:0:0:0:
128,11,149892,1,2,0:0:0:0:
128,11,149971,2,0,P|88:73|96:100,1,100,8|2,0:0|0:0,0:0:0:0:
177,170,150287,5,10,0:0:0:0:
242,130,150445,1,0,1:0:0:0:
103,168,150603,2,0,P|107:216|146:245,1,100,0|2,1:0|1:2,2:0:0:0:
334,206,150919,6,0,B|314:175|314:175|432:189,2,150,6|2|2,1:2|2:0|1:2,2:0:0:0:
368,328,151550,2,0,P|414:311|432:266,1,100,10|0,2:0|2:0,2:0:0:0:
238,137,151866,2,0,P|225:183|251:224,1,100,2|0,2:0|2:0,2:0:0:0:
459,115,152182,6,0,B|431:130|431:130|440:76|440:76|433:57|433:57|437:8,2,150,10|2|2,3:2|2:0|1:2,2:0:0:0:
505,251,152813,2,0,P|463:214|419:223,1,100,10|0,2:0|1:2,2:0:0:0:
271,292,153129,6,0,P|220:268|239:177,1,150,8|0,2:0|2:0,2:0:0:0:
259,168,153445,1,6,1:2:0:0:
109,85,153603,5,2,2:0:0:0:
108,84,153761,2,0,P|143:127|137:174,1,100,6|2,1:2|2:0,2:0:0:0:
4,291,154077,2,0,P|33:245|79:236,1,100,4|2,1:2|1:2,2:0:0:0:
208,296,154392,2,0,P|210:349|178:384,1,100,12|2,2:0|2:0,2:0:0:0:
75,236,154708,5,2,3:2:0:0:
144,194,154866,1,0,3:2:0:0:
96,343,155024,2,0,P|43:322|-7:310,1,100,2|0,3:2|3:2,2:0:0:0:
202,258,155340,5,10,3:2:0:0:
204,267,155419,1,8,3:2:0:0:
206,276,155498,2,0,L|256:267,1,50,8|8,3:2|3:2,2:0:0:0:
319,238,155656,2,0,P|344:197|335:149,1,100,14|0,3:2|2:0,2:0:0:0:
223,0,155971,6,0,B|238:77|238:77|233:105|233:105|248:179,1,174,6|0,1:2|2:0,2:0:0:0:
260,187,156287,1,8,2:0:0:0:
137,101,156445,1,2,2:0:0:0:
137,101,156603,2,0,P|90:90|61:128,1,100,10|0,2:0|1:2,2:0:0:0:
225,259,156919,2,0,P|265:233|259:186,1,100,8|0,2:0|1:2,2:0:0:0:
95,203,157234,6,0,P|109:274|122:365,1,150,8|0,2:0|2:0,2:0:0:0:
103,360,157550,2,0,P|69:325|21:331,1,100,10|0,2:0|2:0,2:0:0:0:
223,256,157866,1,10,2:0:0:0:
182,316,158024,1,2,1:2:0:0:
23,179,158182,2,0,P|54:135|106:137,1,100,10|0,2:0|1:2,2:0:0:0:
259,186,158498,6,0,B|359:157|359:157|327:25,1,232,6|8,1:2|2:0,2:0:0:0:
195,12,158971,1,2,2:0:0:0:
195,12,159129,2,0,B|166:54|166:54|197:98,1,100,10|0,2:0|1:2,2:0:0:0:
358,238,159445,2,0,B|387:196|387:196|356:152,1,100,10|0,2:0|1:2,2:0:0:0:
228,266,159761,2,0,P|327:284|425:305,1,200,10|8,2:0|2:0,2:0:0:0:
171,332,160392,6,0,P|136:297|140:249,1,100,10|0,2:0|1:2,2:0:0:0:
242,99,160708,2,0,P|226:169|213:250,1,150,10|0,2:0|2:0,2:0:0:0:
227,266,161024,6,0,P|313:281|398:300,1,174,6|2,1:2|2:0,2:0:0:0:
424,313,161340,1,8,2:0:0:0:
484,265,161498,1,2,2:0:0:0:
389,143,161656,2,0,P|341:136|313:175,1,100,10|0,2:0|1:2,2:0:0:0:
476,107,161971,2,0,P|483:46|489:4,1,100,10|0,2:0|1:2,2:0:0:0:
285,35,162287,6,0,P|299:123|313:190,1,150,10|2,2:0|2:0,2:0:0:0:
328,205,162603,1,8,2:0:0:0:
213,126,162761,1,2,2:0:0:0:
213,126,162919,2,0,P|165:116|129:149,1,100,10|0,2:0|1:2,2:0:0:0:
231,313,163234,2,0,P|266:280|261:232,1,100,10|0,2:0|1:2,2:0:0:0:
53,130,163550,6,0,P|73:204|89:303,1,174,6|0,1:2|2:0,2:0:0:0:
85,314,163866,2,0,P|45:282|-2:288,1,100,10|2,2:0|1:2,2:0:0:0:
157,384,164182,1,0,0:0:0:0:
184,252,164340,1,2,1:2:0:0:
85,314,164498,1,10,2:0:0:0:
283,228,164656,6,0,P|213:212|106:192,1,174,6|0,1:2|2:0,2:0:0:0:
57,198,164971,1,2,1:2:0:0:
142,28,165129,2,0,P|184:68|174:126,1,116,14|2,2:0|1:2,2:0:0:0:
56,92,165445,5,10,2:0:0:0:
259,23,165603,1,2,1:2:0:0:
259,23,165761,2,0,P|319:39|412:61,1,150,2|0,1:2|2:0,2:0:0:0:
423,74,166077,6,0,P|489:54|492:10,1,116,6|0,1:2|2:0,2:0:0:0:
304,132,166392,2,0,P|321:202|332:255,1,116,8|2,2:0|2:0,2:0:0:0:
281,311,166708,1,10,2:0:0:0:
400,204,166866,1,0,1:2:0:0:
461,344,167024,1,8,2:0:0:0:
211,261,167182,1,0,1:2:0:0:
281,311,167340,6,0,P|302:262|285:217,1,100,8|0,2:0|2:0,2:0:0:0:
113,46,167656,2,0,P|95:114|150:159,1,150,10|0,2:0|2:0,2:0:0:0:
179,158,167971,2,0,P|192:103|204:55,1,100,10|0,2:0|1:2,2:0:0:0:
42,196,168287,6,0,B|-3:262|-3:262|41:315,1,150,10|0,2:0|2:0,2:0:0:0:
71,347,168603,2,0,B|128:383|194:336|159:307|218:268|279:299,1,232,6|8,1:2|2:0,2:0:0:0:
239,369,169077,1,2,2:0:0:0:
110,271,169234,6,0,P|118:213|126:166,1,100,10|0,2:0|1:2,2:0:0:0:
261,64,169550,2,0,P|269:122|277:169,1,100,10|0,2:0|1:2,2:0:0:0:
342,235,169866,5,10,2:0:0:0:
373,38,170024,1,0,0:0:0:0:
373,38,170103,1,2,2:0:0:0:
373,38,170182,1,0,0:0:0:0:
172,118,170340,1,2,2:0:0:0:
236,178,170498,1,10,2:0:0:0:
236,178,170656,2,0,P|267:133|260:86,1,100,0|0,1:0|1:0,2:0:0:0:
84,189,170971,5,2,2:0:0:0:
84,189,171129,2,0,P|95:263|110:336,2,150,6|2|2,1:2|2:0|1:2,2:0:0:0:
194,92,171761,2,0,P|163:54|115:56,1,100,10|0,2:0|2:0,2:0:0:0:
84,189,172077,6,0,B|141:186|141:186|163:196|163:196|231:195,1,150,2|0,2:0|2:0,2:0:0:0:
266,171,172392,2,0,P|327:197|336:274,2,150,2|2|2,1:2|2:0|1:2,2:0:0:0:
94,266,173024,6,0,P|105:328|113:365,1,100,10|0,2:0|1:2,2:0:0:0:
247,269,173340,2,0,P|258:207|266:170,1,100,10|2,2:0|2:0,2:0:0:0:
126,18,173656,6,0,P|124:66|160:97,1,100,6|2,1:2|2:0,2:0:0:0:
328,20,173971,1,10,2:0:0:0:
388,82,174129,1,2,2:0:0:0:
388,82,174287,2,0,P|400:124|393:149,1,66.6666666666667,0|0,3:2|3:2,2:0:0:0:
336,202,174498,5,0,3:2:0:0:
310,193,174603,5,0,3:2:0:0:
284,185,174708,5,0,3:2:0:0:
258,178,174813,5,0,3:2:0:0:
228,171,174919,6,0,B|189:117|127:141|127:141|147:145|163:168,1,160,6|0,1:2|2:0,2:0:0:0:
371,358,175550,2,0,P|441:334|439:260,1,160,2|0,3:2|2:0,2:0:0:0:
382,209,176024,1,0,2:0:0:0:
252,280,176182,5,4,1:2:0:0:
