osu file format v14

[General]
AudioFilename: audio.mp3
AudioLeadIn: 0
PreviewTime: 134735
Countdown: 0
SampleSet: Soft
StackLeniency: 0.4
Mode: 0
LetterboxInBreaks: 0
WidescreenStoryboard: 1

[Editor]
DistanceSpacing: 1.4
BeatDivisor: 8
GridSize: 32
TimelineZoom: 1.4

[Metadata]
Title:Happy End no Intro ga Kikoeru feat. Panaman
TitleUnicode:ハッピーエンドのイントロが聴こえる feat. ぱなまん
Artist:TOKOTOKO (NishizawasanP)
ArtistUnicode:TOKOTOKO(西沢さんP)
Creator:Nevo
Version:Glaceon's Extra
Source:
Tags:astronic airincat battle glaceon Mononymous japanese rock jrock j-rock zawaso
BeatmapID:2768077
BeatmapSetID:1327813

[Difficulty]
HPDrainRate:5.5
CircleSize:4
OverallDifficulty:8.8
ApproachRate:9.3
SliderMultiplier:2
SliderTickRate:1

[Events]
//Background and Video events
0,0,"77225492_p0.jpg",0,0
//Break Periods
2,1435,3207
2,3961,5102
//Storyboard Layer 0 (Background)
//Storyboard Layer 1 (Fail)
//Storyboard Layer 2 (Pass)
//Storyboard Layer 3 (Foreground)
//Storyboard Layer 4 (Overlay)
//Storyboard Sound Samples

[TimingPoints]
-3817,315.789473684211,4,2,1,60,1,0
6288,-111.111111111111,4,2,1,80,0,0
11261,-111.111111111111,4,2,1,5,0,0
11340,-111.111111111111,4,2,1,60,0,0
16313,-111.111111111111,4,2,1,5,0,0
16393,-111.111111111111,4,2,1,80,0,0
16709,-111.111111111111,4,2,1,60,0,0
21366,-111.111111111111,4,2,1,5,0,0
21446,-111.111111111111,4,2,1,60,0,0
36524,-111.111111111111,4,2,1,5,0,0
36604,-142.857142857143,4,2,1,50,0,0
41340,-142.857142857143,4,2,1,55,0,0
41656,-111.111111111111,4,2,1,60,0,0
46709,-99.9999999999999,4,2,1,80,0,1
56498,-99.9999999999999,4,2,1,80,0,0
56814,-99.9999999999999,4,2,1,80,0,1
61867,-111.111111111111,4,2,1,70,0,0
64393,-111.111111111111,4,2,1,70,0,1
65130,-99.9999999999999,4,2,1,70,0,1
65656,-142.857142857143,4,2,1,70,0,1
66919,-142.857142857143,4,2,1,70,0,0
69446,-125,4,2,1,50,0,0
78761,-125,4,2,1,60,0,0
79551,-111.111111111111,4,2,1,60,0,0
89656,-142.857142857143,4,2,1,50,0,0
94393,-142.857142857143,4,2,1,55,0,0
94709,-111.111111111111,4,2,1,60,0,0
99761,-99.9999999999999,4,2,1,80,0,1
109551,-99.9999999999999,4,2,1,80,0,0
109867,-99.9999999999999,4,2,1,80,0,1
114919,-111.111111111111,4,2,1,70,0,0
117446,-111.111111111111,4,2,1,70,0,1
118183,-99.9999999999999,4,2,1,70,0,1
118709,-142.857142857143,4,2,1,70,0,1
119972,-125,4,2,1,70,0,0
125024,-125,4,2,1,15,0,0
125656,315.789473684211,4,2,1,70,1,0
125656,-111.111111111111,4,2,1,70,0,0
125971,-111.111111111111,4,2,1,65,0,0
133234,-111.111111111111,4,2,1,75,0,0
135761,-99.9999999999999,4,2,1,80,0,1
145550,-99.9999999999999,4,2,1,80,0,0
145866,-99.9999999999999,4,2,1,80,0,1
150919,-111.111111111111,4,2,1,70,0,0
153445,-111.111111111111,4,2,1,80,0,0
153919,-99.9999999999999,4,2,1,80,0,0
155971,-99.9999999999999,4,2,1,80,0,1
171129,-111.111111111111,4,2,1,70,0,0
173656,-111.111111111111,4,2,1,70,0,1
174392,-99.9999999999999,4,2,1,70,0,1
174919,-142.857142857143,4,2,1,70,0,1
176182,-142.857142857143,4,2,1,60,0,0

[Colours]
Combo1 : 248,211,3
Combo2 : 255,100,100
Combo3 : 66,137,255
Combo4 : 136,136,136

[HitObjects]
79,319,446,5,8,2:0:0:0:
79,319,525,1,8,2:0:0:0:
79,319,604,1,8,1:2:0:0:
169,228,761,1,0,1:2:0:0:
231,320,919,1,0,1:2:0:0:
299,256,1077,1,0,1:2:0:0:
417,343,1235,5,10,1:2:0:0:
137,92,3761,5,6,1:2:0:0:
402,113,5656,5,10,3:2:0:0:
151,285,5814,1,10,3:2:0:0:
151,285,6288,6,0,P|124:235|131:189,1,90.0000000000001,6|0,1:2|2:0,2:0:0:0:
240,78,6604,1,10,2:0:0:0:
55,123,6761,1,2,1:2:0:0:
216,219,6919,1,2,1:2:0:0:
128,34,7077,2,0,L|38:29,1,90.0000000000001,2|8,2:0|2:0,2:0:0:0:
294,157,7393,6,0,L|383:152,1,90.0000000000001,2|0,1:2|2:0,2:0:0:0:
512,5,7709,2,0,P|459:3|416:43,1,90.0000000000001,2|8,1:2|2:0,2:0:0:0:
294,157,8025,1,2,1:2:0:0:
487,79,8183,1,2,1:2:0:0:
286,22,8340,1,2,2:0:0:0:
418,183,8498,2,0,L|427:279,1,90.0000000000001,10|2,2:0|2:0,2:0:0:0:
200,354,8814,6,0,L|208:264,1,90.0000000000001,0|0,1:2|2:0,2:0:0:0:
350,104,9130,1,10,2:0:0:0:
120,172,9288,1,2,1:2:0:0:
299,244,9446,1,2,1:2:0:0:
102,312,9604,2,0,P|49:293|20:231,1,90.0000000000001,2|8,2:0|2:0,2:0:0:0:
121,86,9919,6,0,P|131:141|91:197,1,90.0000000000001,2|0,1:2|2:0,2:0:0:0:
2,8,10235,2,0,L|120:-3,1,90.0000000000001,2|8,1:2|2:0,2:0:0:0:
222,124,10551,1,2,1:2:0:0:
394,51,10709,2,0,L|276:40,1,90.0000000000001,2|0,1:2|2:0,2:0:0:0:
129,190,11025,2,0,P|178:242|258:232,1,135,10|0,2:0|2:0,2:0:0:0:
268,232,11340,6,0,P|220:265|208:307,1,90.0000000000001,4|0,1:2|2:0,2:0:0:0:
402,334,11656,1,10,2:0:0:0:
343,154,11814,1,2,1:2:0:0:
297,358,11972,1,2,1:2:0:0:
492,312,12130,2,0,L|479:206,1,90.0000000000001,2|8,2:0|2:0,2:0:0:0:
353,64,12446,6,0,L|342:153,1,90.0000000000001,2|0,1:2|2:0,2:0:0:0:
193,270,12761,2,0,L|182:180,1,90.0000000000001,2|8,1:2|2:0,2:0:0:0:
63,41,13077,1,2,1:2:0:0:
243,113,13235,1,2,1:2:0:0:
44,236,13393,1,2,2:0:0:0:
165,46,13551,1,10,2:0:0:0:
270,195,13709,1,2,2:0:0:0:
54,146,13867,6,0,L|43:235,1,90.0000000000001,4|0,1:2|2:0,2:0:0:0:
218,325,14183,1,10,2:0:0:0:
146,177,14340,1,2,1:2:0:0:
44,345,14498,1,2,1:2:0:0:
238,216,14656,1,2,1:2:0:0:
308,378,14814,1,8,2:0:0:0:
128,305,14972,6,0,L|120:247,1,45,2|0,1:2|2:0,2:0:0:0:
353,241,15288,6,0,L|361:183,1,45,2|0,1:2|2:0,2:0:0:0:
174,87,15604,5,2,1:2:0:0:
285,283,15761,1,8,2:0:0:0:
309,48,15919,1,0,1:2:0:0:
60,127,16077,2,0,P|13:193|29:262,1,135,10|0,2:0|2:0,2:0:0:0:
36,269,16393,6,0,L|156:257,1,90.0000000000001,4|0,1:2|2:0,2:0:0:0:
275,371,16709,2,0,L|155:359,1,90.0000000000001,10|0,2:0|1:2,2:0:0:0:
170,179,17025,2,0,P|211:213|217:263,1,90.0000000000001,2|0,1:2|2:0,2:0:0:0:
88,358,17340,1,10,2:0:0:0:
122,113,17498,6,0,P|171:94|218:114,1,90.0000000000001,2|0,1:2|2:0,2:0:0:0:
292,281,17814,1,2,1:2:0:0:
408,196,17972,2,0,L|419:90,1,90.0000000000001,10|0,2:0|1:2,2:0:0:0:
278,0,18288,2,0,L|287:89,1,90.0000000000001,0|0,1:2|2:0,2:0:0:0:
152,248,18604,1,8,2:0:0:0:
327,164,18761,1,2,2:0:0:0:
320,358,18919,5,2,1:2:0:0:
239,198,19077,1,2,2:0:0:0:
140,357,19235,1,10,2:0:0:0:
348,262,19393,1,2,1:2:0:0:
155,146,19551,1,2,1:2:0:0:
230,370,19709,2,0,L|332:356,1,90.0000000000001,2|8,2:0|2:0,2:0:0:0:
123,245,20025,6,0,L|21:231,1,90.0000000000001,2|0,1:2|2:0,2:0:0:0:
210,55,20340,2,0,P|247:95|250:139,1,90.0000000000001,2|8,1:2|2:0,2:0:0:0:
348,262,20656,2,0,P|364:209|400:185,1,90.0000000000001,2|0,1:2|1:2,2:0:0:0:
477,280,20972,1,2,2:0:0:0:
283,357,21130,2,0,L|116:345,1,135,10|0,2:0|2:0,2:0:0:0:
121,329,21446,6,0,P|95:280|105:227,1,90.0000000000001,6|0,1:2|2:0,2:0:0:0:
268,139,21761,2,0,P|238:186|187:203,1,90.0000000000001,10|0,2:0|1:2,2:0:0:0:
29,106,22077,2,0,P|84:107|125:143,1,90.0000000000001,2|0,1:2|2:0,2:0:0:0:
0,268,22393,1,10,2:0:0:0:
121,329,22551,6,0,L|229:316,1,90.0000000000001,2|0,1:2|2:0,2:0:0:0:
332,209,22867,1,2,1:2:0:0:
401,308,23025,2,0,L|293:295,1,90.0000000000001,10|0,2:0|1:2,2:0:0:0:
221,127,23340,2,0,P|259:82|309:81,1,90.0000000000001,0|0,1:2|2:0,2:0:0:0:
457,168,23656,1,8,2:0:0:0:
397,13,23814,1,2,2:0:0:0:
321,199,23972,5,2,1:2:0:0:
476,68,24130,1,2,2:0:0:0:
458,268,24288,1,10,2:0:0:0:
378,128,24446,1,2,1:2:0:0:
246,304,24604,1,2,1:2:0:0:
370,271,24761,1,2,2:0:0:0:
188,190,24919,1,10,2:0:0:0:
335,382,25077,6,0,L|454:371,1,90.0000000000001,6|0,1:2|2:0,2:0:0:0:
291,218,25393,1,2,1:2:0:0:
95,293,25551,6,0,L|-24:282,1,90.0000000000001,12|2,2:0|1:2,2:0:0:0:
166,77,25867,1,12,2:0:0:0:
291,218,26025,1,2,1:2:0:0:
398,116,26183,1,8,3:2:0:0:
398,116,26261,1,8,3:2:0:0:
398,116,26340,2,0,L|390:186,1,45,8|8,3:2|3:2,2:0:0:0:
259,299,26498,6,0,P|213:262|209:202,1,90.0000000000001,6|0,1:2|2:0,2:0:0:0:
282,51,26814,2,0,P|272:109|222:142,1,90.0000000000001,10|0,2:0|1:2,2:0:0:0:
68,89,27130,1,0,1:2:0:0:
103,289,27288,2,0,L|115:172,1,90.0000000000001,2|8,2:0|2:0,2:0:0:0:
282,51,27604,2,0,L|291:140,1,90.0000000000001,2|0,1:2|2:0,2:0:0:0:
380,274,27919,5,2,1:2:0:0:
200,200,28077,1,10,2:0:0:0:
390,118,28235,1,2,1:2:0:0:
265,300,28393,1,2,1:2:0:0:
304,189,28551,1,2,2:0:0:0:
342,374,28709,1,10,2:0:0:0:
503,220,28867,6,0,P|490:158|369:126,1,180,2|2,2:0|2:0,2:0:0:0:
199,202,29340,1,10,2:0:0:0:
406,211,29498,1,2,1:2:0:0:
258,89,29656,1,2,1:2:0:0:
265,300,29814,1,2,2:0:0:0:
102,179,29972,2,0,P|126:129|176:107,1,90.0000000000001,10|2,2:0|1:2,2:0:0:0:
354,311,30288,6,0,L|245:297,1,90.0000000000001,2|2,2:0|1:2,2:0:0:0:
47,379,30604,2,0,L|156:365,1,90.0000000000001,10|2,2:0|1:2,2:0:0:0:
366,229,30919,2,0,L|175:211,1,180,2|10,1:2|2:0,2:0:0:0:
60,258,31393,1,2,2:0:0:0:
80,52,31551,6,0,L|91:159,1,90.0000000000001,6|0,1:2|2:0,2:0:0:0:
334,73,31867,2,0,P|297:41|245:42,1,90.0000000000001,10|0,2:0|1:2,2:0:0:0:
186,212,32183,2,0,P|232:195|257:150,1,90.0000000000001,2|0,1:2|2:0,2:0:0:0:
89,141,32498,1,8,2:0:0:0:
159,332,32656,6,0,L|277:317,1,90.0000000000001,2|0,1:2|2:0,2:0:0:0:
429,249,32972,2,0,L|311:234,1,90.0000000000001,2|8,1:2|2:0,2:0:0:0:
177,133,33288,1,2,1:2:0:0:
177,133,33367,1,2,2:0:0:0:
177,133,33446,1,2,1:2:0:0:
257,38,33604,1,2,2:0:0:0:
236,235,33761,1,10,2:0:0:0:
327,138,33919,1,2,2:0:0:0:
116,244,34077,6,0,P|123:314|228:364,1,180,2|8,1:2|2:0,2:0:0:0:
339,237,34551,1,2,1:2:0:0:
486,343,34709,2,0,L|280:322,1,180,2|8,1:2|2:0,2:0:0:0:
196,123,35183,6,0,P|221:66|283:51,1,90.0000000000001,4|0,1:2|2:0,2:0:0:0:
339,237,35498,2,0,P|311:181|339:124,1,90.0000000000001,8|0,2:0|1:2,2:0:0:0:
441,99,35814,2,0,L|445:138,3,30,0|0|0|8,3:2|3:2|3:2|3:2,2:0:0:0:
462,258,36130,1,0,3:2:0:0:
373,325,36288,2,0,P|307:328|257:284,1,135,0|0,3:2|2:0,2:0:0:0:
251,260,36604,6,0,L|163:252,1,69.9999999999999,6|0,3:2|2:0,2:0:0:0:
120,152,36919,2,0,L|207:144,1,69.9999999999999,2|2,3:2|3:2,2:0:0:0:
253,66,37235,2,0,B|292:49|333:71|315:79|350:91|401:72,1,140,2|10,3:2|3:2,2:0:0:0:
505,63,37709,6,0,P|470:94|463:144,1,69.9999999999999,2|0,2:0|3:2,2:0:0:0:
387,187,38025,2,0,P|422:218|429:268,1,69.9999999999999,2|0,2:0|3:2,2:0:0:0:
435,363,38340,2,0,P|394:312|316:318,1,140,2|2,3:2|2:0,2:0:0:0:
209,364,38814,2,0,P|234:332|238:300,1,69.9999999999999,10|2,3:2|2:0,2:0:0:0:
132,233,39130,6,0,L|144:326,1,69.9999999999999,2|0,3:2|2:0,2:0:0:0:
234,137,39446,2,0,L|222:230,1,69.9999999999999,2|0,3:2|3:2,2:0:0:0:
108,231,39761,2,0,L|120:324,1,69.9999999999999,2|0,3:2|2:0,2:0:0:0:
210,135,40077,2,0,L|198:228,1,69.9999999999999,10|0,3:2|2:0,2:0:0:0:
94,84,40393,6,0,P|124:28|223:22,1,140,0|0,3:2|3:2,2:0:0:0:
286,62,40867,1,0,3:2:0:0:
379,17,41025,2,0,L|389:112,1,69.9999999999999,2|0,3:2|2:0,2:0:0:0:
330,221,41340,1,10,3:2:0:0:
352,194,41419,1,8,3:2:0:0:
383,178,41498,1,8,3:2:0:0:
417,174,41577,1,8,3:2:0:0:
451,184,41656,6,0,L|439:286,1,90.0000000000001,6|0,1:2|2:0,2:0:0:0:
279,384,41972,2,0,L|268:294,1,90.0000000000001,8|0,2:0|2:0,2:0:0:0:
150,132,42288,1,8,2:0:0:0:
352,194,42446,1,0,1:2:0:0:
352,194,42761,6,0,P|404:149|379:32,1,180,6|2,1:2|1:2,2:0:0:0:
150,132,43235,2,0,L|272:117,1,90.0000000000001,10|0,2:0|2:0,2:0:0:0:
22,81,43551,1,10,2:0:0:0:
98,243,43709,1,2,1:2:0:0:
184,54,43867,2,0,P|152:96|153:146,1,90.0000000000001,10|0,2:0|1:2,2:0:0:0:
276,286,44183,6,0,P|255:237|211:213,1,90.0000000000001,6|0,1:2|2:0,2:0:0:0:
53,362,44498,2,0,L|166:371,1,90.0000000000001,10|0,2:0|1:2,2:0:0:0:
178,376,44735,1,0,1:2:0:0:
178,376,44814,1,10,2:0:0:0:
98,243,44972,1,0,1:2:0:0:
191,133,45130,1,2,3:2:0:0:
178,288,45288,1,0,3:2:0:0:
39,113,45446,5,10,3:2:0:0:
39,113,46709,6,0,B|86:82|149:107|123:123|188:148|240:118,1,200,14|8,2:0|2:0,2:0:0:0:
391,23,47183,1,2,1:2:0:0:
483,217,47340,2,0,L|348:200,1,100,10|0,2:0|1:2,2:0:0:0:
263,9,47656,1,8,2:0:0:0:
494,90,47814,1,0,1:2:0:0:
235,143,47972,6,0,L|370:126,1,100,8|0,2:0|2:0,2:0:0:0:
381,362,48288,2,0,P|328:318|326:266,1,100,10|0,2:0|2:0,2:0:0:0:
494,90,48604,1,10,2:0:0:0:
410,273,48761,1,2,1:2:0:0:
316,41,48919,2,0,L|181:24,1,100,10|0,2:0|1:2,2:0:0:0:
102,246,49235,6,0,P|131:166|261:157,1,200,6|8,1:2|2:0,2:0:0:0:
196,354,49709,1,2,2:0:0:0:
3,278,49867,2,0,L|12:155,1,100,10|0,2:0|1:2,2:0:0:0:
227,43,50183,2,0,L|234:142,1,100,10|0,2:0|1:2,2:0:0:0:
327,317,50498,6,0,P|374:364|463:359,1,150,10|0,2:0|2:0,2:0:0:0:
486,351,50814,2,0,L|493:252,1,100,8|0,2:0|2:0,2:0:0:0:
309,88,51130,1,10,2:0:0:0:
409,283,51288,1,0,1:2:0:0:
489,55,51446,2,0,L|496:154,1,100,10|0,2:0|1:2,2:0:0:0:
284,237,51761,6,0,P|233:220|203:127,1,150,14|2,2:0|2:0,2:0:0:0:
210,101,52077,1,8,2:0:0:0:
409,191,52235,1,2,2:0:0:0:
306,354,52393,2,0,L|182:367,1,100,10|0,2:0|1:2,2:0:0:0:
37,239,52709,2,0,L|161:252,1,100,10|0,2:0|1:2,2:0:0:0:
297,108,53025,6,0,P|288:54|191:17,1,150,10|2,2:0|2:0,2:0:0:0:
173,15,53340,1,8,2:0:0:0:
82,140,53498,1,2,2:0:0:0:
236,266,53656,2,0,L|361:255,1,100,10|0,2:0|1:2,2:0:0:0:
105,370,53972,2,0,L|-20:359,1,100,10|0,2:0|1:2,2:0:0:0:
199,161,54288,6,0,L|324:150,1,100,6|0,1:2|2:0,2:0:0:0:
380,339,54604,1,10,2:0:0:0:
169,261,54761,1,2,1:2:0:0:
410,150,54919,1,10,2:0:0:0:
300,384,55077,1,2,1:2:0:0:
199,161,55235,1,10,2:0:0:0:
436,55,55393,6,0,P|507:131|457:247,1,200,6|2,1:2|1:2,2:0:0:0:
245,310,55867,1,10,2:0:0:0:
410,150,56025,1,2,1:2:0:0:
437,366,56183,1,10,2:0:0:0:
281,148,56340,1,2,1:2:0:0:
206,384,56498,2,0,L|41:376,1,150,10|0,2:0|2:0,2:0:0:0:
32,350,56814,6,0,B|13:305|34:262|34:262|86:220|79:140,1,200,6|8,1:2|2:0,2:0:0:0:
222,17,57288,1,2,2:0:0:0:
348,217,57446,2,0,P|394:258|442:258,1,100,10|0,2:0|1:2,2:0:0:0:
352,61,57761,1,8,2:0:0:0:
213,243,57919,1,0,1:2:0:0:
503,175,58077,6,0,L|492:59,1,100,8|0,2:0|2:0,2:0:0:0:
268,122,58393,1,10,2:0:0:0:
426,271,58551,1,2,2:0:0:0:
241,357,58709,1,10,2:0:0:0:
419,162,58867,1,2,1:2:0:0:
170,154,59025,2,0,L|46:139,1,100,10|0,2:0|1:2,2:0:0:0:
241,357,59340,6,0,P|300:331|320:198,1,200,6|8,1:2|2:0,2:0:0:0:
100,307,59814,1,2,2:0:0:0:
201,56,59972,2,0,P|253:87|266:152,1,100,10|0,2:0|1:2,2:0:0:0:
62,179,60288,2,0,P|119:159|177:190,1,100,10|0,2:0|1:2,2:0:0:0:
215,376,60604,6,0,L|373:361,1,150,10|2,2:0|2:0,2:0:0:0:
399,360,60919,1,8,2:0:0:0:
475,182,61077,1,2,2:0:0:0:
240,240,61235,1,10,2:0:0:0:
484,311,61393,1,0,1:2:0:0:
368,83,61551,2,0,L|356:205,1,100,0|2,1:2|1:2,2:0:0:0:
302,304,61867,6,0,P|263:330|196:325,1,90.0000000000001,6|0,1:2|2:0,2:0:0:0:
194,314,62104,2,0,P|155:288|88:293,1,90.0000000000001,2|0,2:0|2:0,2:0:0:0:
81,291,62340,1,2,1:2:0:0:
8,194,62498,2,0,P|57:190|100:136,1,90.0000000000001,10|0,2:0|2:0,2:0:0:0:
189,63,62814,2,0,P|167:107|193:171,1,90.0000000000001,2|0,2:0|2:0,2:0:0:0:
197,175,63051,5,0,2:0:0:0:
197,175,63130,2,0,L|304:163,1,90.0000000000001,10|8,3:2|2:0,2:0:0:0:
312,183,63367,2,0,L|401:193,1,90.0000000000001,2|0,2:0|2:0,2:0:0:0:
430,179,63604,1,2,1:2:0:0:
494,337,63761,1,10,2:0:0:0:
315,368,63919,1,0,1:2:0:0:
438,267,64077,1,8,2:0:0:0:
312,183,64235,1,2,1:2:0:0:
413,384,64393,5,6,1:2:0:0:
512,136,64551,1,2,2:0:0:0:
314,277,64709,1,10,2:0:0:0:
259,103,64867,1,2,2:0:0:0:
118,233,65025,5,8,3:2:0:0:
96,242,65130,2,0,P|57:255|24:252,1,66.6666666666667,8|8,3:2|3:2,2:0:0:0:
217,223,65340,5,8,3:2:0:0:
209,245,65446,2,0,P|193:283|170:306,1,66.6666666666667,4|4,3:0|3:0,3:0:0:0:
307,173,65656,6,0,P|410:234|401:342,1,210,6|0,1:2|2:0,2:0:0:0:
236,355,66288,6,0,B|179:322|124:345|141:352|81:388|27:339,1,210,2|0,3:2|2:0,2:0:0:0:
98,217,66919,5,4,1:2:0:0:
98,217,68814,1,8,2:0:0:0:
154,116,68972,1,0,1:2:0:0:
198,280,69130,2,0,L|332:269,1,105,8|0,2:0|2:0,2:0:0:0:
329,279,69446,6,0,P|359:255|370:193,1,80,6|0,1:2|2:0,2:0:0:0:
270,87,69761,2,0,L|281:186,1,80,10|0,3:2|1:2,2:0:0:0:
375,106,70077,2,0,L|383:26,1,80,2|0,1:2|2:0,2:0:0:0:
467,159,70393,1,10,3:2:0:0:
467,318,70551,6,0,P|458:263|352:221,1,160,2|2,1:2|1:2,2:0:0:0:
295,319,71025,2,0,L|393:304,1,80,10|0,3:2|1:2,2:0:0:0:
219,249,71340,2,0,L|77:238,1,120,0|0,1:2|2:0,2:0:0:0:
72,248,71656,1,8,3:2:0:0:
165,114,71814,5,2,2:0:0:0:
165,114,71893,1,0,1:2:0:0:
165,114,71972,1,2,1:2:0:0:
60,30,72130,1,2,2:0:0:0:
0,169,72288,1,10,3:2:0:0:
146,26,72446,1,2,1:2:0:0:
250,140,72604,1,2,1:2:0:0:
325,77,72761,2,0,P|355:120|353:167,1,80,2|8,2:0|3:2,2:0:0:0:
254,287,73077,6,0,P|276:239|317:217,1,80,2|0,1:2|1:2,2:0:0:0:
439,309,73393,2,0,L|340:295,1,80,2|8,1:2|3:2,2:0:0:0:
219,384,73709,2,0,L|318:370,1,80,2|0,1:2|1:2,2:0:0:0:
149,306,74025,1,2,2:0:0:0:
79,374,74183,2,0,L|-20:360,1,80,10|0,3:2|2:0,2:0:0:0:
115,180,74498,6,0,P|163:187|196:234,1,80,6|0,1:2|2:0,2:0:0:0:
25,237,74814,2,0,P|7:191|31:139,1,80,10|0,3:2|1:2,2:0:0:0:
173,133,75130,2,0,P|142:171|85:176,1,80,2|0,1:2|2:0,2:0:0:0:
8,55,75446,1,10,3:2:0:0:
110,10,75604,6,0,L|217:21,1,80,2|0,1:2|1:2,2:0:0:0:
271,89,75919,1,2,1:2:0:0:
438,38,76077,2,0,L|331:49,1,80,10|0,3:2|1:2,2:0:0:0:
173,133,76393,2,0,P|202:185|278:198,1,120,0|0,1:2|2:0,2:0:0:0:
282,190,76709,1,8,3:2:0:0:
416,266,76867,5,2,2:0:0:0:
416,266,76946,1,0,1:2:0:0:
416,266,77025,1,2,1:2:0:0:
306,295,77183,1,2,2:0:0:0:
383,159,77340,1,10,3:2:0:0:
384,363,77498,1,2,1:2:0:0:
207,309,77656,1,2,1:2:0:0:
306,295,77814,1,2,2:0:0:0:
133,378,77972,1,10,3:2:0:0:
257,151,78130,6,0,L|245:249,1,80,2|0,1:2|2:0,2:0:0:0:
112,291,78446,2,0,L|102:211,1,80,2|8,1:2|3:2,2:0:0:0:
160,86,78761,1,2,1:2:0:0:
160,86,78840,1,0,1:2:0:0:
160,86,78919,1,0,1:2:0:0:
15,165,79077,1,2,1:2:0:0:
66,17,79235,1,10,3:2:0:0:
178,177,79393,1,0,1:2:0:0:
286,33,79551,6,0,P|343:54|361:98,1,90.0000000000001,6|0,1:2|2:0,2:0:0:0:
342,253,79867,2,0,P|331:193|360:155,1,90.0000000000001,10|0,2:0|1:2,2:0:0:0:
475,217,80183,1,0,1:2:0:0:
322,345,80340,2,0,L|213:332,1,90.0000000000001,2|8,2:0|2:0,2:0:0:0:
150,193,80656,2,0,L|259:180,1,90.0000000000001,2|0,1:2|2:0,2:0:0:0:
420,277,80972,5,2,1:2:0:0:
334,126,81130,1,10,2:0:0:0:
263,260,81288,1,2,1:2:0:0:
428,143,81446,1,2,1:2:0:0:
323,36,81604,1,2,2:0:0:0:
340,212,81761,1,10,2:0:0:0:
495,36,81919,6,0,B|421:28|421:28|392:48|392:48|302:32,1,180,2|2,2:0|2:0,2:0:0:0:
143,71,82393,1,10,2:0:0:0:
272,126,82551,1,2,1:2:0:0:
81,202,82709,1,2,1:2:0:0:
228,53,82867,1,2,2:0:0:0:
282,216,83025,1,10,2:0:0:0:
159,151,83183,1,2,1:2:0:0:
70,293,83340,6,0,P|17:275|-4:221,1,90.0000000000001,2|2,2:0|1:2,2:0:0:0:
183,252,83656,2,0,P|193:306|157:352,1,90.0000000000001,10|2,2:0|1:2,2:0:0:0:
55,145,83972,2,0,L|248:128,1,180,2|10,1:2|2:0,2:0:0:0:
343,194,84446,1,2,2:0:0:0:
468,48,84604,6,0,P|433:102|437:145,1,90.0000000000001,6|0,1:2|2:0,2:0:0:0:
490,299,84919,2,0,L|505:193,1,90.0000000000001,10|0,2:0|1:2,2:0:0:0:
330,104,85235,2,0,L|342:193,1,90.0000000000001,2|0,1:2|2:0,2:0:0:0:
274,312,85551,1,8,2:0:0:0:
162,204,85709,6,0,L|150:293,1,90.0000000000001,2|0,1:2|2:0,2:0:0:0:
46,379,86025,1,2,1:2:0:0:
6,213,86183,1,8,2:0:0:0:
142,378,86340,1,2,1:2:0:0:
0,303,86498,1,2,1:2:0:0:
162,204,86656,1,2,2:0:0:0:
14,125,86814,2,0,P|50:76|137:73,1,135,10|0,2:0|2:0,2:0:0:0:
147,82,87130,6,0,B|197:108|243:83|227:77|281:54|340:93,1,180,2|8,1:2|2:0,2:0:0:0:
407,177,87604,1,2,1:2:0:0:
316,333,87761,2,0,P|272:273|310:179,1,180,2|8,1:2|2:0,2:0:0:0:
512,294,88235,6,0,L|395:277,1,90.0000000000001,4|0,1:2|2:0,2:0:0:0:
226,345,88551,2,0,L|343:328,1,90.0000000000001,8|0,2:0|1:2,2:0:0:0:
180,204,88867,2,0,L|130:200,3,30,0|0|0|8,3:2|3:2|3:2|3:2,2:0:0:0:
78,281,89183,1,0,3:2:0:0:
18,133,89340,2,0,P|38:85|136:66,1,135,0|0,3:2|2:0,2:0:0:0:
132,71,89656,6,0,L|223:78,1,69.9999999999999,6|0,3:2|2:0,2:0:0:0:
344,22,89972,2,0,L|252:29,1,69.9999999999999,2|0,3:2|3:2,2:0:0:0:
237,155,90288,2,0,P|271:198|364:188,1,140,2|10,3:2|3:2,2:0:0:0:
458,157,90761,6,0,P|435:190|436:231,1,69.9999999999999,2|0,2:0|3:2,2:0:0:0:
411,331,91077,2,0,P|393:294|357:274,1,69.9999999999999,2|0,2:0|3:2,2:0:0:0:
190,356,91393,2,0,L|357:348,1,140,2|2,3:2|2:0,2:0:0:0:
320,215,91867,2,0,P|294:245|290:287,1,69.9999999999999,10|0,3:2|2:0,2:0:0:0:
163,357,92183,6,0,L|151:261,1,69.9999999999999,2|0,3:2|2:0,2:0:0:0:
32,311,92498,2,0,L|44:215,1,69.9999999999999,2|0,3:2|3:2,2:0:0:0:
179,358,92814,2,0,L|167:262,1,69.9999999999999,2|0,3:2|2:0,2:0:0:0:
48,312,93130,2,0,L|60:216,1,69.9999999999999,10|0,3:2|2:0,2:0:0:0:
167,131,93446,6,0,P|211:115|288:182,1,140,2|0,3:2|3:2,2:0:0:0:
208,205,93919,1,0,3:2:0:0:
83,121,94077,2,0,P|109:74|152:63,1,69.9999999999999,2|0,3:2|2:0,2:0:0:0:
263,20,94393,1,10,3:2:0:0:
297,21,94472,1,8,3:2:0:0:
332,23,94551,1,8,3:2:0:0:
367,25,94630,1,8,3:2:0:0:
402,27,94709,6,0,L|389:128,1,90.0000000000001,6|0,1:2|2:0,2:0:0:0:
490,221,95025,2,0,L|503:322,1,90.0000000000001,8|0,2:0|2:0,2:0:0:0:
233,328,95340,1,8,2:0:0:0:
400,190,95498,1,0,1:2:0:0:
400,190,95814,6,0,P|337:165|347:55,1,180,6|2,1:2|1:2,2:0:0:0:
497,162,96288,1,10,2:0:0:0:
371,285,96446,1,2,2:0:0:0:
481,372,96604,2,0,P|504:332|498:280,1,90.0000000000001,10|0,2:0|1:2,2:0:0:0:
284,247,96919,1,10,2:0:0:0:
393,371,97077,1,0,1:2:0:0:
178,383,97235,6,0,L|168:288,1,90.0000000000001,6|0,1:2|2:0,2:0:0:0:
300,98,97551,2,0,P|346:130|354:178,1,90.0000000000001,10|0,2:0|1:2,2:0:0:0:
357,196,97788,1,0,1:2:0:0:
357,196,97867,1,10,2:0:0:0:
207,125,98025,1,0,1:2:0:0:
95,238,98183,1,2,3:2:0:0:
267,194,98340,1,0,3:2:0:0:
78,66,98498,5,10,3:2:0:0:
78,66,99761,6,0,B|38:113|50:168|50:168|88:201|81:277,1,200,14|8,2:0|2:0,2:0:0:0:
191,361,100235,1,2,1:2:0:0:
365,248,100393,2,0,L|251:235,1,100,10|0,2:0|1:2,2:0:0:0:
195,6,100709,1,8,2:0:0:0:
361,139,100867,1,0,1:2:0:0:
172,219,101025,6,0,P|193:172|273:151,1,100,8|0,2:0|2:0,2:0:0:0:
452,157,101340,2,0,P|400:162|342:103,1,100,10|0,2:0|2:0,2:0:0:0:
195,6,101656,1,10,2:0:0:0:
428,55,101814,1,2,1:2:0:0:
265,236,101972,2,0,L|253:354,1,100,10|0,2:0|1:2,2:0:0:0:
15,203,102288,6,0,P|46:116|164:107,1,200,6|8,1:2|2:0,2:0:0:0:
265,236,102761,1,2,2:0:0:0:
79,378,102919,2,0,L|68:278,1,100,10|0,2:0|1:2,2:0:0:0:
275,136,103235,2,0,L|264:235,1,100,10|0,2:0|1:2,2:0:0:0:
473,331,103551,6,0,P|456:280|395:254,1,100,10|0,2:0|2:0,2:0:0:0:
188,347,103867,1,8,2:0:0:0:
393,336,104025,1,0,2:0:0:0:
275,136,104183,2,0,L|156:128,1,100,10|0,2:0|1:2,2:0:0:0:
68,278,104498,2,0,L|179:266,1,100,10|0,2:0|1:2,2:0:0:0:
353,102,104814,6,0,B|321:58|321:58|196:48,1,150,14|2,2:0|2:0,2:0:0:0:
190,47,105130,1,8,2:0:0:0:
348,186,105288,1,2,2:0:0:0:
467,61,105446,2,0,P|435:109|435:164,1,100,10|0,2:0|1:2,2:0:0:0:
487,316,105761,2,0,P|461:264|413:236,1,100,10|0,2:0|1:2,2:0:0:0:
217,176,106077,5,10,2:0:0:0:
276,379,106235,2,0,L|408:367,1,100,0|8,2:0|2:0,2:0:0:0:
282,231,106551,1,2,2:0:0:0:
139,302,106709,2,0,L|7:290,1,100,10|0,2:0|1:2,2:0:0:0:
300,150,107025,2,0,L|432:138,1,100,10|0,2:0|1:2,2:0:0:0:
175,384,107340,6,0,L|43:372,1,100,6|0,1:2|2:0,2:0:0:0:
156,142,107656,1,10,2:0:0:0:
258,322,107814,1,2,1:2:0:0:
56,204,107972,1,10,2:0:0:0:
260,74,108130,1,2,1:2:0:0:
139,302,108288,1,10,2:0:0:0:
0,39,108446,6,0,B|49:69|109:36|81:27|143:5|200:39,1,200,6|2,1:2|1:2,2:0:0:0:
288,210,108919,1,10,2:0:0:0:
390,29,109077,1,2,1:2:0:0:
198,153,109235,1,10,2:0:0:0:
377,260,109393,1,2,1:2:0:0:
305,54,109551,2,0,P|347:113|444:99,1,150,10|0,2:0|2:0,2:0:0:0:
454,108,109867,6,0,L|465:325,1,200,6|8,1:2|2:0,2:0:0:0:
288,210,110340,1,2,2:0:0:0:
189,339,110498,2,0,P|242:370|293:355,1,100,10|0,2:0|1:2,2:0:0:0:
169,167,110814,1,8,2:0:0:0:
65,362,110972,1,0,1:2:0:0:
0,126,111130,6,0,L|117:112,1,100,8|0,2:0|2:0,2:0:0:0:
242,296,111446,1,10,2:0:0:0:
67,207,111604,1,2,2:0:0:0:
246,87,111761,1,10,2:0:0:0:
114,294,111919,1,2,1:2:0:0:
120,24,112077,2,0,L|135:143,1,100,10|0,2:0|1:2,2:0:0:0:
186,365,112393,6,0,P|244:387|329:286,1,200,6|8,1:2|2:0,2:0:0:0:
353,117,112867,1,2,2:0:0:0:
184,200,113025,2,0,P|233:226|296:204,1,100,10|0,2:0|1:2,2:0:0:0:
414,47,113340,2,0,P|366:76|354:141,1,100,10|0,2:0|1:2,2:0:0:0:
473,347,113656,6,0,L|461:193,1,150,10|2,2:0|2:0,2:0:0:0:
459,162,113972,1,8,2:0:0:0:
273,264,114130,1,2,2:0:0:0:
373,384,114288,1,10,2:0:0:0:
384,188,114446,1,0,1:2:0:0:
246,381,114604,2,0,L|138:370,1,100,0|2,1:2|1:2,2:0:0:0:
50,306,114919,6,0,P|28:264|33:217,1,90.0000000000001,6|0,1:2|2:0,2:0:0:0:
58,206,115156,2,0,P|80:164|75:117,1,90.0000000000001,2|0,2:0|2:0,2:0:0:0:
57,98,115393,1,0,1:2:0:0:
159,30,115551,2,0,P|156:74|178:113,1,90.0000000000001,10|0,2:0|2:0,2:0:0:0:
350,73,115867,2,0,P|312:48|268:47,1,90.0000000000001,2|0,2:0|2:0,2:0:0:0:
257,80,116104,5,0,2:0:0:0:
257,80,116183,2,0,L|268:189,1,90.0000000000001,10|8,3:2|2:0,2:0:0:0:
287,192,116419,2,0,L|276:301,1,90.0000000000001,2|0,2:0|2:0,2:0:0:0:
253,302,116656,1,2,1:2:0:0:
131,227,116814,1,10,2:0:0:0:
11,374,116972,1,0,1:2:0:0:
160,311,117130,1,8,2:0:0:0:
57,178,117288,1,2,1:2:0:0:
105,384,117446,5,6,1:2:0:0:
213,185,117604,1,2,2:0:0:0:
365,342,117761,1,10,2:0:0:0:
131,227,117919,1,2,2:0:0:0:
293,147,118077,5,8,3:3:0:0:
313,157,118183,2,0,P|348:178|366:205,1,66.6666666666667,8|8,3:3|3:3,3:3:0:0:
265,263,118393,5,8,3:3:0:0:
245,273,118498,2,0,P|209:294|191:321,1,66.6666666666667,4|4,3:3|3:3,3:3:0:0:
346,360,118709,6,0,B|398:322|458:333|458:333|418:292|425:231,1,210,6|0,1:2|2:0,2:0:0:0:
472,93,119340,6,0,P|400:176|305:150,1,210,2|0,3:2|2:0,2:0:0:0:
187,45,119972,6,0,B|214:79|214:79|184:117|194:178,1,120,6|0,1:2|2:0,2:0:0:0:
210,176,120288,2,0,L|221:274,1,80,8|0,2:0|2:0,2:0:0:0:
121,213,120604,2,0,L|110:311,1,80,0|0,2:0|2:0,2:0:0:0:
49,155,120919,1,8,2:0:0:0:
0,230,121077,1,2,1:2:0:0:
88,375,121235,6,0,P|145:377|189:304,1,120,2|0,1:2|2:0,2:0:0:0:
194,302,121551,2,0,L|290:291,1,80,8|0,2:0|2:0,2:0:0:0:
332,206,121867,2,0,L|236:195,1,80,0|0,2:0|2:0,2:0:0:0:
376,295,122183,1,8,2:0:0:0:
434,214,122340,1,2,1:2:0:0:
511,371,122498,6,0,L|431:380,1,80,2|0,1:2|2:0,2:0:0:0:
434,214,122814,1,8,2:0:0:0:
506,277,122972,1,2,1:2:0:0:
296,285,123130,6,0,L|375:294,1,80,2|0,1:2|2:0,2:0:0:0:
376,129,123446,1,8,2:0:0:0:
301,191,123604,1,2,1:2:0:0:
484,124,123761,6,0,P|482:89|438:39,1,80,6|0,1:2|2:0,2:0:0:0:
272,14,124077,2,0,P|311:11|347:27,1,80,2|0,1:2|2:0,2:0:0:0:
384,272,124393,2,0,P|413:252|434:189,1,80,2|0,1:2|2:0,2:0:0:0:
190,87,124709,2,0,P|133:137|145:236,1,160,2|0,1:2|2:0,2:0:0:0:
132,216,125656,6,0,B|177:190|229:220|208:225|257:249|320:211,1,180,6|8,1:2|2:0,2:0:0:0:
421,18,126129,2,0,P|365:71|394:182,1,180,2|0,1:2|2:0,2:0:0:0:
492,360,126603,6,0,P|474:285|363:254,1,180,10|0,2:0|2:0,2:0:0:0:
215,354,127077,2,0,L|408:341,1,180,2|0,1:2|1:2,2:0:0:0:
211,164,127550,1,2,1:2:0:0:
99,261,127708,1,2,2:0:0:0:
33,71,127866,2,0,L|148:79,1,90.0000000000001,10|0,2:0|2:0,2:0:0:0:
293,24,128182,5,2,1:2:0:0:
425,123,128340,2,0,L|310:131,1,90.0000000000001,2|8,2:0|2:0,2:0:0:0:
196,249,128656,2,0,P|235:291|298:292,1,90.0000000000001,2|0,1:2|1:2,2:0:0:0:
456,228,128971,2,0,P|400:240|367:294,1,90.0000000000001,2|8,2:0|2:0,2:0:0:0:
243,384,129287,6,0,L|40:371,1,180,2|2,1:2|1:2,2:0:0:0:
25,191,129761,1,10,2:0:0:0:
196,249,129919,1,2,1:2:0:0:
203,30,130077,2,0,P|156:59|148:153,1,135,2|0,1:2|2:0,2:0:0:0:
169,153,130392,2,0,L|271:144,1,90.0000000000001,10|0,2:0|2:0,2:0:0:0:
392,46,130708,5,0,1:2:0:0:
325,219,130866,1,0,2:0:0:0:
298,0,131024,1,10,2:0:0:0:
440,177,131182,1,2,1:2:0:0:
490,26,131340,1,2,1:2:0:0:
315,129,131498,2,0,L|327:242,1,90.0000000000001,2|8,2:0|2:0,2:0:0:0:
450,350,131813,6,0,L|459:260,1,90.0000000000001,2|0,1:2|2:0,2:0:0:0:
240,211,132129,2,0,L|249:300,1,90.0000000000001,2|8,1:2|2:0,2:0:0:0:
101,371,132445,1,2,1:2:0:0:
30,212,132603,1,2,1:2:0:0:
169,313,132761,1,2,2:0:0:0:
214,112,132919,1,10,3:2:0:0:
214,112,133234,6,0,P|189:44|61:38,1,180,6|10,1:2|2:0,2:0:0:0:
133,183,133708,1,2,2:0:0:0:
325,153,133866,6,0,P|350:85|478:79,1,180,6|10,1:2|2:0,2:0:0:0:
406,224,134340,1,2,2:0:0:0:
194,316,134498,5,6,1:2:0:0:
128,98,134656,1,0,1:2:0:0:
334,329,134813,1,14,2:0:0:0:
50,284,134971,1,0,1:2:0:0:
314,63,135129,2,0,L|328:180,1,90.0000000000001,14|2,2:0|2:0,2:0:0:0:
486,350,135445,1,10,2:0:0:0:
490,305,135524,1,8,2:0:0:0:
495,260,135603,1,8,2:0:0:0:
499,215,135682,1,8,2:0:0:0:
504,170,135761,6,0,P|509:91|391:30,1,200,14|8,2:0|2:0,2:0:0:0:
214,99,136234,1,2,1:2:0:0:
404,220,136392,2,0,L|390:337,1,100,10|0,2:0|1:2,2:0:0:0:
130,288,136708,1,8,2:0:0:0:
324,152,136866,1,0,1:2:0:0:
132,31,137024,6,0,P|100:97|124:150,1,100,8|0,2:0|2:0,2:0:0:0:
331,48,137340,2,0,P|259:65|234:118,1,100,10|0,2:0|2:0,2:0:0:0:
275,286,137656,1,10,2:0:0:0:
419,107,137813,1,2,1:2:0:0:
175,212,137971,2,0,L|52:200,1,100,10|0,2:0|1:2,2:0:0:0:
305,384,138287,6,0,B|335:358|371:352|371:352|434:392|500:367,1,200,6|8,1:2|2:0,2:0:0:0:
282,169,138761,1,2,2:0:0:0:
509,71,138919,2,0,L|498:192,1,100,10|0,2:0|1:2,2:0:0:0:
291,268,139234,2,0,L|281:168,1,100,10|0,2:0|1:2,2:0:0:0:
146,15,139550,6,0,P|81:40|66:136,1,150,10|0,2:0|2:0,2:0:0:0:
78,147,139866,2,0,L|177:137,1,100,8|0,2:0|2:0,2:0:0:0:
117,366,140182,1,10,2:0:0:0:
0,207,140340,1,0,1:2:0:0:
218,311,140498,2,0,P|266:347|323:337,1,100,10|0,2:0|1:2,2:0:0:0:
472,274,140813,6,0,L|457:99,1,150,14|2,2:0|2:0,2:0:0:0:
454,84,141129,1,8,2:0:0:0:
281,260,141287,1,2,2:0:0:0:
200,33,141445,2,0,L|299:42,1,100,10|0,2:0|1:2,2:0:0:0:
380,250,141761,2,0,L|280:259,1,100,10|0,2:0|1:2,2:0:0:0:
108,77,142077,5,10,2:0:0:0:
24,321,142234,2,0,L|124:330,1,100,0|8,2:0|2:0,2:0:0:0:
234,141,142550,1,2,2:0:0:0:
332,328,142708,2,0,P|371:296|378:240,1,100,10|0,2:0|1:2,2:0:0:0:
243,41,143024,2,0,L|232:155,1,100,10|0,2:0|1:2,2:0:0:0:
479,222,143340,6,0,L|469:122,1,100,6|0,1:2|2:0,2:0:0:0:
240,271,143656,1,10,2:0:0:0:
462,346,143813,1,2,1:2:0:0:
333,148,143971,1,10,2:0:0:0:
219,369,144129,1,2,1:2:0:0:
390,221,144287,1,10,2:0:0:0:
197,78,144445,6,0,B|108:36|54:84|54:84|83:84|118:110,1,200,6|2,1:2|1:2,2:0:0:0:
252,269,144919,1,10,2:0:0:0:
44,346,145077,1,2,1:2:0:0:
173,161,145234,1,10,2:0:0:0:
317,343,145392,1,2,1:2:0:0:
37,241,145550,2,0,L|22:64,1,150,10|0,2:0|2:0,2:0:0:0:
6,55,145866,6,0,P|88:18|177:94,1,200,6|8,1:2|2:0,2:0:0:0:
207,272,146340,1,2,2:0:0:0:
393,128,146498,2,0,L|261:113,1,100,10|0,2:0|1:2,2:0:0:0:
113,311,146813,1,8,2:0:0:0:
332,222,146971,1,0,1:2:0:0:
88,171,147129,6,0,L|220:156,1,100,8|0,2:0|2:0,2:0:0:0:
302,338,147445,1,10,2:0:0:0:
393,128,147603,1,2,2:0:0:0:
484,288,147761,1,10,2:0:0:0:
225,253,147919,1,2,1:2:0:0:
481,122,148077,2,0,P|469:174|410:209,1,100,10|0,2:0|1:2,2:0:0:0:
223,76,148392,6,0,P|184:22|38:52,1,200,6|8,1:2|2:0,2:0:0:0:
291,164,148866,1,2,2:0:0:0:
125,290,149024,2,0,L|113:174,1,100,10|0,2:0|1:2,2:0:0:0:
341,263,149340,2,0,L|330:362,1,100,10|0,2:0|1:2,2:0:0:0:
198,135,149656,6,0,P|223:84|337:79,1,150,10|2,2:0|2:0,2:0:0:0:
344,79,149971,1,8,2:0:0:0:
468,231,150129,1,2,2:0:0:0:
226,252,150287,1,10,2:0:0:0:
433,125,150445,1,0,1:2:0:0:
467,339,150603,2,0,L|333:327,1,100,0|2,1:2|1:2,2:0:0:0:
226,252,150919,6,0,L|126:260,1,90.0000000000001,6|0,1:2|2:0,2:0:0:0:
104,277,151156,2,0,P|81:229|92:172,1,90.0000000000001,2|0,2:0|2:0,2:0:0:0:
108,167,151392,1,2,1:2:0:0:
188,104,151550,2,0,P|211:56|200:-1,1,90.0000000000001,10|0,2:0|2:0,2:0:0:0:
273,149,151866,2,0,P|303:192|357:211,1,90.0000000000001,2|0,2:0|2:0,2:0:0:0:
369,232,152103,5,0,2:0:0:0:
369,232,152182,2,0,L|377:142,1,90.0000000000001,10|8,3:2|2:0,2:0:0:0:
352,116,152419,2,0,L|343:26,1,90.0000000000001,2|0,2:0|2:0,2:0:0:0:
372,3,152656,1,2,1:2:0:0:
461,182,152813,1,10,2:0:0:0:
512,71,152971,1,0,1:2:0:0:
369,232,153129,1,8,2:0:0:0:
460,293,153287,1,2,1:2:0:0:
259,354,153445,5,6,1:2:0:0:
352,116,153603,1,2,2:0:0:0:
399,381,153761,1,6,1:2:0:0:
153,283,153919,2,0,L|135:156,1,100,2|4,2:0|1:2,2:0:0:0:
474,54,154234,2,0,L|458:159,1,100,2|12,1:2|2:0,2:0:0:0:
341,313,154550,1,2,2:0:0:0:
226,112,154708,5,2,3:2:0:0:
367,227,154866,1,0,3:2:0:0:
176,364,155024,1,2,3:2:0:0:
301,165,155182,1,0,3:2:0:0:
151,52,155340,1,10,3:2:0:0:
124,30,155419,1,8,3:2:0:0:
92,18,155498,1,8,3:2:0:0:
59,19,155577,1,8,3:2:0:0:
28,32,155656,2,0,L|45:183,1,150,14|0,3:2|2:0,2:0:0:0:
26,215,155971,6,0,P|66:277|188:256,1,200,6|8,1:2|2:0,2:0:0:0:
288,89,156445,1,2,2:0:0:0:
394,297,156603,2,0,L|410:173,1,100,10|0,2:0|1:2,2:0:0:0:
139,119,156919,1,8,2:0:0:0:
269,312,157077,1,0,1:2:0:0:
479,157,157234,6,0,P|441:120|379:123,1,100,8|0,2:0|2:0,2:0:0:0:
145,217,157550,2,0,P|196:202|224:147,1,100,10|0,2:0|2:0,2:0:0:0:
17,161,157866,1,10,2:0:0:0:
144,347,158024,1,2,1:2:0:0:
218,73,158182,2,0,L|338:62,1,100,10|0,2:0|1:2,2:0:0:0:
487,283,158498,6,0,B|438:253|376:275|404:284|344:317|295:287,1,200,6|8,1:2|2:0,2:0:0:0:
135,120,158971,1,2,2:0:0:0:
44,337,159129,2,0,L|143:346,1,100,10|0,2:0|1:2,2:0:0:0:
319,155,159445,2,0,L|219:164,1,100,10|0,2:0|1:2,2:0:0:0:
396,337,159761,6,0,P|468:307|481:217,1,150,10|0,2:0|2:0,2:0:0:0:
463,210,160077,2,0,L|453:84,1,100,8|0,2:0|2:0,2:0:0:0:
323,262,160392,1,10,2:0:0:0:
225,68,160550,1,0,1:2:0:0:
97,186,160708,2,0,L|89:285,1,100,10|0,2:0|2:0,2:0:0:0:
306,345,161024,6,0,L|290:180,1,150,6|2,1:2|2:0,2:0:0:0:
307,158,161340,1,8,2:0:0:0:
452,294,161498,1,2,2:0:0:0:
222,381,161656,2,0,P|195:332|209:272,1,100,10|0,2:0|1:2,2:0:0:0:
405,186,161971,2,0,P|376:233|317:251,1,100,10|0,2:0|1:2,2:0:0:0:
178,72,162287,5,10,2:0:0:0:
388,0,162445,2,0,L|375:106,1,100,0|8,2:0|2:0,2:0:0:0:
207,222,162761,1,2,2:0:0:0:
72,61,162919,2,0,L|85:167,1,100,10|0,2:0|1:2,2:0:0:0:
288,276,163234,2,0,L|300:176,1,100,10|0,2:0|1:2,2:0:0:0:
0,143,163550,6,0,L|13:249,1,100,6|0,1:2|2:0,2:0:0:0:
242,353,163866,1,10,2:0:0:0:
174,141,164024,1,2,1:2:0:0:
43,344,164182,1,10,2:0:0:0:
288,276,164340,1,2,1:2:0:0:
88,159,164498,1,10,2:0:0:0:
267,377,164656,6,0,B|334:357|403:367|403:367|382:346|374:294,1,200,6|2,1:2|1:2,2:0:0:0:
438,98,165129,1,14,2:0:0:0:
512,315,165287,1,2,1:2:0:0:
260,176,165445,1,10,2:0:0:0:
447,253,165603,1,2,1:2:0:0:
196,316,165761,2,0,L|10:302,1,150,2|0,1:2|2:0,2:0:0:0:
18,275,166077,6,0,P|27:187|145:149,1,200,6|8,1:2|2:0,2:0:0:0:
269,276,166550,1,2,2:0:0:0:
383,75,166708,2,0,L|368:202,1,100,10|0,2:0|1:2,2:0:0:0:
121,246,167024,1,8,2:0:0:0:
232,41,167182,1,0,1:2:0:0:
363,259,167340,6,0,L|378:386,1,100,8|0,2:0|2:0,2:0:0:0:
53,311,167656,2,0,P|98:253|141:244,1,100,10|0,2:0|2:0,2:0:0:0:
290,384,167971,1,10,2:0:0:0:
371,174,168129,1,0,1:2:0:0:
197,384,168287,2,0,L|68:376,1,100,10|0,2:0|1:2,2:0:0:0:
7,136,168603,6,0,B|16:103|54:89|54:89|110:135|196:115,1,200,6|8,1:2|2:0,2:0:0:0:
331,33,169077,1,2,2:0:0:0:
481,202,169234,2,0,P|477:131|440:95,1,100,10|0,2:0|1:2,2:0:0:0:
296,266,169550,2,0,P|359:298|409:283,1,100,10|0,2:0|1:2,2:0:0:0:
230,39,169866,6,0,L|103:31,1,100,10|2,2:0|2:0,2:0:0:0:
93,32,170103,1,2,2:0:0:0:
93,32,170182,1,8,2:0:0:0:
247,155,170340,1,2,2:0:0:0:
56,253,170498,1,10,2:0:0:0:
129,138,170656,1,0,3:2:0:0:
193,331,170813,1,0,3:2:0:0:
181,212,170971,1,2,2:0:0:0:
75,362,171129,6,0,L|193:352,1,90.0000000000001,6|0,1:2|2:0,2:0:0:0:
193,331,171366,2,0,L|292:339,1,90.0000000000001,2|0,2:0|2:0,2:0:0:0:
309,363,171603,1,2,1:2:0:0:
393,276,171761,2,0,P|422:233|413:174,1,90.0000000000001,10|0,2:0|2:0,2:0:0:0:
274,113,172077,2,0,P|276:157|303:192,1,90.0000000000001,2|0,2:0|2:0,2:0:0:0:
339,212,172313,5,0,2:0:0:0:
339,212,172392,2,0,L|239:220,1,90.0000000000001,2|0,1:2|1:2,2:0:0:0:
221,242,172629,2,0,L|131:234,1,90.0000000000001,2|0,2:0|2:0,2:0:0:0:
105,208,172866,1,2,1:2:0:0:
5,376,173024,1,10,2:0:0:0:
156,340,173182,1,0,1:2:0:0:
10,212,173340,1,10,2:0:0:0:
165,136,173498,1,2,2:0:0:0:
87,377,173656,5,6,1:2:0:0:
17,125,173813,1,2,2:0:0:0:
221,242,173971,1,10,2:0:0:0:
0,295,174129,1,2,2:0:0:0:
255,155,174287,5,8,3:0:0:0:
275,165,174392,2,0,P|310:186|328:213,1,66.6666666666667,8|8,3:0|3:0,3:0:0:0:
391,356,174603,5,8,3:0:0:0:
389,333,174708,2,0,P|389:292|404:263,1,66.6666666666667,4|4,3:0|3:0,3:0:0:0:
512,151,174919,6,0,P|481:93|349:80,1,210,6|0,1:2|2:0,2:0:0:0:
188,198,175550,6,0,L|411:182,1,210,2|0,3:2|2:0,2:0:0:0:
180,1,176182,5,4,1:2:0:0:
