osu file format v14

[General]
AudioFilename: audio.mp3
AudioLeadIn: 0
PreviewTime: 134735
Countdown: 0
SampleSet: Soft
StackLeniency: 0.2
Mode: 0
LetterboxInBreaks: 0
WidescreenStoryboard: 1

[Editor]
Bookmarks: 173971
DistanceSpacing: 1
BeatDivisor: 3
GridSize: 4
TimelineZoom: 5.099997

[Metadata]
Title:Happy End no Intro ga Kikoeru feat. Panaman
TitleUnicode:ハッピーエンドのイントロが聴こえる feat. ぱなまん
Artist:TOKOTOKO (NishizawasanP)
ArtistUnicode:TOKOTOKO(西沢さんP)
Creator:Nevo
Version:Battle's Extra
Source:
Tags:astronic airincat battle glaceon Mononymous japanese rock jrock j-rock zawaso
BeatmapID:2768076
BeatmapSetID:1327813

[Difficulty]
HPDrainRate:5
CircleSize:4
OverallDifficulty:8.3
ApproachRate:9.1
SliderMultiplier:1.8
SliderTickRate:1

[Events]
//Background and Video events
0,0,"battle_bg.jpg",0,0
//Break Periods
2,67119,68861
//Storyboard Layer 0 (Background)
//Storyboard Layer 1 (Fail)
//Storyboard Layer 2 (Pass)
//Storyboard Layer 3 (Foreground)
//Storyboard Layer 4 (Overlay)
//Storyboard Sound Samples

[TimingPoints]
-3817,315.789473684211,4,2,22,60,1,0
1235,-133.333333333333,4,2,22,60,0,0
6288,-100,4,2,22,80,0,0
11261,-100,4,2,22,5,0,0
11340,-100,4,2,22,60,0,0
16393,-100,4,2,22,80,0,0
16708,-100,4,2,22,60,0,0
25313,-100,4,2,22,5,0,0
25393,-100,4,2,22,60,0,0
26498,-66.6666666666667,4,2,22,60,0,0
28393,-100,4,2,22,60,0,0
31551,-83.3333333333333,4,2,22,60,0,0
31867,-66.6666666666667,4,2,22,60,0,0
34077,-100,4,2,22,60,0,0
36604,-117.647058823529,4,2,22,50,0,0
41340,-117.647058823529,4,2,22,55,0,0
41656,-117.647058823529,4,2,22,60,0,0
42446,-133.333333333333,4,2,22,60,0,0
42761,-100,4,2,22,60,0,0
46709,-76.9230769230769,4,2,22,80,0,0
47025,-76.9230769230769,4,2,22,80,0,1
47340,-83.3333333333333,4,2,22,80,0,1
55629,-83.3333333333333,4,2,22,5,0,1
55709,-83.3333333333333,4,2,22,80,0,1
61867,-100,4,2,22,70,0,0
65656,-166.666666666667,4,2,22,70,0,0
66288,-100,4,2,22,70,0,0
69446,-117.647058823529,4,2,22,50,0,0
78130,-100,4,2,22,50,0,0
78761,-100,4,2,22,60,0,0
79551,-66.6666666666667,4,2,22,60,0,0
81130,-100,4,2,22,60,0,0
84919,-66.6666666666667,4,2,22,60,0,0
85709,-100,4,2,22,60,0,0
87761,-133.333333333333,4,2,22,60,0,0
89656,-117.647058823529,4,2,22,50,0,0
94077,-105.263157894737,4,2,22,50,0,0
94393,-105.263157894737,4,2,22,55,0,0
94709,-105.263157894737,4,2,22,60,0,0
95498,-133.333333333333,4,2,22,60,0,0
95814,-100,4,2,22,60,0,0
99761,-83.3333333333333,4,2,22,80,0,1
108682,-83.3333333333333,4,2,22,5,0,1
108761,-83.3333333333333,4,2,22,80,0,1
114919,-100,4,2,22,70,0,0
118709,-166.666666666667,4,2,22,70,0,0
119340,-100,4,2,22,70,0,0
125656,315.789473684211,4,2,22,70,1,1
125656,-71.4285714285714,4,2,22,70,0,1
125971,-71.4285714285714,4,2,22,65,0,1
126129,-83.3333333333333,4,2,22,65,0,1
130392,-58.8235294117647,4,2,22,65,0,1
130708,-83.3333333333333,4,2,22,65,0,1
132919,-83.3333333333333,4,2,22,65,0,0
133234,-83.3333333333333,4,2,22,75,0,1
133392,-83.3333333333333,4,2,22,75,0,0
133866,-71.4285714285714,4,2,22,75,0,1
134024,-71.4285714285714,4,2,22,75,0,0
134498,-62.5,4,2,22,75,0,1
134656,-62.5,4,2,22,75,0,0
135761,-76.9230769230769,4,2,22,80,0,1
144681,-76.9230769230769,4,2,22,5,0,1
144761,-76.9230769230769,4,2,22,80,0,1
145866,-71.4285714285714,4,2,22,80,0,1
150919,-100,4,2,22,70,0,0
153445,-100,4,2,22,80,0,0
155971,-76.9230769230769,4,2,22,80,0,1
164892,-76.9230769230769,4,2,22,5,0,1
164971,-76.9230769230769,4,2,22,80,0,1
171129,-83.3333333333333,4,2,22,70,0,0
174919,-133.333333333333,4,2,22,70,0,0
176182,-133.333333333333,4,2,22,60,0,0

[Colours]
Combo1 : 243,77,35
Combo2 : 255,100,100
Combo3 : 66,137,255
Combo4 : 41,231,226

[HitObjects]
32,317,446,5,8,2:0:0:0:
32,317,525,1,8,2:0:0:0:
32,317,604,1,8,1:2:0:0:
91,230,761,1,0,1:2:0:0:
195,272,919,1,0,1:2:0:0:
188,383,1077,1,0,1:2:0:0:
184,166,1235,6,0,B|251:152|225:115|315:107,1,135,10|0,1:2|1:2,2:0:0:0:
77,54,1709,1,2,1:2:0:0:
77,54,1867,2,0,P|87:104|90:131,2,67.5000000000002,2|0|0,1:2|2:0|1:0,2:0:0:0:
184,166,2340,2,0,P|163:237|166:261,1,67.5000000000002,2|0,1:2|1:0,2:0:0:0:
0,192,2656,2,0,P|35:240|40:277,1,67.5000000000002,2|0,1:2|1:0,2:0:0:0:
53,365,2972,1,2,1:2:0:0:
53,365,3130,2,0,P|127:330|195:356,1,135,2|2,1:2|1:2,2:0:0:0:
283,286,3604,1,0,1:2:0:0:
398,323,3761,6,0,P|468:293|496:228,1,135,6|0,1:2|1:0,2:0:0:0:
293,192,4235,1,2,1:2:0:0:
412,151,4393,2,0,P|394:205|393:232,2,67.5000000000002,2|0|0,1:2|1:0|1:0,2:0:0:0:
291,7,4867,2,0,P|317:60|318:87,1,67.5000000000002,2|0,1:2|2:0,2:0:0:0:
198,221,5183,2,0,P|201:166|219:147,1,67.5000000000002,2|0,1:2|2:0,2:0:0:0:
179,27,5498,1,2,1:2:0:0:
83,117,5656,1,10,3:2:0:0:
317,67,5814,1,10,3:2:0:0:
83,117,6288,6,0,P|76:40|26:10,1,135,6|0,1:2|2:0,2:0:0:0:
31,11,6604,1,10,2:0:0:0:
98,330,6761,1,2,1:2:0:0:
9,276,6919,2,0,P|49:231|96:227,2,90,2|2|8,1:2|2:0|2:0,2:0:0:0:
179,157,7393,6,0,P|246:193|276:188,1,90,2|0,1:2|2:0,2:0:0:0:
323,15,7709,2,0,P|275:47|257:93,1,90,2|8,1:2|2:0,2:0:0:0:
465,159,8025,1,2,1:2:0:0:
355,111,8183,2,0,P|366:170|371:211,1,90,2|2,1:2|2:0,2:0:0:0:
466,285,8498,2,0,P|459:329|451:373,1,90,10|2,2:0|2:0,2:0:0:0:
320,299,8814,5,0,1:2:0:0:
320,299,9130,1,10,2:0:0:0:
480,179,9288,1,2,1:2:0:0:
248,240,9446,2,0,P|217:300|224:336,2,90,2|2|8,1:2|2:0|2:0,2:0:0:0:
325,43,9919,1,2,1:2:0:0:
396,119,10077,6,0,P|338:153|293:146,1,90,0|2,2:0|1:2,2:0:0:0:
201,114,10393,1,8,2:0:0:0:
113,196,10551,1,2,1:2:0:0:
22,128,10709,2,0,P|-3:79|6:31,1,90,2|0,1:2|2:0,2:0:0:0:
223,221,11025,2,0,P|173:287|176:363,1,135,10|0,2:0|2:0,2:0:0:0:
310,384,11340,6,0,P|277:314|236:298,1,90,4|0,1:2|2:0,2:0:0:0:
63,275,11656,1,10,2:0:0:0:
223,221,11814,1,2,1:2:0:0:
113,175,11972,1,2,1:2:0:0:
166,384,12130,2,0,P|176:315|158:271,1,90,2|8,2:0|2:0,2:0:0:0:
113,175,12446,1,2,1:2:0:0:
246,112,12604,6,0,P|297:58|304:36,2,90,2|2|8,2:0|1:2|2:0,2:0:0:0:
113,175,13077,1,2,1:2:0:0:
105,0,13235,2,0,P|146:43|153:85,1,90,2|2,1:2|2:0,2:0:0:0:
30,264,13551,1,10,2:0:0:0:
113,175,13709,1,2,2:0:0:0:
211,265,13867,5,4,1:2:0:0:
211,265,14025,1,0,2:0:0:0:
11,161,14183,1,10,2:0:0:0:
116,336,14340,1,2,1:2:0:0:
243,152,14498,1,2,1:2:0:0:
117,227,14656,1,2,1:2:0:0:
316,322,14814,1,8,2:0:0:0:
136,56,14972,6,0,L|151:119,1,45,2|0,1:2|2:0,2:0:0:0:
271,140,15288,2,0,L|256:203,1,45,2|0,1:2|2:0,2:0:0:0:
403,216,15604,1,2,1:2:0:0:
136,56,15761,1,8,2:0:0:0:
271,140,15919,1,0,1:2:0:0:
436,52,16077,2,0,P|398:15|343:13,1,90,10|0,2:0|1:0,2:0:0:0:
113,197,16393,6,0,P|219:187|276:130,1,180,4|10,1:2|2:0,2:0:0:0:
165,101,16867,1,0,1:2:0:0:
415,271,17025,2,0,P|353:260|316:229,2,90,2|0|10,1:2|2:0|2:0,2:0:0:0:
196,198,17498,6,0,P|235:293|225:381,1,180,2|2,1:2|1:2,2:0:0:0:
409,212,17972,2,0,P|337:237|323:259,1,90,10|0,2:0|1:2,2:0:0:0:
326,354,18288,1,0,1:2:0:0:
232,215,18446,1,0,2:0:0:0:
155,364,18604,2,0,P|208:349|240:321,1,90,8|2,2:0|2:0,2:0:0:0:
266,134,18919,5,2,1:2:0:0:
234,327,19077,1,2,2:0:0:0:
129,176,19235,1,10,2:0:0:0:
321,246,19393,1,2,1:2:0:0:
110,288,19551,1,2,1:2:0:0:
110,288,19709,2,0,P|54:257|15:258,1,90,2|8,2:0|2:0,2:0:0:0:
198,0,20025,6,0,B|158:103|229:77|189:202,1,180,2|2,1:2|1:2,2:0:0:0:
173,370,20498,1,8,2:0:0:0:
110,288,20656,2,0,B|154:268|154:268|220:279,1,90,2|0,1:2|1:2,2:0:0:0:
399,209,20972,1,2,2:0:0:0:
312,139,21130,2,0,P|281:200|288:229,1,90,10|0,2:0|2:0,2:0:0:0:
450,366,21446,6,0,P|400:322|360:322,1,90,6|0,1:2|2:0,2:0:0:0:
261,136,21761,2,0,P|272:205|306:231,1,90,10|0,2:0|1:2,2:0:0:0:
379,319,22077,2,0,P|410:243|401:212,1,90,2|0,1:2|2:0,2:0:0:0:
283,217,22393,1,10,2:0:0:0:
427,36,22551,6,0,P|368:90|369:164,1,135,2|0,1:2|2:0,2:0:0:0:
465,127,22867,1,2,1:2:0:0:
274,33,23025,2,0,P|206:71|172:73,1,90,10|0,2:0|1:2,2:0:0:0:
3,149,23340,2,0,P|91:160|172:226,1,180,0|8,1:2|2:0,2:0:0:0:
50,242,23814,1,2,2:0:0:0:
249,158,23972,5,2,1:2:0:0:
197,303,24130,1,2,2:0:0:0:
314,254,24288,1,10,2:0:0:0:
340,384,24446,1,2,1:2:0:0:
483,174,24604,1,2,1:2:0:0:
431,319,24761,1,2,2:0:0:0:
359,156,24919,1,10,2:0:0:0:
506,27,25077,6,0,P|444:72|355:51,1,135,6|0,1:2|2:0,2:0:0:0:
289,33,25393,1,2,1:2:0:0:
239,268,25551,1,12,2:0:0:0:
359,156,25709,1,2,1:2:0:0:
170,97,25867,1,12,2:0:0:0:
247,294,26025,1,2,1:2:0:0:
279,286,26104,1,0,2:0:0:0:
313,277,26183,1,8,3:2:0:0:
347,270,26261,1,8,3:2:0:0:
380,261,26340,2,0,L|440:246,1,45,8|8,3:2|3:2,2:0:0:0:
320,16,26498,6,0,B|283:86|266:43|231:116,1,135,6|0,1:2|2:0,2:0:0:0:
423,250,26814,2,0,B|386:180|369:223|334:150,1,135,10|0,2:0|1:2,2:0:0:0:
438,104,27130,1,0,1:2:0:0:
148,154,27288,6,0,P|197:214|257:202,1,135,2|8,2:0|2:0,2:0:0:0:
420,357,27604,2,0,P|375:303|304:331,1,135,2|0,1:2|2:0,2:0:0:0:
171,302,27919,1,2,1:2:0:0:
360,186,28077,1,10,2:0:0:0:
318,314,28235,1,2,1:2:0:0:
247,207,28393,2,0,P|223:140|225:94,1,90,2|2,1:2|2:0,2:0:0:0:
470,67,28709,1,10,2:0:0:0:
382,14,28867,6,0,P|333:83|336:144,1,135,2|0,2:0|2:0,2:0:0:0:
407,189,29183,1,2,2:0:0:0:
505,244,29340,1,10,2:0:0:0:
303,228,29498,1,2,1:2:0:0:
498,121,29656,1,2,1:2:0:0:
396,320,29814,1,2,2:0:0:0:
301,108,29972,1,10,2:0:0:0:
407,189,30130,1,2,1:2:0:0:
286,245,30288,5,2,2:0:0:0:
415,62,30446,1,2,1:2:0:0:
274,96,30604,1,10,2:0:0:0:
425,206,30761,1,2,1:2:0:0:
190,155,30919,2,0,P|162:81|176:45,1,90,2|0,1:2|2:0,2:0:0:0:
393,302,31235,1,10,2:0:0:0:
306,227,31393,1,2,2:0:0:0:
306,227,31551,2,0,P|260:275|255:322,1,108,6|0,1:2|2:0,2:0:0:0:
0,316,31867,6,0,B|79:317|39:264|149:273,1,135,10|0,2:0|1:2,2:0:0:0:
183,183,32183,2,0,B|262:182|222:235|332:226,1,135,2|0,1:2|2:0,2:0:0:0:
420,161,32498,1,8,2:0:0:0:
318,1,32656,6,0,B|288:42|288:42|315:135,1,135,2|0,1:2|2:0,2:0:0:0:
431,183,32972,2,0,B|461:224|461:224|434:317,1,135,2|8,1:2|2:0,2:0:0:0:
243,376,33288,1,2,1:2:0:0:
230,314,33367,1,2,2:0:0:0:
286,287,33446,1,2,1:2:0:0:
350,375,33604,1,2,2:0:0:0:
136,297,33761,1,10,2:0:0:0:
345,202,33919,1,2,2:0:0:0:
185,47,34077,6,0,B|234:80|234:80|260:126|217:216,1,180,2|8,1:2|2:0,2:0:0:0:
147,139,34551,1,2,1:2:0:0:
353,103,34709,2,0,P|404:86|428:49,1,90,2|0,1:2|2:0,2:0:0:0:
345,4,35025,1,8,2:0:0:0:
477,169,35183,6,0,L|463:225,1,45,4|0,1:2|2:0,2:0:0:0:
342,253,35498,2,0,L|356:309,1,45,8|0,2:0|2:0,2:0:0:0:
227,323,35814,1,0,3:2:0:0:
477,169,35972,1,8,3:2:0:0:
342,252,36130,1,0,3:2:0:0:
358,111,36288,1,0,3:2:0:0:
467,305,36446,1,0,2:0:0:0:
269,174,36604,6,0,P|217:178|166:160,1,76.5000000000003,6|0,3:2|2:0,2:0:0:0:
91,29,36919,2,0,P|128:69|134:97,1,76.5000000000003,2|2,3:2|3:2,2:0:0:0:
98,272,37235,2,0,P|131:197|198:172,1,153.000000000001,2|10,3:2|3:2,2:0:0:0:
218,348,37709,6,0,P|209:292|192:269,1,76.5000000000003,2|0,2:0|3:2,2:0:0:0:
133,89,38025,2,0,P|195:66|231:77,1,76.5000000000003,2|0,2:0|3:2,2:0:0:0:
324,119,38340,2,0,P|385:156|485:147,1,153.000000000001,2|2,3:2|2:0,2:0:0:0:
421,59,38814,1,10,3:2:0:0:
360,244,38972,1,2,2:0:0:0:
293,50,39130,6,0,P|321:105|324:129,1,76.5000000000003,2|0,3:2|2:0,2:0:0:0:
272,218,39446,2,0,P|244:244|232:280,1,76.5000000000003,2|0,3:2|3:2,2:0:0:0:
209,116,39761,2,0,P|149:154|59:153,1,153.000000000001,2|10,3:2|3:2,2:0:0:0:
112,58,40235,1,0,2:0:0:0:
1,255,40393,6,0,P|-6:198|83:160,1,153.000000000001,0|0,3:2|3:2,2:0:0:0:
201,264,40867,1,0,3:2:0:0:
100,264,41025,2,0,P|111:320|120:359,1,76.5000000000003,2|0,3:2|2:0,2:0:0:0:
195,161,41340,1,10,3:2:0:0:
232,167,41419,1,8,3:2:0:0:
270,173,41498,1,8,3:2:0:0:
308,180,41577,1,8,3:2:0:0:
345,186,41656,5,6,1:2:0:0:
260,73,41814,1,0,2:0:0:0:
302,280,41972,1,8,2:0:0:0:
381,86,42130,1,0,2:0:0:0:
199,248,42288,1,8,2:0:0:0:
451,184,42446,2,0,L|420:270,1,67.5000000000002,0|2,1:2|2:0,2:0:0:0:
260,73,42761,6,0,B|325:68|325:68|379:36|379:36|456:36,1,180,6|2,1:2|1:2,2:0:0:0:
152,147,43235,2,0,L|130:50,1,90,10|0,2:0|2:0,2:0:0:0:
290,173,43551,1,10,2:0:0:0:
257,293,43709,1,2,1:2:0:0:
50,300,43867,2,0,P|110:265|155:270,1,90,10|0,2:0|1:2,2:0:0:0:
257,293,44183,5,6,1:2:0:0:
290,173,44340,1,0,2:0:0:0:
374,273,44498,5,10,2:0:0:0:
182,179,44656,1,0,1:2:0:0:
174,134,44735,1,0,1:2:0:0:
166,90,44814,1,10,2:0:0:0:
290,173,44972,1,0,1:2:0:0:
60,139,45130,1,2,3:2:0:0:
270,11,45288,1,0,3:2:0:0:
192,266,45446,5,10,3:2:0:0:
192,266,46709,6,0,P|115:296|105:352,1,117,14|0,2:0|2:0,2:0:0:0:
148,174,47025,1,8,2:0:0:0:
214,362,47183,1,2,1:2:0:0:
312,264,47340,2,0,P|257:273|146:160,1,216,10|8,2:0|2:0,2:0:0:0:
341,130,47814,1,0,1:2:0:0:
274,67,47972,6,0,P|243:118|256:178,1,108,8|0,2:0|2:0,2:0:0:0:
345,358,48288,2,0,P|339:293|282:252,1,108,10|0,2:0|2:0,2:0:0:0:
208,261,48604,1,10,2:0:0:0:
341,130,48761,1,2,1:2:0:0:
110,265,48919,2,0,P|126:190|191:166,1,108,10|0,2:0|1:2,2:0:0:0:
341,130,49235,6,0,P|222:191|139:168,1,216,6|8,1:2|2:0,2:0:0:0:
85,90,49709,1,2,2:0:0:0:
280,51,49867,2,0,P|227:92|172:61,1,108,10|0,2:0|1:2,2:0:0:0:
0,83,50183,2,0,P|20:33|82:10,1,108,10|0,2:0|1:2,2:0:0:0:
117,233,50498,6,0,P|123:136|77:84,1,162,10|0,2:0|2:0,2:0:0:0:
21,263,50814,2,0,P|64:231|130:239,1,108,8|0,2:0|2:0,2:0:0:0:
252,342,51130,1,10,2:0:0:0:
220,215,51288,1,0,1:2:0:0:
425,341,51446,1,10,2:0:0:0:
457,214,51604,1,0,1:2:0:0:
338,77,51761,6,0,P|321:129|335:182,1,108,14|0,2:0|2:0,2:0:0:0:
338,281,51998,2,0,P|350:229|333:178,1,108,2|0,2:0|2:0,2:0:0:0:
255,235,52235,1,2,2:0:0:0:
496,144,52393,2,0,P|429:152|413:109,1,108,10|0,2:0|1:2,2:0:0:0:
265,39,52709,2,0,P|311:1|377:7,1,108,10|0,2:0|1:2,2:0:0:0:
333,178,53025,6,0,P|258:148|210:160,1,108,10|0,2:0|2:0,2:0:0:0:
146,208,53261,2,0,P|200:187|240:136,1,108,2|0,2:0|2:0,2:0:0:0:
183,69,53498,1,2,2:0:0:0:
86,301,53656,2,0,P|50:249|52:185,1,108,10|0,2:0|1:2,2:0:0:0:
245,285,53972,2,0,P|191:362|194:402,1,108,10|0,2:0|1:2,2:0:0:0:
20,72,54288,6,0,P|55:179|183:196,1,216,6|10,1:2|2:0,2:0:0:0:
246,80,54761,1,2,1:2:0:0:
167,25,54919,2,0,P|119:99|146:131,1,108,10|2,2:0|1:2,2:0:0:0:
225,279,55235,1,10,2:0:0:0:
287,191,55393,6,0,P|214:166|131:239,1,162,6|0,1:2|2:0,2:0:0:0:
225,279,55709,1,2,1:2:0:0:
371,110,55867,2,0,P|309:55|309:15,1,108,10|2,2:0|1:2,2:0:0:0:
502,124,56183,1,10,2:0:0:0:
485,225,56340,1,2,1:2:0:0:
351,281,56498,1,10,2:0:0:0:
368,382,56656,1,0,1:2:0:0:
496,331,56814,6,0,P|421:283|304:297,1,162,6|0,1:2|2:0,2:0:0:0:
262,331,57130,1,8,2:0:0:0:
179,257,57288,1,2,2:0:0:0:
269,129,57446,2,0,P|282:223|253:247,1,108,10|0,2:0|1:2,2:0:0:0:
160,384,57761,2,0,P|140:320|157:277,1,108,8|0,2:0|1:2,2:0:0:0:
269,129,58077,6,0,P|178:184|60:166,1,216,8|10,2:0|2:0,2:0:0:0:
161,72,58551,1,2,2:0:0:0:
295,230,58709,2,0,P|267:160|273:111,1,108,10|2,2:0|1:2,2:0:0:0:
164,360,59025,2,0,P|212:322|276:322,1,108,10|0,2:0|1:2,2:0:0:0:
370,97,59340,6,0,P|306:163|301:261,1,162,6|0,1:2|2:0,2:0:0:0:
350,360,59656,2,0,P|302:322|238:322,1,108,8|2,2:0|2:0,2:0:0:0:
38,251,59972,6,0,P|114:260|187:202,1,162,10|0,2:0|2:0,2:0:0:0:
268,128,60288,2,0,P|202:116|172:77,1,108,10|0,2:0|1:2,2:0:0:0:
56,40,60604,6,0,P|81:100|82:154,1,108,10|0,2:0|2:0,2:0:0:0:
13,214,60840,2,0,P|66:146|116:143,1,108,2|0,2:0|2:0,2:0:0:0:
180,212,61077,1,2,2:0:0:0:
263,107,61235,6,0,P|326:75|376:85,1,108,10|0,2:0|1:2,2:0:0:0:
456,106,61472,2,0,P|390:105|354:66,1,108,2|0,2:0|2:0,2:0:0:0:
431,8,61709,1,2,1:2:0:0:
263,107,61867,6,0,P|296:177|300:243,2,135,6|2|2,1:2|2:0|1:2,2:0:0:0:
139,271,62498,2,0,P|190:243|189:201,1,90,10|0,2:0|2:0,2:0:0:0:
211,32,62814,2,0,P|165:70|165:110,1,90,2|0,2:0|2:0,2:0:0:0:
106,202,63051,1,8,2:2:0:0:
106,202,63130,6,0,P|132:260|126:353,2,135,10|2|2,3:2|2:0|1:2,2:0:0:0:
11,132,63761,1,10,2:0:0:0:
108,96,63919,1,0,1:2:0:0:
310,156,64077,1,8,2:0:0:0:
213,192,64235,1,2,1:2:0:0:
263,20,64393,6,0,P|228:64|241:108,1,90,6|2,1:2|2:0,2:0:0:0:
378,235,64709,1,10,2:0:0:0:
367,71,64867,1,2,2:0:0:0:
264,212,65025,5,0,3:2:0:0:
264,212,65130,2,0,P|275:280|271:291,1,60,0|0,3:2|3:2,2:0:0:0:
396,148,65340,5,0,3:2:0:0:
396,148,65446,2,0,P|385:216|389:227,1,60,0|0,3:2|3:2,2:0:0:0:
474,293,65656,6,0,B|378:287|412:355|305:352,1,162,6|0,1:2|2:0,2:0:0:0:
249,199,66288,2,0,P|307:213|332:258,1,90,2|0,3:2|2:0,2:0:0:0:
218,384,66604,2,0,P|200:316|187:288,1,90,2|0,2:0|2:0,2:0:0:0:
86,275,66919,5,4,1:2:0:0:
95,275,69446,6,0,P|50:236|40:147,1,153.000000000001,6|10,1:2|3:2,2:0:0:0:
135,170,69919,1,0,1:2:0:0:
95,275,70077,2,0,P|55:309|40:352,2,76.5000000000003,2|0|10,1:2|2:0|3:2,2:0:0:0:
275,160,70551,6,0,B|207:194|207:194|133:169,1,153.000000000001,2|2,1:2|1:2,2:0:0:0:
211,13,71025,2,0,L|180:93,1,76.5000000000003,10|0,3:2|1:2,2:0:0:0:
300,268,71340,1,0,1:2:0:0:
274,158,71498,1,0,2:0:0:0:
406,127,71656,6,0,L|371:202,1,76.5000000000003,8|2,3:2|2:0,2:0:0:0:
344,53,71893,1,0,1:2:0:0:
344,53,71972,2,0,P|390:24|423:28,1,76.5000000000003,2|2,1:2|2:0,2:0:0:0:
449,184,72288,2,0,L|353:199,1,76.5000000000003,10|2,3:2|1:2,2:0:0:0:
287,249,72604,1,2,1:2:0:0:
391,316,72761,1,2,2:0:0:0:
294,372,72919,1,8,3:2:0:0:
186,231,73077,6,0,P|217:172|245:169,1,76.5000000000003,2|0,1:2|1:2,2:0:0:0:
378,94,73393,2,0,P|322:124|289:114,1,76.5000000000003,2|8,1:2|3:2,2:0:0:0:
186,32,73709,2,0,P|227:99|213:186,1,153.000000000001,2|2,1:2|2:0,2:0:0:0:
53,149,74183,2,0,L|135:116,1,76.5000000000003,10|0,3:2|2:0,2:0:0:0:
167,288,74498,6,0,L|126:210,1,76.5000000000003,6|0,1:2|2:0,2:0:0:0:
313,218,74814,2,0,L|277:285,1,76.5000000000003,10|0,3:2|1:2,2:0:0:0:
85,350,75130,2,0,P|125:294|184:292,1,114.75,2|0,1:2|2:0,2:0:0:0:
169,380,75446,1,10,3:2:0:0:
331,195,75604,6,0,P|268:217|191:161,1,153.000000000001,2|2,1:2|1:2,2:0:0:0:
80,183,76077,2,0,P|99:137|112:100,1,76.5000000000003,10|0,3:2|1:2,2:0:0:0:
40,1,76393,2,0,P|-22:50|16:100,1,153.000000000001,0|8,1:2|3:2,2:0:0:0:
120,122,76867,5,2,2:0:0:0:
120,122,76946,1,0,1:2:0:0:
120,122,77025,2,0,P|172:100|205:100,1,76.5000000000003,2|2,1:2|2:0,2:0:0:0:
271,24,77340,2,0,P|323:46|356:46,1,76.5000000000003,10|2,3:2|1:2,2:0:0:0:
175,6,77656,1,2,1:2:0:0:
285,134,77814,1,2,2:0:0:0:
183,220,77972,1,10,3:2:0:0:
281,363,78130,6,0,P|293:311|309:276,1,90,2|0,1:2|2:0,2:0:0:0:
111,157,78446,2,0,B|113:198|113:198|139:244,1,90,2|8,1:2|3:2,2:0:0:0:
382,219,78761,1,2,1:2:0:0:
348,190,78840,1,0,1:2:0:0:
304,185,78919,1,0,1:2:0:0:
219,115,79077,1,2,1:2:0:0:
303,37,79235,1,10,3:2:0:0:
229,237,79393,1,0,1:2:0:0:
154,37,79551,6,0,B|110:61|110:61|99:84|99:84|44:107,1,135,6|0,1:2|2:0,2:0:0:0:
335,206,79867,2,0,B|291:182|291:182|280:159|280:159|225:136,1,135,10|0,2:0|1:2,2:0:0:0:
83,250,80183,1,0,1:2:0:0:
206,365,80340,6,0,B|230:328|231:294|231:294|185:236,1,135,2|8,2:0|2:0,2:0:0:0:
94,132,80656,2,0,B|57:178|57:178|58:212|82:249,1,135,2|0,1:2|2:0,2:0:0:0:
304,190,80972,1,2,1:2:0:0:
260,82,81130,2,0,P|223:99|208:174,1,90,10|2,2:0|1:2,2:0:0:0:
357,286,81446,1,2,1:2:0:0:
400,187,81604,1,2,2:0:0:0:
434,88,81761,1,10,2:0:0:0:
471,329,81919,6,0,P|400:279|340:295,1,135,2|0,2:0|2:0,2:0:0:0:
262,321,82235,1,2,2:0:0:0:
197,240,82393,1,10,2:0:0:0:
254,159,82551,1,2,1:2:0:0:
170,332,82709,1,2,1:2:0:0:
321,242,82867,1,2,2:0:0:0:
148,140,83025,1,10,2:0:0:0:
279,337,83183,1,2,1:2:0:0:
265,139,83340,5,2,2:0:0:0:
149,249,83498,1,2,1:2:0:0:
333,206,83656,1,10,2:0:0:0:
173,157,83814,1,2,1:2:0:0:
227,333,83972,2,0,L|249:242,1,90,2|0,1:2|2:0,2:0:0:0:
78,89,84288,1,10,2:0:0:0:
49,200,84446,1,2,2:0:0:0:
49,200,84604,6,0,B|127:201|81:148|198:158,1,135,6|0,1:2|2:0,2:0:0:0:
299,0,84919,2,0,P|214:27|194:77,1,135,10|0,2:0|1:2,2:0:0:0:
285,235,85235,2,0,P|272:153|315:119,1,135,2|0,1:2|2:0,2:0:0:0:
379,191,85551,1,8,2:0:0:0:
185,263,85709,6,0,B|195:319|235:306|261:379,1,135,2|0,1:2|2:0,2:0:0:0:
149,376,86025,1,2,1:2:0:0:
285,235,86183,1,8,2:0:0:0:
139,186,86340,1,2,1:2:0:0:
241,74,86498,2,0,P|254:118|238:163,1,90,2|2,1:2|2:0,2:0:0:0:
71,304,86814,2,0,L|50:208,1,90,10|0,2:0|2:0,2:0:0:0:
0,97,87130,6,0,B|102:93|52:24|196:31,1,180,2|8,1:2|2:0,2:0:0:0:
267,216,87604,1,2,1:2:0:0:
176,194,87761,2,0,P|162:143|150:107,1,67.5000000000002,2|0,1:2|2:0,2:0:0:0:
364,78,88077,1,8,2:0:0:0:
256,43,88235,6,0,L|267:104,1,33.7500000000001,4|0,1:2|2:0,2:0:0:0:
357,203,88551,2,0,L|346:264,1,33.7500000000001,8|0,2:0|2:0,2:0:0:0:
288,352,88867,1,0,3:2:0:0:
288,352,88946,1,0,2:0:0:0:
288,352,89025,1,8,3:2:0:0:
357,203,89183,1,0,3:2:0:0:
256,43,89340,2,0,P|212:62|169:52,1,67.5000000000002,0|0,3:2|2:0,2:0:0:0:
60,41,89656,6,0,P|115:19|199:73,1,153.000000000001,6|2,3:2|3:2,2:0:0:0:
32,179,90130,1,0,3:2:0:0:
131,194,90288,2,0,P|115:136|113:107,1,76.5000000000003,2|0,3:2|2:0,2:0:0:0:
274,341,90604,1,10,3:2:0:0:
193,299,90761,6,0,P|160:346|152:387,1,76.5000000000003,2|0,2:0|3:2,2:0:0:0:
336,235,91077,2,0,P|279:223|247:209,1,76.5000000000003,2|0,2:0|3:2,2:0:0:0:
16,255,91393,2,0,P|42:204|145:203,1,153.000000000001,2|2,3:2|2:0,2:0:0:0:
96,268,91867,1,10,3:2:0:0:
28,155,92025,1,0,2:0:0:0:
108,66,92183,6,0,B|142:88|142:88|205:83,1,76.5000000000003,2|0,3:2|2:0,2:0:0:0:
267,143,92498,2,0,B|301:121|301:121|364:126,1,76.5000000000003,2|0,3:2|3:2,2:0:0:0:
199,274,92814,1,2,3:2:0:0:
161,182,92972,1,0,2:0:0:0:
316,288,93130,2,0,L|297:374,1,76.5000000000003,10|0,3:2|2:0,2:0:0:0:
60,297,93446,6,0,L|220:262,1,153.000000000001,2|0,3:2|3:2,2:0:0:0:
340,191,93919,1,0,3:2:0:0:
237,155,94077,2,0,P|222:101|210:64,1,85.4999999999999,2|0,3:2|2:0,2:0:0:0:
426,239,94393,1,10,3:2:0:0:
445,199,94472,1,8,3:2:0:0:
440,157,94551,1,8,3:2:0:0:
417,122,94630,1,8,3:2:0:0:
375,111,94709,5,6,1:2:0:0:
311,316,94867,1,0,2:0:0:0:
263,181,95025,1,8,2:0:0:0:
428,356,95183,1,0,2:0:0:0:
202,264,95340,1,8,2:0:0:0:
464,233,95498,2,0,L|487:158,1,67.5000000000002,0|2,1:2|2:0,2:0:0:0:
421,8,95814,6,0,P|348:70|349:139,1,135,6|0,1:2|2:0,2:0:0:0:
433,97,96130,1,2,1:2:0:0:
254,155,96288,2,0,P|286:205|289:248,1,90,10|2,2:0|2:0,2:0:0:0:
151,99,96604,1,10,2:0:0:0:
244,32,96761,1,0,1:2:0:0:
77,179,96919,2,0,P|46:110|45:75,1,90,10|0,2:0|1:2,2:0:0:0:
183,250,97235,5,6,1:2:0:0:
39,310,97393,1,0,2:0:0:0:
152,372,97551,5,10,2:0:0:0:
77,179,97709,1,0,1:2:0:0:
310,220,97867,1,10,2:0:0:0:
193,294,98025,1,0,1:2:0:0:
183,250,98104,1,0,2:0:0:0:
173,206,98183,1,2,3:2:0:0:
228,69,98340,1,0,3:2:0:0:
396,88,98498,1,10,3:2:0:0:
396,88,99761,6,0,B|448:100|448:100|481:163,1,108,14|0,2:0|2:0,2:0:0:0:
381,182,100077,1,8,2:0:0:0:
486,21,100235,1,2,1:2:0:0:
337,10,100393,2,0,B|289:105|289:105|165:125,1,216,10|8,2:0|2:0,2:0:0:0:
227,18,100867,1,0,1:2:0:0:
261,210,101025,6,0,B|236:260|236:260|256:325,1,108,8|0,2:0|2:0,2:0:0:0:
127,71,101340,2,0,B|152:121|152:121|132:186,1,108,10|0,2:0|2:0,2:0:0:0:
53,240,101656,1,10,2:0:0:0:
265,118,101814,1,2,1:2:0:0:
136,170,101972,2,0,B|88:144|88:144|21:158,1,108,10|0,2:0|1:2,2:0:0:0:
24,316,102288,6,0,B|103:350|103:350|239:315,1,216,6|8,1:2|2:0,2:0:0:0:
321,204,102761,1,2,2:0:0:0:
239,111,102919,2,0,B|216:141|216:141|237:213,1,108,10|0,2:0|1:2,2:0:0:0:
394,384,103235,2,0,B|413:316|413:316|390:286,1,108,10|0,2:0|1:2,2:0:0:0:
114,212,103551,6,0,B|179:239|179:239|346:197,1,216,10|8,2:0|2:0,2:0:0:0:
443,132,104025,1,0,2:0:0:0:
356,4,104183,2,0,B|329:58|329:58|349:109,1,108,10|0,2:0|1:2,2:0:0:0:
509,282,104498,2,0,B|450:252|450:252|338:284,1,162,10|0,2:0|2:0,2:0:0:0:
263,361,104814,6,0,B|250:306|250:306|278:249,1,108,14|0,2:0|2:0,2:0:0:0:
186,309,105051,2,0,B|217:269|217:269|273:260,1,108,2|0,2:0|2:0,2:0:0:0:
337,180,105288,1,2,2:0:0:0:
258,73,105446,2,0,B|230:125|230:125|252:174,1,108,10|0,2:0|1:2,2:0:0:0:
394,369,105761,2,0,B|398:318|398:318|352:264,1,108,10|0,2:0|1:2,2:0:0:0:
195,284,106077,6,0,B|131:301|131:301|83:287,1,108,10|0,2:0|2:0,2:0:0:0:
131,365,106314,2,0,B|167:344|167:344|195:284,1,108,2|0,2:0|2:0,2:0:0:0:
134,205,106551,1,2,2:0:0:0:
271,351,106709,2,0,B|321:330|321:330|399:348,1,108,10|0,2:0|1:2,2:0:0:0:
512,250,107025,2,0,B|459:262|459:262|409:241,1,108,10|0,2:0|1:2,2:0:0:0:
283,215,107340,6,0,B|267:126|267:126|325:26,1,162,6|0,1:2|2:0,2:0:0:0:
358,159,107656,1,10,2:0:0:0:
200,55,107814,1,2,1:2:0:0:
406,50,107972,2,0,B|359:70|359:70|286:62,1,108,10|2,2:0|1:2,2:0:0:0:
76,89,108288,1,10,2:0:0:0:
129,7,108446,6,0,B|199:55|199:55|156:136,1,162,6|0,1:2|2:0,2:0:0:0:
100,218,108761,1,2,1:2:0:0:
176,292,108919,1,10,2:0:0:0:
132,384,109077,1,2,1:2:0:0:
202,200,109235,1,10,2:0:0:0:
16,250,109393,1,2,1:2:0:0:
244,363,109551,2,0,B|296:372|296:372|346:333,1,108,10|0,2:0|1:2,2:0:0:0:
147,144,109867,6,0,B|193:219|193:219|166:333,1,162,6|0,1:2|2:0,2:0:0:0:
100,237,110183,1,8,2:0:0:0:
336,63,110340,1,2,2:0:0:0:
245,32,110498,2,0,B|225:84|225:84|257:138,1,108,10|0,2:0|1:2,2:0:0:0:
365,175,110814,2,0,B|413:153|413:153|499:176,1,108,8|0,2:0|1:2,2:0:0:0:
332,307,111130,6,0,B|231:268|231:268|121:320,1,216,8|10,2:0|2:0,2:0:0:0:
234,375,111604,1,2,2:0:0:0:
143,122,111761,2,0,B|116:166|116:166|148:235,1,108,10|2,2:0|1:2,2:0:0:0:
282,115,112077,2,0,B|305:63|305:63|278:19,1,108,10|0,2:0|1:2,2:0:0:0:
0,37,112393,6,0,B|84:87|84:87|212:71,1,216,6|8,1:2|2:0,2:0:0:0:
121,5,112867,1,2,2:0:0:0:
171,175,113025,2,0,B|228:163|228:163|300:185,1,108,10|0,2:0|1:2,2:0:0:0:
413,90,113340,2,0,B|365:104|365:104|306:88,1,108,10|0,2:0|1:2,2:0:0:0:
292,277,113656,6,0,B|265:224|265:224|279:160,1,108,10|0,2:0|2:0,2:0:0:0:
363,208,113893,2,0,B|323:219|323:219|292:277,1,108,2|0,2:0|2:0,2:0:0:0:
393,312,114130,1,2,2:0:0:0:
171,87,114288,6,0,B|144:140|144:140|158:204,1,108,10|0,2:0|1:2,2:0:0:0:
242,155,114525,2,0,B|202:145|202:145|171:87,1,108,2|0,2:0|2:0,2:0:0:0:
272,52,114761,1,2,1:2:0:0:
141,277,114919,6,0,B|74:258|74:258|-2:282,2,135,6|2|0,1:2|2:0|1:2,2:0:0:0:
246,384,115551,2,0,B|228:322|228:322|254:277,1,90,10|0,2:0|2:0,2:0:0:0:
316,145,115867,2,0,B|298:207|298:207|324:252,1,90,2|0,2:0|2:0,2:0:0:0:
382,305,116104,1,8,2:2:0:0:
382,305,116183,6,0,B|449:324|449:324|525:300,2,135,10|2|2,3:2|2:0|1:2,2:0:0:0:
385,185,116814,2,0,B|435:170|435:170|479:187,1,90,10|0,2:0|1:2,2:0:0:0:
222,335,117130,1,8,2:0:0:0:
298,244,117288,1,2,1:2:0:0:
209,172,117446,6,0,B|193:126|193:126|216:76,1,90,6|2,1:2|2:0,2:0:0:0:
319,339,117761,1,10,2:0:0:0:
303,149,117919,1,2,2:0:0:0:
102,315,118077,5,0,3:2:0:0:
102,315,118183,2,0,B|87:282|87:282|89:214,1,60,0|0,3:2|3:2,2:0:0:0:
229,261,118393,5,0,3:2:0:0:
229,261,118498,2,0,B|229:284|229:284|214:317,1,60,0|0,3:2|3:2,2:0:0:0:
272,177,118709,6,0,B|208:160|208:160|179:136|179:136|102:119,1,162,6|0,1:2|2:0,2:0:0:0:
294,0,119340,2,0,B|261:28|261:28|276:90,1,90,2|0,3:2|2:0,2:0:0:0:
377,208,119656,2,0,B|405:175|405:175|373:126,1,90,2|0,2:0|2:0,2:0:0:0:
269,264,119972,5,6,1:2:0:0:
184,294,120288,1,8,2:0:0:0:
120,222,120604,1,0,2:0:0:0:
177,145,120919,1,8,2:0:0:0:
270,167,121077,5,2,1:2:0:0:
120,222,121235,1,2,1:2:0:0:
209,243,121551,1,8,2:0:0:0:
270,167,121867,1,0,2:0:0:0:
177,145,122183,1,8,2:0:0:0:
240,70,122340,5,2,1:2:0:0:
209,242,122498,1,2,1:2:0:0:
209,242,122814,1,8,2:0:0:0:
147,54,122972,5,2,1:2:0:0:
304,175,123130,1,2,1:2:0:0:
304,175,123446,1,8,2:0:0:0:
108,155,123604,5,2,1:2:0:0:
241,72,123761,2,0,P|226:125|215:184,1,90,6|0,1:2|2:0,2:0:0:0:
146,274,124077,2,0,P|161:327|172:386,1,90,2|0,1:2|2:0,2:0:0:0:
241,72,124393,2,0,B|227:112|227:112|226:133|226:133|211:182,1,90,2|0,1:2|2:0,2:0:0:0:
146,274,124709,2,0,B|160:314|160:314|161:335|161:335|176:384,1,90,2|0,1:2|2:0,2:0:0:0:
168,360,125656,6,0,B|207:279|302:289|302:289|266:354,1,189,6|0,1:2|2:0,2:0:0:0:
255,384,125971,1,8,2:0:0:0:
83,302,126129,2,0,B|37:232|45:176|45:176|75:133,1,162,2|0,1:2|2:0,2:0:0:0:
156,202,126445,1,0,2:0:0:0:
273,68,126603,5,10,2:0:0:0:
190,3,126761,2,0,P|165:69|188:110,1,108,0|0,1:2|2:0,2:0:0:0:
330,296,127077,1,2,1:2:0:0:
184,236,127234,2,0,P|241:202|295:219,1,108,8|0,2:0|1:2,2:0:0:0:
463,193,127550,5,2,1:2:0:0:
370,121,127708,1,2,2:0:0:0:
512,0,127866,2,0,P|503:25|406:20,1,108,10|0,2:0|2:0,2:0:0:0:
179,150,128182,1,2,1:2:0:0:
228,12,128340,2,0,B|238:51|238:51|259:70|259:70|278:148,1,108,2|8,2:0|2:0,2:0:0:0:
368,159,128656,6,0,B|330:224|330:224|337:269|361:317,1,162,2|0,1:2|2:0,2:0:0:0:
512,284,128971,2,0,P|447:238|418:252,1,108,2|8,2:0|2:0,2:0:0:0:
254,298,129287,6,0,B|235:260|228:215|228:215|266:150,1,162,2|0,1:2|2:0,2:0:0:0:
295,55,129603,2,0,P|229:18|194:41,1,108,2|10,1:2|2:0,2:0:0:0:
125,114,129919,1,2,1:2:0:0:
11,31,130077,2,0,L|73:21,1,54,2|0,1:2|2:0,2:0:0:0:
306,222,130392,2,0,L|206:205,1,76.5,10|0,2:0|2:0,2:0:0:0:
30,136,130708,6,0,L|39:194,1,54,0|0,1:2|2:0,2:0:0:0:
17,200,130866,2,0,L|8:146,1,54,0|0,2:0|2:0,2:0:0:0:
147,2,131024,1,10,2:0:0:0:
187,210,131182,1,2,1:2:0:0:
125,114,131340,5,2,1:2:0:0:
269,234,131498,2,0,B|243:288|243:288|263:356,1,108,2|8,2:0|2:0,2:0:0:0:
478,172,131813,2,0,P|424:148|365:170,1,108,2|0,1:2|2:0,2:0:0:0:
167,85,132129,2,0,B|251:77|211:17|318:8,1,162,2|0,1:2|2:0,2:0:0:0:
302,96,132445,1,2,1:2:0:0:
59,160,132603,5,2,1:2:0:0:
33,39,132761,1,2,2:0:0:0:
179,182,132919,1,10,3:2:0:0:
170,330,133077,1,2,2:0:0:0:
0,265,133234,6,0,P|82:242|113:275,1,108,6|0,1:2|2:0,2:0:0:0:
170,330,133550,1,10,2:0:0:0:
170,330,133708,1,2,2:0:0:0:
111,72,133866,6,0,P|177:142|176:197,1,126,6|0,1:2|2:0,2:0:0:0:
170,330,134182,1,10,2:0:0:0:
170,330,134340,1,2,2:0:0:0:
309,51,134498,6,0,P|325:130|269:196,1,144,6|0,1:2|1:2,2:0:0:0:
170,330,134813,1,14,2:0:0:0:
170,330,134971,1,0,1:2:0:0:
199,126,135129,1,14,2:0:0:0:
349,276,135287,1,2,2:0:0:0:
91,231,135445,1,10,2:0:0:0:
83,188,135524,1,8,2:0:0:0:
76,145,135603,1,8,2:0:0:0:
68,103,135682,1,8,2:0:0:0:
24,65,135761,6,0,B|131:34|99:112|229:69,1,175.5,14|0,2:0|2:0,2:0:0:0:
163,0,136077,1,8,2:0:0:0:
304,134,136234,1,2,1:2:0:0:
404,103,136392,2,0,P|340:28|301:42,1,117,10|0,2:0|1:2,2:0:0:0:
173,255,136708,2,0,P|223:204|294:216,1,117,8|0,2:0|1:2,2:0:0:0:
433,239,137024,6,0,P|362:330|369:394,1,175.5,8|0,2:0|2:0,2:0:0:0:
436,345,137340,2,0,P|351:307|285:342,1,117,10|0,2:0|2:0,2:0:0:0:
180,355,137656,1,10,2:0:0:0:
265,202,137813,1,2,1:2:0:0:
108,263,137971,2,0,B|51:275|79:316|-22:346,1,117,10|0,2:0|1:2,2:0:0:0:
171,150,138287,6,0,P|230:62|306:69,1,175.5,6|0,1:2|2:0,2:0:0:0:
265,202,138603,2,0,P|181:149|141:166,1,117,8|2,2:0|2:0,2:0:0:0:
21,95,138919,1,10,2:0:0:0:
156,20,139077,1,0,1:2:0:0:
40,188,139234,1,10,2:0:0:0:
73,4,139392,1,0,1:2:0:0:
192,172,139550,6,0,B|158:267|227:245|183:362,1,175.5,10|0,2:0|2:0,2:0:0:0:
110,311,139866,2,0,P|164:254|217:264,1,117,8|0,2:0|2:0,2:0:0:0:
492,161,140182,1,10,2:0:0:0:
451,293,140340,1,0,1:2:0:0:
290,151,140498,1,10,2:0:0:0:
318,290,140656,1,0,1:2:0:0:
476,49,140813,6,0,P|410:51|356:115,1,117,14|0,2:0|2:0,2:0:0:0:
290,151,141050,2,0,P|365:104|374:63,1,117,2|0,2:0|2:0,2:0:0:0:
282,41,141287,1,2,2:0:0:0:
194,167,141445,2,0,B|212:225|236:201|248:283,1,117,10|0,2:0|1:2,2:0:0:0:
307,384,141761,2,0,B|325:326|349:350|361:268,1,117,10|0,2:0|1:2,2:0:0:0:
140,277,142077,6,0,P|92:345|102:384,1,117,10|0,2:0|2:0,2:0:0:0:
200,376,142313,2,0,P|133:352|93:376,1,117,2|0,2:0|2:0,2:0:0:0:
22,290,142550,1,2,2:0:0:0:
156,180,142708,2,0,P|218:216|226:285,1,117,10|0,2:0|1:2,2:0:0:0:
31,173,143024,2,0,P|72:87|54:46,1,117,10|0,2:0|1:2,2:0:0:0:
185,3,143340,6,0,P|246:72|360:60,1,175.5,6|0,1:2|2:0,2:0:0:0:
284,7,143656,1,10,2:0:0:0:
224,108,143813,1,2,1:2:0:0:
316,196,143971,1,10,2:0:0:0:
243,279,144129,1,2,1:2:0:0:
324,77,144287,1,10,2:0:0:0:
504,186,144445,6,0,B|402:163|451:236|329:215,1,175.5,6|0,1:2|2:0,2:0:0:0:
243,153,144761,1,2,1:2:0:0:
325,20,144919,2,0,P|369:88|341:137,1,117,10|2,2:0|1:2,2:0:0:0:
220,273,145234,1,10,2:0:0:0:
243,153,145392,1,2,1:2:0:0:
325,375,145550,1,10,2:0:0:0:
374,241,145708,1,0,1:2:0:0:
150,194,145866,6,0,B|46:208|108:280|-27:302,1,189,6|0,1:2|2:0,2:0:0:0:
158,291,146182,1,8,2:0:0:0:
26,147,146340,1,2,2:0:0:0:
228,115,146498,2,0,P|186:58|191:-11,1,126,10|0,2:0|1:2,2:0:0:0:
401,190,146813,2,0,P|350:250|355:316,1,126,8|0,2:0|1:2,2:0:0:0:
114,122,147129,6,0,P|208:56|353:75,1,252,8|10,2:0|2:0,2:0:0:0:
401,190,147603,1,2,2:0:0:0:
250,293,147761,2,0,P|226:212|249:171,1,126,10|2,2:0|1:2,2:0:0:0:
440,20,148077,2,0,P|366:73|317:53,1,126,10|0,2:0|1:2,2:0:0:0:
79,204,148392,6,0,P|137:156|247:184,1,189,6|0,1:2|2:0,2:0:0:0:
166,230,148708,2,0,P|146:154|117:94,1,126,8|2,2:0|2:0,2:0:0:0:
369,0,149024,6,0,P|335:136|331:202,1,189,10|0,2:0|2:0,2:0:0:0:
378,287,149340,2,0,P|440:253|514:267,1,126,10|0,2:0|1:2,2:0:0:0:
317,379,149656,6,0,P|268:311|277:262,1,126,10|0,2:0|2:0,2:0:0:0:
209,366,149892,2,0,P|243:284|289:272,1,126,2|0,2:0|2:0,2:0:0:0:
364,188,150129,1,2,2:0:0:0:
238,139,150287,6,0,P|176:117|110:162,1,126,10|0,2:0|1:2,2:0:0:0:
24,187,150524,2,0,P|109:170|126:124,1,126,2|0,2:0|2:0,2:0:0:0:
65,61,150761,1,2,1:2:0:0:
38,348,150919,6,0,P|122:280|173:293,2,135,6|2|2,1:2|2:0|1:2,2:0:0:0:
260,376,151550,2,0,P|238:302|233:269,1,90,10|0,2:0|2:0,2:0:0:0:
371,172,151866,2,0,P|353:246|334:281,1,90,2|0,2:0|2:0,2:0:0:0:
250,183,152103,1,8,2:2:0:0:
250,183,152182,6,0,B|181:183|199:133|99:152,2,135,10|2|2,3:2|2:0|1:2,2:0:0:0:
369,38,152813,2,0,P|300:61|290:96,1,90,10|0,2:0|1:2,2:0:0:0:
423,185,153129,2,0,P|478:173|532:168,1,90,8|2,2:0|1:2,2:0:0:0:
336,324,153445,5,6,1:2:0:0:
237,242,153603,1,2,2:0:0:0:
331,158,153761,1,6,1:2:0:0:
244,365,153919,2,0,P|170:343|127:345,1,90,2|4,2:0|1:2,2:0:0:0:
0,247,154234,2,0,P|87:239|142:203,1,135,2|0,1:2|2:0,2:0:0:0:
189,140,154550,1,2,2:0:0:0:
122,59,154708,5,2,3:2:0:0:
247,229,154866,1,0,3:2:0:0:
314,68,155024,5,2,3:2:0:0:
127,216,155182,1,0,3:2:0:0:
457,244,155340,5,10,3:2:0:0:
433,206,155419,1,8,3:2:0:0:
394,184,155498,1,8,3:2:0:0:
350,185,155577,1,8,3:2:0:0:
311,207,155656,2,0,B|300:259|300:259|307:289|307:289|295:361,1,135,14|0,3:2|2:0,2:0:0:0:
184,288,155971,6,0,B|157:235|157:235|223:188,1,117,6|0,1:2|1:2,2:0:0:0:
316,37,156287,1,8,2:0:0:0:
368,232,156445,1,2,2:0:0:0:
442,136,156603,2,0,B|403:149|403:149|321:137,1,117,10|0,2:0|1:2,2:0:0:0:
141,44,156919,2,0,B|196:21|196:21|252:67,1,117,8|0,2:0|1:2,2:0:0:0:
237,298,157234,6,0,B|219:236|219:236|176:217|176:217|158:144,1,175.5,8|0,2:0|2:0,2:0:0:0:
346,302,157550,2,0,B|289:279|289:279|221:303,1,117,10|0,2:0|2:0,2:0:0:0:
36,208,157866,1,10,2:0:0:0:
160,154,158024,1,2,1:2:0:0:
139,275,158182,2,0,B|116:326|116:326|138:387,1,117,10|0,2:0|1:2,2:0:0:0:
336,156,158498,6,0,B|241:185|241:185|110:143,1,234,6|8,1:2|2:0,2:0:0:0:
247,79,158971,1,2,2:0:0:0:
18,113,159129,2,0,B|31:56|31:56|114:50,1,117,10|0,2:0|1:2,2:0:0:0:
139,275,159445,2,0,B|88:242|88:242|7:273,1,117,10|0,2:0|1:2,2:0:0:0:
240,176,159761,6,0,B|243:235|243:235|285:280|285:280|305:376,1,175.5,10|0,2:0|2:0,2:0:0:0:
202,334,160077,1,8,2:0:0:0:
334,188,160234,1,0,2:0:0:0:
149,128,160392,2,0,B|189:81|189:81|270:83,1,117,10|0,2:0|1:2,2:0:0:0:
443,250,160708,2,0,B|387:251|387:251|347:204,1,117,10|0,2:0|2:0,2:0:0:0:
303,22,161024,6,0,B|333:64|333:64|364:71|364:71|392:107,1,117,6|0,1:2|2:0,2:0:0:0:
482,137,161261,2,0,B|448:96|448:96|361:98,1,117,2|0,2:0|2:0,2:0:0:0:
347,204,161498,1,2,2:0:0:0:
230,241,161656,2,0,B|244:167|244:167|291:129,1,117,10|0,2:0|1:2,2:0:0:0:
82,58,161971,2,0,B|96:132|96:132|143:170,1,117,10|0,2:0|1:2,2:0:0:0:
362,35,162287,6,0,B|304:17|304:17|233:37,1,117,10|0,2:0|2:0,2:0:0:0:
276,140,162524,2,0,B|281:83|281:83|248:30,1,117,2|0,2:0|2:0,2:0:0:0:
182,101,162761,1,2,2:0:0:0:
408,196,162919,2,0,B|361:212|361:212|343:231|343:231|253:246,1,117,10|0,2:0|1:2,2:0:0:0:
163,315,163234,2,0,B|210:331|210:331|228:350|228:350|318:365,1,117,10|0,2:0|1:2,2:0:0:0:
148,205,163550,6,0,B|64:248|64:248|50:345,1,175.5,6|0,1:2|2:0,2:0:0:0:
163,315,163866,1,10,2:0:0:0:
65,148,164024,1,2,1:2:0:0:
209,123,164182,2,0,B|206:66|206:66|161:12,1,117,10|2,2:0|1:2,2:0:0:0:
266,220,164498,1,10,2:0:0:0:
43,108,164656,6,0,B|103:141|103:141|249:116,1,175.5,6|0,1:2|2:0,2:0:0:0:
321,55,164971,1,2,1:2:0:0:
266,220,165129,1,14,2:0:0:0:
385,163,165287,1,2,1:2:0:0:
216,16,165445,2,0,B|188:80|188:80|218:143,1,117,10|2,2:0|1:2,2:0:0:0:
299,333,165761,2,0,B|319:290|319:290|291:226,1,117,2|0,1:2|1:2,2:0:0:0:
23,222,166077,6,0,B|109:257|109:257|210:219,1,175.5,6|0,1:2|2:0,2:0:0:0:
208,122,166392,1,8,2:0:0:0:
165,334,166550,1,2,2:0:0:0:
121,141,166708,2,0,B|92:88|92:88|111:29,1,117,10|0,2:0|1:2,2:0:0:0:
339,146,167024,2,0,B|368:93|368:93|349:34,1,117,8|0,2:0|1:2,2:0:0:0:
281,227,167340,6,0,B|358:256|358:256|444:221,1,175.5,8|0,2:0|2:0,2:0:0:0:
270,120,167656,2,0,B|299:177|299:177|276:238,1,117,10|0,2:0|2:0,2:0:0:0:
111,315,167971,1,10,2:0:0:0:
194,189,168129,1,0,1:2:0:0:
64,189,168287,1,10,2:0:0:0:
241,328,168445,1,0,1:2:0:0:
144,117,168603,6,0,B|74:150|74:150|55:222,1,117,6|0,1:2|2:0,2:0:0:0:
201,17,168919,2,0,B|263:61|263:61|359:51,1,117,8|2,2:0|2:0,2:0:0:0:
209,239,169234,1,10,2:0:0:0:
144,117,169392,1,0,1:2:0:0:
325,241,169550,2,0,B|356:292|356:292|310:369,1,117,10|0,2:0|1:2,2:0:0:0:
249,149,169866,6,0,B|293:144|293:144|321:127|321:127|382:123,1,117,10|2,2:0|2:0,2:0:0:0:
443,57,170103,2,0,B|391:68|391:68|357:130,1,117,2|0,2:0|2:0,2:0:0:0:
454,182,170340,1,2,2:0:0:0:
355,320,170498,2,0,B|335:247|335:247|367:202,1,117,10|0,2:0|3:2,2:0:0:0:
273,275,170734,2,0,B|301:224|301:224|379:209,1,117,2|0,2:0|2:0,2:0:0:0:
435,281,170971,1,2,2:0:0:0:
191,192,171129,6,0,B|131:200|131:200|104:225|104:225|34:237,2,162,6|2|2,1:2|2:0|1:2,2:0:0:0:
304,68,171761,2,0,B|266:28|266:28|196:20,1,108,10|0,2:0|2:0,2:0:0:0:
308,202,172077,2,0,B|268:266|268:266|269:309,1,108,2|0,2:0|2:0,2:0:0:0:
382,372,172313,1,8,2:2:0:0:
382,372,172392,2,0,B|366:293|366:293|437:209,2,162,2|2|2,1:2|2:0|1:2,2:0:0:0:
505,114,173024,2,0,B|440:135|440:135|382:116,1,108,10|0,2:0|1:2,2:0:0:0:
254,76,173340,1,10,2:0:0:0:
363,18,173498,1,2,2:0:0:0:
180,131,173656,6,0,B|156:74|156:74|176:23,1,108,6|2,1:2|2:0,2:0:0:0:
375,240,173971,1,10,2:0:0:0:
272,147,174129,1,2,2:0:0:0:
232,279,174287,5,0,3:2:0:0:
232,279,174392,2,0,B|207:315|207:315|206:374,1,72,0|0,3:2|3:2,2:0:0:0:
71,171,174603,5,0,3:2:0:0:
71,171,174708,2,0,B|99:205|99:205|97:266,1,72,0|0,3:2|3:2,2:0:0:0:
215,155,174919,6,0,B|278:136|278:136|333:77|333:77|415:58,1,202.500000000001,6|0,1:2|2:0,2:0:0:0:
223,4,175550,2,0,B|206:35|206:35|230:79,1,67.5000000000002,2|0,3:2|2:0,2:0:0:0:
400,221,175866,2,0,B|415:192|415:192|398:161,1,67.5000000000002,2|0,2:0|2:0,2:0:0:0:
288,326,176182,5,4,1:2:0:0:
