osu file format v14

[General]
AudioFilename: audio.mp3
AudioLeadIn: 0
PreviewTime: 134735
Countdown: 0
SampleSet: Soft
StackLeniency: 0.7
Mode: 0
LetterboxInBreaks: 0
WidescreenStoryboard: 1

[Editor]
Bookmarks: 445,6287,16392,26498,36603,46708,61866,66919,69445,79550,89656,99761,114919,119971,125656,176182,186287
DistanceSpacing: 1
BeatDivisor: 4
GridSize: 8
TimelineZoom: 0.8

[Metadata]
Title:Happy End no Intro ga Kikoeru feat. Panaman
TitleUnicode:ハッピーエンドのイントロが聴こえる feat. ぱなまん
Artist:TOKOTOKO (NishizawasanP)
ArtistUnicode:TOKOTOKO(西沢さんP)
Creator:Nevo
Version:Astronic's Normal
Source:
Tags:astronic airincat battle glaceon Mononymous japanese rock jrock j-rock zawaso
BeatmapID:3458474
BeatmapSetID:1327813

[Difficulty]
HPDrainRate:3
CircleSize:3
OverallDifficulty:4
ApproachRate:5.5
SliderMultiplier:1
SliderTickRate:1

[Events]
//Background and Video events
0,0,"77225492_p0.jpg",0,0
//Break Periods
2,120171,124531
//Storyboard Layer 0 (Background)
//Storyboard Layer 1 (Fail)
//Storyboard Layer 2 (Pass)
//Storyboard Layer 3 (Foreground)
//Storyboard Layer 4 (Overlay)
//Storyboard Sound Samples

[TimingPoints]
-3817,315.789473684211,4,2,22,60,1,0
46709,-100,4,2,22,80,0,1
61867,-100,4,2,22,70,0,0
99761,-100,4,2,22,80,0,1
114919,-100,4,2,22,70,0,0
125656,315.789473684211,4,2,22,70,1,1
125656,-100,4,2,22,70,0,1
132919,-100,4,2,22,65,0,0
133234,-100,4,2,22,75,0,1
133392,-100,4,2,22,75,0,0
133866,-100,4,2,22,75,0,1
134024,-100,4,2,22,75,0,0
134498,-100,4,2,22,75,0,1
134656,-100,4,2,22,75,0,0
135761,-100,4,2,22,80,0,1
150919,-100,4,2,22,70,0,0
155971,-100,4,2,22,80,0,1
171761,-100,4,2,22,60,0,0

[Colours]
Combo1 : 248,211,3
Combo2 : 255,100,100
Combo3 : 66,137,255
Combo4 : 136,136,136

[HitObjects]
64,32,446,6,0,L|80:112,1,50,8|8,2:0|1:2,0:0:0:0:
112,112,761,2,0,P|80:160|80:208,1,100,0|0,1:2|1:2,0:0:0:0:
64,240,1235,2,0,B|112:224|112:224|224:256,1,150,10|2,1:2|1:2,0:0:0:0:
256,272,1866,1,2,1:2:0:0:
400,320,2340,2,0,P|448:288|464:224,1,100,2|2,1:2|1:2,0:0:0:0:
432,160,2971,1,2,1:2:0:0:
432,160,3129,2,0,L|448:48,1,100,2|2,1:2|1:2,0:0:0:0:
352,16,3761,6,0,L|328:180,1,150,6|2,1:2|1:2,0:0:0:0:
320,208,4392,1,2,1:2:0:0:
288,352,4866,2,0,L|400:336,2,100,2|2|2,1:2|1:2|1:2,0:0:0:0:
238,358,5656,1,10,3:2:0:0:
238,358,5813,1,10,3:2:0:0:
96,368,6287,6,0,P|64:320|64:272,1,100,6|10,1:2|2:0,0:0:0:0:
96,256,6761,1,2,1:2:0:0:
96,256,6919,2,0,L|80:144,1,100,2|8,1:2|2:0,0:0:0:0:
64,112,7392,1,2,1:2:0:0:
128,32,7708,1,2,1:2:0:0:
224,80,8024,1,2,1:2:0:0:
224,80,8182,2,0,L|336:64,1,100,2|10,1:2|2:0,0:0:0:0:
416,16,8813,6,0,P|448:48|464:112,1,100,0|10,1:2|2:0,0:0:0:0:
448,144,9287,1,2,1:2:0:0:
448,144,9445,2,0,L|464:256,1,100,2|8,1:2|2:0,0:0:0:0:
480,288,9919,1,2,1:2:0:0:
416,368,10235,1,2,1:2:0:0:
336,320,10550,1,2,1:2:0:0:
336,320,10708,1,2,1:2:0:0:
236,272,11024,1,10,2:0:0:0:
160,352,11340,6,0,L|48:336,1,100,4|10,1:2|2:0,0:0:0:0:
48,288,11813,1,2,1:2:0:0:
48,288,11971,2,0,P|16:240|16:176,1,100,2|8,1:2|2:0,0:0:0:0:
16,144,12445,1,2,1:2:0:0:
112,160,12761,1,2,1:2:0:0:
208,176,13077,1,2,1:2:0:0:
208,176,13235,2,0,L|192:64,1,100,2|10,1:2|2:0,0:0:0:0:
272,16,13866,6,0,P|336:16|384:48,1,100,4|10,1:2|2:0,0:0:0:0:
400,64,14340,1,2,1:2:0:0:
400,64,14498,2,0,L|416:176,1,100,2|8,1:2|2:0,0:0:0:0:
448,192,14971,1,2,1:3:0:0:
464,288,15287,1,2,1:3:0:0:
400,368,15603,1,2,1:2:0:0:
400,368,15761,2,0,L|320:352,1,50,8|0,2:0|0:0,0:0:0:0:
304,336,16077,2,0,L|240:352,1,50,10|0,2:0|0:0,0:0:0:0:
207,363,16392,5,4,1:2:0:0:
224,256,16708,2,0,L|240:144,1,100,10|2,2:0|1:2,0:0:0:0:
192,64,17340,1,10,2:0:0:0:
192,64,17498,2,0,P|144:64|80:16,1,100,2|2,1:2|1:2,0:0:0:0:
64,0,17971,2,0,L|48:112,1,100,10|0,2:0|1:2,0:0:0:0:
80,192,18603,2,0,L|31:204,1,50,8|2,2:0|2:0,0:0:0:0:
0,240,18919,6,0,P|32:288|48:352,1,100,2|10,1:2|2:0,0:0:0:0:
80,352,19392,2,0,L|16:368,2,50,2|2|2,1:2|1:2|2:0,0:0:0:0:
160,288,20024,1,2,1:2:0:0:
240,352,20340,1,2,1:2:0:0:
320,288,20656,2,0,L|432:304,1,100,2|2,1:2|2:0,0:0:0:0:
468,312,21129,2,0,L|452:248,1,50,10|0,2:0|2:0,0:0:0:0:
440,216,21445,6,0,P|440:168|472:104,1,100,6|10,1:2|2:0,0:0:0:0:
408,40,22077,2,0,L|296:56,1,100,2|10,1:2|2:0,0:0:0:0:
288,96,22550,2,0,P|248:56|184:48,1,100,2|2,1:2|1:2,0:0:0:0:
160,56,23024,2,0,P|104:88|48:80,1,100,10|0,2:0|1:2,0:0:0:0:
16,176,23656,2,0,L|32:256,1,50,8|2,2:0|2:0,0:0:0:0:
48,272,23971,5,2,1:2:0:0:
48,272,24129,2,0,L|-16:288,2,50,2|10|2,2:0|2:0|1:2,0:0:0:0:
64,320,24603,2,0,P|112:304|176:320,1,100,2|10,1:2|2:0,0:0:0:0:
208,336,25077,1,6,1:2:0:0:
304,320,25392,1,2,1:2:0:0:
400,304,25708,2,0,B|376:216|440:240|416:144,1,150,2|8,1:2|3:2,0:0:0:0:
464,72,26498,5,6,1:2:0:0:
376,24,26813,2,0,L|264:40,1,100,10|0,2:0|1:2,0:0:0:0:
224,48,27287,1,2,2:0:0:0:
160,120,27603,2,0,L|176:224,1,100,2|2,1:2|1:2,0:0:0:0:
184,272,28077,1,10,2:0:0:0:
184,272,28235,2,0,L|112:280,1,50,2|2,1:2|1:2,0:0:0:0:
88,288,28550,2,0,P|96:320|96:352,2,50,2|10|2,2:0|2:0|2:0,0:0:0:0:
8,224,29182,5,2,2:0:0:0:
8,224,29340,2,0,P|24:160|8:112,1,100,10|2,2:0|1:2,0:0:0:0:
0,88,29813,1,2,2:0:0:0:
0,88,29971,1,10,2:0:0:0:
72,16,30287,1,2,2:0:0:0:
152,72,30603,2,0,L|264:56,1,100,10|2,2:0|1:2,0:0:0:0:
361,62,31235,2,0,L|420:53,1,50,10|2,2:0|2:0,0:0:0:0:
456,24,31550,5,6,1:2:0:0:
480,128,31866,2,0,P|472:152|472:192,1,50,10|0,2:0|1:2,0:0:0:0:
488,224,32182,2,0,L|472:328,1,100,2|8,1:2|2:0,0:0:0:0:
464,376,32656,1,2,1:2:0:0:
376,328,32971,1,2,1:2:0:0:
280,360,33287,1,2,1:2:0:0:
280,360,33445,2,0,P|232:344|160:344,1,100,2|10,1:2|2:0,0:0:0:0:
136,352,33919,1,2,2:0:0:0:
136,352,34077,5,2,1:2:0:0:
40,232,34550,1,2,1:2:0:0:
40,232,34708,2,0,L|64:96,1,100,2|8,1:2|2:0,0:0:0:0:
56,80,35182,1,4,1:2:0:0:
144,32,35498,1,8,2:0:0:0:
232,80,35813,1,0,3:2:0:0:
232,80,35971,2,0,L|216:184,1,100,8|0,3:2|3:2,0:0:0:0:
200,280,36603,6,0,P|264:272|320:288,1,100,6|2,3:2|3:2,0:0:0:0:
384,328,37235,1,2,3:2:0:0:
480,288,37550,1,10,3:2:0:0:
480,288,37708,2,0,L|496:168,1,100,2|2,2:0|2:0,0:0:0:0:
512,88,38340,1,2,3:2:0:0:
440,24,38656,1,2,2:0:0:0:
440,24,38813,6,0,P|392:8|328:16,1,100,10|2,3:2|3:2,0:0:0:0:
248,56,39445,1,2,3:2:0:0:
152,24,39761,1,2,3:2:0:0:
96,104,40077,2,0,P|56:88|-8:96,2,100,10|0|0,3:2|3:2|3:2,0:0:0:0:
35,184,41024,2,0,L|19:296,1,100,2|10,3:2|3:2,0:0:0:0:
11,332,41498,1,8,3:2:0:0:
11,332,41656,6,0,P|60:318|116:332,1,100,6|8,1:2|2:0,0:0:0:0:
201,361,42287,1,8,2:0:0:0:
286,308,42603,1,2,2:0:0:0:
286,308,42761,2,0,L|400:320,1,100,6|2,1:2|1:2,0:0:0:0:
436,324,43235,1,10,2:0:0:0:
504,252,43550,1,10,2:0:0:0:
448,168,43866,1,10,2:0:0:0:
508,88,44182,6,0,P|452:68|392:84,1,100,6|10,1:2|2:0,0:0:0:0:
316,104,44813,1,10,2:0:0:0:
232,52,45129,2,0,L|168:60,1,50,2|0,3:2|3:2,0:0:0:0:
132,64,45445,1,10,3:2:0:0:
448,320,46708,6,0,L|336:336,1,100,14|8,2:0|2:0,0:0:0:0:
320,368,47182,1,2,1:2:0:0:
320,368,47340,2,0,P|272:336|224:336,1,100,10|8,2:0|2:0,0:0:0:0:
128,352,47971,1,8,2:0:0:0:
48,304,48287,2,0,L|32:192,1,100,10|10,2:0|2:0,0:0:0:0:
32,160,48761,1,2,1:2:0:0:
32,160,48919,1,10,2:0:0:0:
16,64,49235,6,0,L|128:80,1,100,6|8,1:2|2:0,0:0:0:0:
160,80,49708,1,2,2:0:0:0:
160,80,49866,1,10,2:0:0:0:
240,32,50182,1,10,2:0:0:0:
320,80,50498,2,0,P|368:96|432:80,1,100,10|8,2:0|2:0,0:0:0:0:
496,144,51129,1,10,2:0:0:0:
480,240,51445,1,10,2:0:0:0:
438,330,51761,6,0,B|471:346|471:346|508:333,2,75,14|2|2,2:0|2:0|2:0,0:0:0:0:
389,316,52392,1,10,2:0:0:0:
293,344,52708,1,10,2:0:0:0:
208,289,53024,2,0,B|216:257|216:257|190:224,2,75,10|2|2,2:0|2:0|2:0,0:0:0:0:
197,338,53656,1,10,2:0:0:0:
112,285,53971,1,10,2:0:0:0:
32,224,54287,5,6,1:2:0:0:
96,144,54603,1,10,2:0:0:0:
96,144,54761,2,0,L|80:80,2,50,2|10|2,1:2|2:0|1:2,0:0:0:0:
144,128,55235,1,10,2:0:0:0:
144,128,55392,2,0,L|256:144,1,100,6|2,1:2|1:2,0:0:0:0:
288,144,55866,1,10,2:0:0:0:
368,208,56182,1,10,2:0:0:0:
448,160,56498,2,0,L|432:80,1,50,10|8,2:0|1:2,0:0:0:0:
464,64,56813,6,0,P|418:60|352:32,1,100,6|8,1:2|2:0,0:0:0:0:
336,0,57287,1,2,2:0:0:0:
336,0,57445,2,0,L|224:16,1,100,10|8,2:0|2:0,0:0:0:0:
144,32,58077,1,8,2:0:0:0:
48,0,58392,2,0,L|32:64,1,50,10|2,2:0|2:0,0:0:0:0:
0,80,58708,2,0,L|16:144,1,50,10|2,2:0|1:2,0:0:0:0:
25,177,59024,1,10,2:0:0:0:
18,276,59340,6,0,P|71:288|114:329,1,100,6|8,1:2|2:0,0:0:0:0:
128,368,59813,1,2,2:0:0:0:
128,368,59971,2,0,L|256:352,1,100,10|10,2:0|2:0,0:0:0:0:
320,304,60603,2,0,B|304:272|304:272|320:224,2,75,10|2|2,2:0|2:0|2:0,0:0:0:0:
344,348,61235,2,0,B|380:364|380:364|424:348,1,75,10|4,2:0|2:3,0:0:0:0:
489,318,61708,1,2,1:2:0:0:
489,318,61866,6,0,P|479:264|501:210,1,100,6|0,1:2|0:0,0:0:0:0:
480,180,62340,1,2,1:2:0:0:
480,180,62498,1,10,2:0:0:0:
408,112,62813,1,2,2:0:0:0:
332,48,63129,2,0,B|356:16|356:16|404:8,2,75,10|2|2,3:2|2:0|1:2,0:0:0:0:
284,60,63761,1,10,2:0:0:0:
222,151,64077,2,0,L|287:161,1,50,8|2,2:0|1:2,0:0:0:0:
300,208,64392,6,0,P|332:208|364:220,2,50,6|2|10,1:2|2:0|2:0,0:0:0:0:
296,260,64866,2,0,P|280:300|212:324,1,100,2|0,2:0|0:0,0:0:0:0:
132,304,65498,1,0,0:0:0:0:
132,304,65656,1,6,1:2:0:0:
32,132,66287,2,0,L|48:28,1,100,2|2,3:2|2:0,0:0:0:0:
144,8,66919,5,4,1:2:0:0:
26,155,68813,1,8,2:0:0:0:
40,43,69129,1,8,2:0:0:0:
144,8,69445,5,6,1:2:0:0:
236,52,69761,1,10,3:2:0:0:
328,8,70077,2,0,P|388:4|436:32,1,100,2|10,1:2|3:2,0:0:0:0:
464,52,70550,2,0,L|452:156,1,100,2|2,1:2|1:2,0:0:0:0:
448,200,71024,1,10,3:2:0:0:
312,348,71656,2,0,P|280:344|244:352,1,50,8|2,3:2|2:0,0:0:0:0:
216,364,71971,6,0,L|112:348,1,100,2|10,1:2|3:2,0:0:0:0:
68,340,72445,1,2,1:2:0:0:
68,340,72603,2,0,P|72:280|52:236,1,100,2|8,1:2|3:2,0:0:0:0:
20,208,73077,1,2,1:2:0:0:
48,112,73392,1,2,1:2:0:0:
20,16,73708,2,0,B|128:32|128:32|152:80,1,150,2|10,1:2|3:2,0:0:0:0:
240,28,74498,5,6,1:2:0:0:
328,76,74813,1,10,3:2:0:0:
412,20,75129,2,0,P|428:72|412:132,1,100,2|10,1:2|3:2,0:0:0:0:
392,156,75603,2,0,L|408:280,1,100,2|2,1:2|1:2,0:0:0:0:
408,304,76077,2,0,B|364:328|300:300|324:272|268:248|220:264,1,200,10|8,3:2|3:2,0:0:0:0:
180,288,76866,1,2,2:0:0:0:
180,288,77024,5,2,1:2:0:0:
88,328,77340,1,10,3:2:0:0:
16,260,77656,2,0,P|24:200|12:156,1,100,2|10,1:2|3:2,0:0:0:0:
0,120,78129,1,2,1:2:0:0:
68,48,78445,1,2,1:2:0:0:
148,108,78761,2,0,P|204:132|264:116,1,100,2|2,1:2|1:2,0:0:0:0:
288,108,79235,1,10,3:2:0:0:
280,208,79550,6,0,L|268:328,1,100,6|10,1:2|2:0,0:0:0:0:
412,356,80340,1,2,2:0:0:0:
484,284,80656,2,0,P|500:232|492:184,1,100,2|2,1:2|1:2,0:0:0:0:
476,140,81129,2,0,L|488:72,1,50,10|2,2:0|1:2,0:0:0:0:
452,52,81445,1,2,1:2:0:0:
452,52,81603,2,0,L|512:40,2,50,2|10|2,2:0|2:0|2:0,0:0:0:0:
352,72,82235,5,2,2:0:0:0:
352,72,82392,2,0,P|308:36|256:32,1,100,10|2,2:0|1:2,0:0:0:0:
220,40,82866,1,2,2:0:0:0:
220,40,83024,1,10,2:0:0:0:
124,12,83340,1,2,2:0:0:0:
40,64,83656,2,0,L|48:124,1,50,10|2,2:0|1:2,0:0:0:0:
36,164,83971,2,0,P|24:216|44:272,1,100,2|10,1:2|2:0,0:0:0:0:
68,300,84445,1,2,2:0:0:0:
68,300,84603,5,6,1:2:0:0:
156,348,84919,2,0,L|276:332,1,100,10|2,2:0|1:2,0:0:0:0:
400,364,85708,1,2,1:2:0:0:
484,312,86024,1,2,1:2:0:0:
484,312,86182,2,0,L|472:252,1,50,8|2,2:0|1:2,0:0:0:0:
456,216,86498,2,0,L|468:160,1,50,2|2,1:2|2:0,0:0:0:0:
480,120,86813,1,10,2:0:0:0:
408,52,87129,6,0,P|352:16|300:20,1,100,2|8,1:2|2:0,0:0:0:0:
268,16,87603,1,2,1:2:0:0:
268,16,87761,1,2,1:2:0:0:
176,52,88077,1,8,2:0:0:0:
176,52,88235,2,0,P|188:117|184:156,1,100,4|8,1:2|2:0,0:0:0:0:
240,236,88866,1,0,3:2:0:0:
240,236,89024,2,0,L|228:292,1,50,8|0,3:2|3:2,0:0:0:0:
220,336,89340,1,0,3:2:0:0:
120,356,89656,6,0,P|64:344|32:300,1,100,6|2,3:2|3:2,0:0:0:0:
48,212,90287,2,0,L|60:96,1,100,2|10,3:2|3:2,0:0:0:0:
24,76,90761,1,0,2:0:0:0:
112,28,91077,1,2,2:0:0:0:
204,68,91392,2,0,L|320:52,1,100,2|2,3:2|2:0,0:0:0:0:
352,44,91866,1,10,3:2:0:0:
444,84,92182,5,2,3:2:0:0:
412,180,92498,2,0,P|416:235|448:288,2,100,2|2|10,3:2|3:2|3:2,0:0:0:0:
312,192,93445,1,2,3:2:0:0:
272,284,93761,1,0,3:2:0:0:
212,364,94077,2,0,P|148:344|104:344,1,100,2|10,3:2|3:2,0:0:0:0:
68,360,94550,1,8,3:2:0:0:
68,360,94708,6,0,L|80:248,1,100,6|8,1:2|2:0,0:0:0:0:
148,188,95340,1,8,2:0:0:0:
140,88,95656,1,2,2:0:0:0:
140,88,95813,1,6,1:2:0:0:
220,24,96129,1,2,1:2:0:0:
220,24,96287,2,0,P|272:40|324:32,1,100,10|10,2:0|2:0,0:0:0:0:
412,4,96919,1,10,2:0:0:0:
484,72,97235,6,0,L|492:200,1,100,6|10,1:2|2:0,0:0:0:0:
504,220,97708,1,0,1:2:0:0:
504,220,97866,1,10,2:0:0:0:
404,208,98182,1,2,3:2:0:0:
304,196,98498,1,10,3:2:0:0:
80,32,99761,6,0,L|64:136,1,100,14|8,2:0|2:0,0:0:0:0:
24,168,100235,1,2,1:2:0:0:
24,168,100392,2,0,P|48:224|40:272,1,100,10|8,2:0|2:0,0:0:0:0:
0,352,101024,1,8,2:0:0:0:
96,376,101340,2,0,L|200:360,1,100,10|10,2:0|2:0,0:0:0:0:
232,328,101813,1,2,1:2:0:0:
232,328,101971,2,0,L|296:336,1,50,10|0,2:0|1:0,0:0:0:0:
328,344,102287,6,0,P|368:312|440:312,1,100,6|8,1:2|2:0,0:0:0:0:
464,304,102761,1,2,2:0:0:0:
464,304,102919,1,10,2:0:0:0:
504,216,103235,1,10,2:0:0:0:
440,144,103550,2,0,P|424:88|432:40,1,100,10|8,2:0|2:0,0:0:0:0:
328,64,104182,2,0,L|256:48,1,50,10|0,2:0|1:2,0:0:0:0:
240,16,104498,2,0,L|176:24,1,50,10|0,2:0|1:2,0:0:0:0:
152,56,104813,6,0,B|112:40|112:40|64:64,2,75,14|2|2,2:0|2:0|2:0,0:0:0:0:
172,101,105445,1,10,2:0:0:0:
239,175,105761,1,10,2:0:0:0:
168,248,106077,2,0,B|152:288|152:288|168:328,2,75,10|2|2,2:0|2:0|2:0,0:0:0:0:
216,256,106708,2,0,L|328:272,1,100,10|10,2:0|2:0,0:0:0:0:
360,360,107340,6,0,P|416:336|464:336,1,100,6|10,1:2|2:0,0:0:0:0:
504,336,107813,1,2,1:2:0:0:
504,336,107971,2,0,L|488:272,1,50,10|2,2:0|1:2,0:0:0:0:
480,248,108287,1,10,2:0:0:0:
480,248,108445,1,6,1:2:0:0:
504,152,108761,1,2,1:2:0:0:
504,152,108919,2,0,P|448:128|432:96,1,100,10|10,2:0|2:0,0:0:0:0:
352,32,109550,1,10,2:0:0:0:
264,88,109866,6,0,L|280:192,1,100,6|8,1:2|2:0,0:0:0:0:
312,224,110340,1,2,2:0:0:0:
312,224,110498,2,0,P|272:248|248:304,1,100,10|8,2:0|2:0,0:0:0:0:
176,360,111129,1,8,2:0:0:0:
80,336,111445,2,0,L|64:280,1,50,10|2,2:0|2:0,0:0:0:0:
24,264,111761,2,0,L|32:208,1,50,10|2,2:0|1:2,0:0:0:0:
40,168,112077,1,10,2:0:0:0:
16,72,112392,6,0,P|80:80|128:56,1,100,6|8,1:2|2:0,0:0:0:0:
152,32,112866,1,2,2:0:0:0:
152,32,113024,2,0,L|216:48,1,50,10|0,2:0|1:2,0:0:0:0:
232,80,113340,2,0,L|304:64,1,50,10|0,2:0|1:2,0:0:0:0:
328,80,113656,2,0,B|336:40|336:40|384:32,2,75,10|2|2,2:0|2:0|2:0,0:0:0:0:
328,128,114287,2,0,B|352:160|352:160|400:168,1,75,10|4,2:0|2:3,0:0:0:0:
464,176,114761,1,2,1:2:0:0:
464,176,114919,6,0,L|472:280,1,100,6|0,1:2|0:0,0:0:0:0:
480,328,115392,1,0,1:2:0:0:
480,328,115550,1,10,2:0:0:0:
392,368,115866,1,2,2:0:0:0:
304,312,116182,2,0,B|264:304|264:304|224:320,2,75,10|2|2,3:2|2:0|1:2,0:0:0:0:
320,264,116813,1,10,2:0:0:0:
389,178,117129,2,0,L|379:115,1,50,8|0,2:0|0:0,0:0:0:0:
328,120,117445,6,0,P|280:112|232:72,1,100,6|10,1:2|2:0,0:0:0:0:
216,40,117919,1,2,2:0:0:0:
120,16,118235,2,0,P|96:56|40:88,1,100
8,104,118708,1,6,1:2:0:0:
32,304,119340,2,0,L|152:320,1,100,2|0,3:2|0:0,0:0:0:0:
232,328,119971,5,6,1:2:0:0:
376,352,125656,6,0,P|416:336|448:272,1,100,6|8,1:2|2:0,0:0:0:0:
488,264,126129,2,0,L|480:152,1,100,2|0,1:2|2:0,0:0:0:0:
512,120,126603,2,0,B|456:152|456:152|352:120,1,150,10|2,2:0|1:2,0:0:0:0:
280,8,127550,2,0,L|216:16,1,50,2|2,1:2|2:0,0:0:0:0:
200,56,127866,2,0,L|144:48,1,50,10|0,2:0|2:0,0:0:0:0:
104,40,128182,5,2,1:2:0:0:
104,40,128340,1,2,2:0:0:0:
24,96,128656,1,2,1:2:0:0:
80,176,128971,2,0,L|64:288,1,100,2|2,2:0|1:2,0:0:0:0:
136,344,129603,1,2,1:2:0:0:
136,344,129761,2,0,L|208:328,1,50,10|2,2:0|1:2,0:0:0:0:
208,288,130077,2,0,P|264:280|328:312,1,100,2|10,1:2|2:0,0:0:0:0:
392,344,130708,6,0,L|456:328,1,50,0|0,1:2|2:0,0:0:0:0:
488,320,131024,1,10,2:0:0:0:
512,224,131340,2,0,P|480:176|480:120,1,100,2|8,1:2|2:0,0:0:0:0:
496,88,131813,1,2,1:2:0:0:
416,24,132129,1,2,1:2:0:0:
320,48,132445,1,2,1:2:0:0:
320,48,132603,2,0,L|336:160,1,100,2|10,1:2|3:2,0:0:0:0:
344,248,133235,6,0,P|336:304|288:336,1,100,6|10,1:2|2:0,0:0:0:0:
256,320,133708,1,2,2:0:0:0:
256,320,133866,2,0,L|144:328,1,100,6|10,1:2|2:0,0:0:0:0:
64,360,134498,2,0,L|80:288,1,50,6|0,1:2|1:2,0:0:0:0:
40,280,134813,2,0,L|48:224,1,50,14|0,2:0|1:2,0:0:0:0:
80,192,135129,2,0,P|96:136|88:88,1,100,14|10,2:0|2:0,0:0:0:0:
64,48,135603,1,8,2:0:0:0:
64,48,135761,6,0,P|120:16|176:24,1,100,14|8,2:0|2:0,0:0:0:0:
192,48,136235,1,2,1:2:0:0:
192,48,136392,2,0,L|312:32,1,100,10|8,2:0|2:0,0:0:0:0:
392,24,137024,1,8,2:0:0:0:
472,88,137340,2,0,L|464:160,1,50,10|0,2:0|2:0,0:0:0:0:
440,176,137656,1,10,2:0:0:0:
440,176,137813,2,0,L|448:232,1,50,2|10,1:2|2:0,0:0:0:0:
472,320,138287,6,0,L|368:304,1,100,6|8,1:2|2:0,0:0:0:0:
336,344,138761,1,2,2:0:0:0:
336,344,138919,2,0,P|336:288|296:240,1,100,10|10,2:0|2:0,0:0:0:0:
240,184,139550,1,10,2:0:0:0:
296,104,139866,1,8,2:0:0:0:
224,32,140182,2,0,L|112:48,1,100,10|10,2:0|2:0,0:0:0:0:
40,96,140813,6,0,B|19:68|19:68|27:28,2,75,14|2|2,2:0|2:0|2:0,0:0:0:0:
72,136,141445,1,10,2:0:0:0:
48,232,141761,1,10,2:0:0:0:
104,312,142077,2,0,B|64:328|64:328|48:376,2,75,10|2|2,2:0|2:0|2:0,0:0:0:0:
152,336,142708,2,0,P|200:312|264:328,1,100,10|10,2:0|2:0,0:0:0:0:
336,352,143340,5,6,1:2:0:0:
400,280,143656,2,0,L|392:216,1,50,10|2,2:0|1:2,0:0:0:0:
432,200,143971,1,10,2:0:0:0:
432,200,144129,2,0,L|424:128,1,50,2|10,1:2|2:0,0:0:0:0:
424,104,144445,1,6,1:2:0:0:
328,136,144761,1,2,1:2:0:0:
328,136,144919,2,0,L|272:144,1,50,10|2,2:0|1:2,0:0:0:0:
240,176,145235,2,0,P|200:144|144:136,1,100,10|10,2:0|2:0,0:0:0:0:
56,120,145866,6,0,P|80:72|128:48,1,100,6|8,1:2|2:0,0:0:0:0:
152,16,146340,1,2,2:0:0:0:
152,16,146498,2,0,L|264:32,1,100,10|8,2:0|2:0,0:0:0:0:
360,48,147129,1,8,2:0:0:0:
464,24,147445,2,0,P|480:64|480:88,1,50,10|2,2:0|2:0,0:0:0:0:
456,120,147761,2,0,P|448:168|464:224,1,100,10|10,2:0|2:0,0:0:0:0:
488,320,148392,6,0,L|376:336,1,100,6|8,1:2|2:0,0:0:0:0:
336,344,148866,1,2,2:0:0:0:
336,344,149024,1,10,2:0:0:0:
232,312,149340,1,10,2:0:0:0:
128,344,149656,2,0,B|88:352|88:352|48:336,2,75,10|2|2,2:0|2:0|2:0,0:0:0:0:
112,288,150287,2,0,B|80:256|80:256|88:208,1,75,10|4,2:0|2:3,0:0:0:0:
104,144,150761,1,2,1:2:0:0:
104,144,150919,6,0,B|88:104|88:104|104:56,2,75,6|2|2,1:2|2:0|1:2,0:0:0:0:
160,160,151550,2,0,L|280:184,1,100,10|2,2:0|2:0,0:0:0:0:
368,200,152182,2,0,B|352:232|352:232|368:272,2,75,10|2|2,3:2|2:0|1:2,0:0:0:0:
416,184,152813,2,0,P|456:160|472:96,1,100,10|8,2:0|2:0,0:0:0:0:
464,56,153287,1,2,1:2:0:0:
464,56,153445,6,0,L|392:48,1,50,6|2,1:2|2:0,0:0:0:0:
376,16,153761,1,6,1:2:0:0:
376,16,153919,1,2,2:0:0:0:
264,24,154235,2,0,L|152:8,1,100,2|2,1:2|2:0,0:0:0:0:
112,0,154708,1,2,3:2:0:0:
24,64,155024,1,2,3:2:0:0:
104,136,155340,2,0,P|104:184|72:240,1,100,10|14,3:2|3:2,0:0:0:0:
112,336,155971,6,0,L|216:320,1,100,6|8,1:2|2:0,0:0:0:0:
264,344,156445,1,2,2:0:0:0:
264,344,156603,2,0,P|240:280|248:232,1,100,10|8,2:0|2:0,0:0:0:0:
280,144,157235,1,8,2:0:0:0:
384,120,157550,2,0,L|440:128,1,50,10|0,2:0|2:0,0:0:0:0:
496,136,157866,2,0,L|480:72,2,50,10|2|10,2:0|1:2|2:0,0:0:0:0:
504,248,158498,6,0,P|448:256|408:288,1,100,6|8,1:2|2:0,0:0:0:0:
400,336,158971,1,2,2:0:0:0:
400,336,159129,1,10,2:0:0:0:
288,352,159445,1,10,2:0:0:0:
176,376,159761,2,0,P|136:336|80:320,1,100,10|8,2:0|2:0,0:0:0:0:
16,248,160392,2,0,L|24:184,1,50,10|0,2:0|1:2,0:0:0:0:
72,176,160708,2,0,L|64:104,1,50,10|0,2:0|2:0,0:0:0:0:
80,72,161024,6,0,B|40:80|40:80|0:48,2,75,6|2|2,1:2|2:0|2:0,0:0:0:0:
136,64,161656,1,10,2:0:0:0:
224,0,161971,1,10,2:0:0:0:
312,64,162287,2,0,B|288:104|288:104|304:144,2,75,10|2|2,2:0|2:0|2:0,0:0:0:0:
368,48,162919,2,0,P|384:64|464:88,1,100,10|10,2:0|2:0,0:0:0:0:
496,192,163550,5,6,1:2:0:0:
448,296,163866,2,0,L|384:280,1,50,10|2,2:0|1:2,0:0:0:0:
360,248,164182,1,10,2:0:0:0:
360,248,164340,2,0,L|304:264,1,50,2|10,1:2|2:0,0:0:0:0:
256,272,164656,1,6,1:2:0:0:
176,200,164971,1,2,1:2:0:0:
176,200,165129,2,0,L|104:192,1,50,14|2,2:0|1:2,0:0:0:0:
72,176,165445,2,0,P|80:224|48:280,1,100,10|2,2:0|1:2,0:0:0:0:
112,368,166077,6,0,L|224:352,1,100,6|8,1:2|2:0,0:0:0:0:
256,384,166550,1,2,2:0:0:0:
256,384,166708,2,0,P|304:352|368:352,1,100,10|8,2:0|2:0,0:0:0:0:
456,360,167340,1,8,2:0:0:0:
424,256,167656,2,0,L|440:176,1,50,10|0,2:0|2:0,0:0:0:0:
488,192,167971,2,0,L|480:112,1,50,10|0,2:0|1:2,0:0:0:0:
480,88,168287,1,10,2:0:0:0:
392,24,168603,6,0,P|352:0|288:8,1,100,6|8,1:2|2:0,0:0:0:0:
256,32,169077,1,2,2:0:0:0:
256,32,169235,1,10,2:0:0:0:
160,88,169550,1,10,2:0:0:0:
64,136,169866,2,0,B|32:104|32:104|40:64,2,75,10|2|2,2:0|2:0|2:0,0:0:0:0:
40,184,170498,2,0,B|16:224|16:224|24:272,2,75,10|6|2,2:0|2:3|2:0,0:0:0:0:
80,224,171129,6,0,P|120:208|184:216,1,100,6|0,1:2|0:0,0:0:0:0:
224,232,171603,1,2,1:2:0:0:
224,232,171761,1,10,2:0:0:0:
264,336,172077,1,2,2:0:0:0:
368,296,172392,2,0,B|400:320|400:320|448:312,2,75,2|2|2,1:2|2:0|1:2,0:0:0:0:
344,248,173024,1,10,2:0:0:0:
448,212,173340,2,0,L|442:146,1,50,10|2,2:0|2:0,0:0:0:0:
408,120,173656,6,0,P|352:112|312:64,1,100,6|10,1:2|2:0,0:0:0:0:
288,40,174129,1,2,2:0:0:0:
184,8,174445,2,0,L|168:120,1,100
120,128,174919,2,0,B|96:160|112:256|144:200|160:280|144:328,1,200,6|2,1:2|3:2,0:0:0:0:
40,288,175866,1,0,0:0:0:0:
8,184,176182,5,4,1:2:0:0:
56,88,176498,2,0,L|120:80,1,50,10|2,2:0|1:2,0:0:0:0:
160,72,176813,1,2,1:2:0:0:
160,72,176971,1,2,2:0:0:0:
248,0,177287,1,2,1:2:0:0:
352,48,177603,1,2,1:2:0:0:
448,0,177919,1,2,1:2:0:0:
448,0,178077,2,0,L|464:112,1,100,2|10,1:2|2:0,0:0:0:0:
512,200,178708,6,0,L|496:304,1,100,2|10,1:2|2:0,0:0:0:0:
464,344,179182,1,2,1:2:0:0:
464,344,179340,1,2,1:2:0:0:
368,296,179656,1,8,2:0:0:0:
368,296,179813,2,0,P|312:280|256:296,1,100,2|2,1:2|1:2,0:0:0:0:
168,328,180445,1,2,1:2:0:0:
168,328,180603,2,0,L|184:216,1,100,2|10,1:2|2:0,0:0:0:0:
264,152,181235,6,0,L|248:48,1,100,6|10,1:2|2:0,0:0:0:0:
216,8,181708,1,2,1:2:0:0:
216,8,181866,2,0,P|165:29|106:24,1,100,2|8,1:2|2:0,0:0:0:0:
68,44,182340,1,2,1:2:0:0:
42,150,182656,1,2,1:2:0:0:
104,240,182971,1,2,1:2:0:0:
104,240,183129,2,0,P|88:296|48:336,1,100,2|10,1:2|2:0,0:0:0:0:
168,360,183761,6,0,L|272:344,1,100,6|10,1:2|2:0,0:0:0:0:
320,344,184235,1,0,1:2:0:0:
320,344,184392,2,0,L|446:358,1,100,2|8,1:2|2:0,0:0:0:0:
466,326,184866,2,0,P|434:262|450:214,1,100,2|2,1:3|1:3,0:0:0:0:
487,140,185498,1,2,1:2:0:0:
487,140,185656,1,10,2:0:0:0:
432,40,185971,1,10,2:0:0:0:
324,64,186287,6,0,B|243:89|185:18|185:18|142:98|56:86,1,300,6|0,1:2|0:0,0:0:0:0:
15,79,187392,1,0,0:0:0:0:
15,79,187550,1,4,2:3:0:0:
