osu file format v14

[General]
AudioFilename: audio.mp3
AudioLeadIn: 0
PreviewTime: 134735
Countdown: 0
SampleSet: Soft
StackLeniency: 0.7
Mode: 0
LetterboxInBreaks: 0
WidescreenStoryboard: 1

[Editor]
Bookmarks: 173971
DistanceSpacing: 1
BeatDivisor: 3
GridSize: 4
TimelineZoom: 1.4

[Metadata]
Title:Happy End no Intro ga Kikoeru feat. Panaman
TitleUnicode:ハッピーエンドのイントロが聴こえる feat. ぱなまん
Artist:TOKOTOKO (NishizawasanP)
ArtistUnicode:TOKOTOKO(西沢さんP)
Creator:Nevo
Version:Airin's Hard
Source:
Tags:astronic airincat battle glaceon Mononymous japanese rock jrock j-rock zawaso
BeatmapID:3465363
BeatmapSetID:1327813

[Difficulty]
HPDrainRate:4
CircleSize:3.6
OverallDifficulty:6
ApproachRate:8
SliderMultiplier:1.4
SliderTickRate:1

[Events]
//Background and Video events
0,0,"77225492_p0.jpg",0,0
//Break Periods
2,66919,68063
//Storyboard Layer 0 (Background)
//Storyboard Layer 1 (Fail)
//Storyboard Layer 2 (Pass)
//Storyboard Layer 3 (Foreground)
//Storyboard Layer 4 (Overlay)
//Storyboard Sound Samples

[TimingPoints]
-3817,315.789473684211,4,2,1,60,1,0
1235,-133.333333333333,4,2,1,60,0,0
6288,-100,4,2,1,80,0,0
11261,-100,4,2,1,5,0,0
11340,-100,4,2,1,60,0,0
16393,-100,4,2,1,80,0,0
16708,-100,4,2,1,60,0,0
35972,-105.263157894737,4,2,1,60,0,0
36604,-111.111111111111,4,2,1,50,0,0
41340,-111.111111111111,4,2,1,55,0,0
41656,-100,4,2,1,60,0,0
46709,-95.2380952380952,4,2,1,80,0,0
47025,-95.2380952380952,4,2,1,80,0,1
61867,-100,4,2,1,70,0,0
65656,-166.666666666667,4,2,1,70,0,0
69446,-166.666666666667,4,2,1,50,0,0
69761,-117.647058823529,4,2,1,50,0,0
78761,-117.647058823529,4,2,1,60,0,0
79551,-100,4,2,1,60,0,0
89656,-111.111111111111,4,2,1,50,0,0
94393,-111.111111111111,4,2,1,55,0,0
94709,-100,4,2,1,60,0,0
99761,-95.2380952380952,4,2,1,80,0,1
114919,-95.2380952380952,4,2,1,70,0,0
115551,-100,4,2,1,70,0,0
118709,-142.857142857143,4,2,1,70,0,0
119972,-111.111111111111,4,2,1,70,0,0
125656,315.789473684211,4,2,1,70,1,1
125656,-95.2380952380952,4,2,1,70,0,1
125971,-95.2380952380952,4,2,1,65,0,1
132919,-95.2380952380952,4,2,1,65,0,0
133234,-95.2380952380952,4,2,1,75,0,1
133392,-95.2380952380952,4,2,1,75,0,0
133866,-95.2380952380952,4,2,1,75,0,1
134024,-95.2380952380952,4,2,1,75,0,0
134498,-95.2380952380952,4,2,1,75,0,1
134656,-95.2380952380952,4,2,1,75,0,0
135761,-95.2380952380952,4,2,1,80,0,1
150919,-105.263157894737,4,2,1,70,0,0
153445,-105.263157894737,4,2,1,80,0,0
155971,-95.2380952380952,4,2,1,80,0,1
171129,-105.263157894737,4,2,1,70,0,0
174919,-133.333333333334,4,2,1,70,0,0
176182,-133.333333333334,4,2,1,60,0,0
176498,-100,4,2,1,60,0,0

[Colours]
Combo1 : 248,211,3
Combo2 : 255,100,100
Combo3 : 66,137,255
Combo4 : 136,136,136

[HitObjects]
5,298,446,6,0,L|1:263,2,35,8|8|8,2:0|2:0|1:2,2:0:0:0:
82,350,761,2,0,P|116:342|150:336,1,70,0|0,1:2|1:2,2:0:0:0:
212,268,1077,1,0,1:2:0:0:
278,331,1235,2,0,P|349:359|416:323,1,157.5,10|2,1:2|1:2,2:0:0:0:
158,11,3604,5,0,1:2:0:0:
88,54,3761,2,0,P|78:126|68:221,1,157.5,6|2,1:2|1:2,2:0:0:0:
131,283,4393,1,2,1:2:0:0:
131,283,4867,1,2,1:2:0:0:
280,198,5183,1,2,1:2:0:0:
413,295,5498,1,2,1:2:0:0:
478,233,5656,5,10,3:2:0:0:
478,233,5814,1,10,3:2:0:0:
261,358,6288,6,0,P|205:318|137:326,1,140,6|10,1:2|2:0,2:0:0:0:
57,359,6761,1,2,1:2:0:0:
11,289,6919,2,0,P|20:251|27:219,1,70,2|2,1:2|2:0,2:0:0:0:
98,173,7235,1,8,2:0:0:0:
169,228,7393,2,0,P|206:237|241:243,1,70,2|0,1:2|2:0,2:0:0:0:
309,299,7709,2,0,P|346:290|381:284,1,70,2|8,1:2|2:0,2:0:0:0:
457,327,8025,1,2,1:2:0:0:
509,258,8183,2,0,P|503:223|495:189,1,70,2|2,1:2|2:0,2:0:0:0:
422,143,8498,1,10,2:0:0:0:
468,0,8814,5,0,1:2:0:0:
468,0,9130,2,0,P|441:7|395:19,1,70,10|2,2:0|1:2,2:0:0:0:
341,82,9446,1,2,1:2:0:0:
258,67,9604,2,0,P|246:34|238:0,1,70,2|8,2:0|2:0,2:0:0:0:
152,40,9919,2,0,P|84:39|47:95,1,140,2|2,1:2|1:2,2:0:0:0:
5,172,10393,2,0,P|13:200|18:240,1,70,8|2,2:0|1:2,2:0:0:0:
105,297,10709,1,2,1:2:0:0:
105,297,11025,2,2,B|151:318|151:318|168:298|191:282,1,105,10|0,2:0|2:0,2:1:0:0:
199,272,11340,6,0,L|283:291,1,70,4|0,1:2|2:0,2:0:0:0:
363,265,11656,2,0,P|356:299|352:334,1,70,10|2,2:0|1:2,2:0:0:0:
429,384,11972,1,2,1:2:0:0:
510,333,12130,2,0,P|500:299|498:264,1,70,2|8,2:0|2:0,2:0:0:0:
427,182,12446,6,0,B|435:109|471:123|477:53,1,140,2|2,1:2|1:2,2:0:0:0:
410,0,12919,1,8,2:0:0:0:
345,66,13077,1,2,1:2:0:0:
279,0,13235,2,0,P|249:6|207:15,1,70,2|2,1:2|2:0,2:0:0:0:
135,64,13551,2,0,P|102:54|63:49,1,70,10|2,2:0|2:0,2:0:0:0:
183,145,13867,5,4,1:2:0:0:
183,145,14183,2,0,P|172:180|165:225,1,70,10|2,2:0|1:2,2:0:0:0:
223,278,14498,2,0,P|258:283|296:295,1,70,2|2,1:2|1:2,2:0:0:0:
356,228,14814,1,8,2:0:0:0:
419,289,14972,5,2,1:3:0:0:
246,384,15288,2,0,P|213:376|166:370,1,70,2|0,1:3|2:0,2:0:0:0:
118,306,15604,1,2,1:2:0:0:
48,352,15761,1,8,2:0:0:0:
11,129,16077,1,10,2:0:0:0:
11,129,16393,6,0,P|78:145|138:113,1,140,4|10,1:2|2:0,2:0:0:0:
201,43,16867,1,0,1:2:0:0:
256,117,17025,2,0,P|242:185|234:255,1,140,2|10,1:2|2:0,2:0:0:0:
307,322,17498,1,2,1:2:0:0:
307,322,17814,1,2,1:2:0:0:
388,292,17972,2,0,P|423:296|462:307,1,70,10|0,2:0|1:2,2:0:0:0:
511,233,18288,2,0,P|467:180|484:111,1,140,0|8,1:2|2:0,2:0:0:0:
424,40,18761,1,2,2:0:0:0:
352,96,18919,6,0,P|319:102|277:110,1,70,2|2,1:2|2:0,2:0:0:0:
229,181,19235,2,0,P|196:174|154:167,1,70,10|2,2:0|1:2,2:0:0:0:
96,108,19551,1,2,1:2:0:0:
13,135,19709,2,0,P|4:168|0:203,1,70,2|8,2:0|2:0,2:0:0:0:
51,287,20025,2,0,P|113:312|171:278,2,140,2|2|2,1:2|1:2|1:2,2:0:0:0:
106,224,20814,2,0,P|112:187|119:155,1,70,0|2,1:2|2:0,2:0:0:0:
195,95,21130,1,10,2:0:0:0:
195,95,21446,6,0,P|252:131|317:110,1,140,6|10,1:2|2:0,2:0:0:0:
382,52,21919,1,0,1:2:0:0:
451,108,22077,2,0,P|459:178|465:247,1,140,2|10,1:2|2:0,2:0:0:0:
395,308,22551,1,2,1:2:0:0:
395,308,22867,1,2,1:2:0:0:
314,273,23025,2,0,P|276:277|238:289,1,70,10|0,2:0|1:2,2:0:0:0:
180,353,23340,2,0,B|104:344|124:316|47:308,1,140,0|8,1:2|2:0,2:0:0:0:
6,230,23814,1,2,2:0:0:0:
70,163,23972,6,0,P|63:127|57:90,1,70,2|2,1:2|2:0,2:0:0:0:
151,70,24288,2,0,P|157:105|164:143,1,70,10|2,2:0|1:2,2:0:0:0:
242,181,24604,1,2,1:2:0:0:
312,119,24761,2,0,P|353:107|400:104,1,70,2|10,2:0|2:0,2:0:0:0:
462,151,25077,5,6,1:2:0:0:
323,284,25393,2,0,P|330:318|336:353,1,70,2|12,1:2|2:0,2:0:0:0:
423,269,25709,2,0,P|429:303|436:337,2,70,2|12|2,1:2|2:0|1:2,2:0:0:0:
362,198,26183,2,0,L|353:144,3,35,8|8|8|8,3:2|3:2|3:2|3:2,2:0:0:0:
322,132,26498,6,0,P|291:138|240:147,1,70,6|0,1:2|2:0,2:0:0:0:
169,100,26814,2,0,B|104:113|115:142|47:165,1,140,10|0,2:0|1:2,2:0:0:0:
0,238,27288,2,0,P|6:273|11:315,1,70,2|8,2:0|2:0,2:0:0:0:
95,291,27604,2,0,B|166:312|134:334|212:364,1,140,2|2,1:2|1:2,2:0:0:0:
303,345,28077,2,0,P|309:307|316:274,1,70,10|2,2:0|1:2,2:0:0:0:
390,214,28393,2,0,P|424:217|472:235,2,70,2|2|10,1:2|2:0|2:0,2:0:0:0:
307,155,28867,6,0,P|275:94|313:35,1,140,2|2,2:0|2:0,2:0:0:0:
385,0,29340,2,0,P|424:7|461:12,1,70,10|2,2:0|1:2,2:0:0:0:
512,79,29656,1,2,1:2:0:0:
512,79,29814,1,2,2:0:0:0:
452,142,29972,2,0,P|446:174|445:218,1,70,10|2,2:0|1:2,2:0:0:0:
372,276,30288,2,0,P|336:268|292:267,1,70,2|2,2:0|1:2,2:0:0:0:
228,211,30604,2,0,P|192:218|148:220,1,70,10|2,2:0|1:2,2:0:0:0:
76,271,30919,2,0,P|34:217|47:151,1,140,2|10,1:2|2:0,2:0:0:0:
26,64,31393,1,2,2:0:0:0:
110,33,31551,5,6,1:2:0:0:
110,33,31867,2,0,P|150:24|187:20,1,70,10|0,2:0|1:2,2:0:0:0:
258,57,32183,2,0,B|328:71|304:108|378:122,1,140,2|8,1:2|2:0,2:0:0:0:
476,100,32656,2,0,P|470:134|466:169,1,70,2|0,1:2|2:0,2:0:0:0:
392,228,32972,2,0,B|322:242|346:279|271:293,1,140,2|2,1:2|1:2,2:0:0:0:
271,293,33367,1,2,2:0:0:0:
271,293,33446,2,0,P|231:283|197:280,1,70,2|2,1:2|2:0,2:0:0:0:
143,211,33761,2,0,P|114:219|68:229,1,70,10|2,2:0|2:0,2:0:0:0:
4,173,34077,6,0,P|22:240|33:309,1,140,2|8,1:2|2:0,2:0:0:0:
95,368,34551,1,2,1:2:0:0:
186,366,34709,2,0,B|273:361|241:322|316:323,1,140,2|8,1:2|2:0,2:0:0:0:
409,343,35183,5,4,1:2:0:0:
284,212,35498,1,8,2:0:0:0:
459,137,35814,1,0,3:2:0:0:
459,137,35893,1,0,2:0:0:0:
459,137,35972,2,0,L|443:62,1,66.4999999999999,8|0,3:2|3:2,2:0:0:0:
371,20,36288,1,0,3:2:0:0:
371,20,36604,6,0,P|307:32|241:43,1,126,6|2,3:2|3:2,2:0:0:0:
172,7,37077,1,2,3:2:0:0:
112,62,37235,2,0,P|123:123|134:185,1,126,2|10,3:2|3:2,2:0:0:0:
67,234,37709,2,0,P|62:263|56:315,1,63.0000000000001,2|0,2:0|3:2,2:0:0:0:
109,360,38025,2,0,P|139:353|175:344,1,63.0000000000001,2|0,2:0|3:2,2:0:0:0:
241,304,38340,2,0,B|309:311|296:337|358:346,1,126,2|2,3:2|2:0,2:0:0:0:
436,315,38814,1,10,3:2:0:0:
436,315,39130,6,0,P|466:256|431:198,2,126,2|2|2,3:2|3:2|3:2,2:0:0:0:
271,218,40077,2,0,P|275:186|282:156,1,63.0000000000001,10|0,3:2|2:0,2:0:0:0:
232,91,40393,2,0,P|292:109|354:115,1,126,0|0,3:2|3:2,2:0:0:0:
422,67,40867,1,0,3:2:0:0:
477,127,41025,2,0,P|470:156|465:193,1,63.0000000000001,2|0,3:2|2:0,2:0:0:0:
407,252,41340,2,0,L|416:288,3,31.5,10|8|8|8,3:2|3:2|3:2|3:2,2:0:0:0:
458,316,41656,6,0,P|389:328|322:350,1,140,6|8,1:2|2:0,2:0:0:0:
186,265,42288,1,8,2:0:0:0:
243,204,42446,1,0,1:2:0:0:
243,204,42761,2,0,P|237:139|220:58,1,140,6|2,1:2|1:2,2:0:0:0:
145,16,43235,2,0,P|78:8|36:61,1,140,10|10,2:0|2:0,2:0:0:0:
54,143,43709,1,2,1:2:0:0:
2,208,43867,2,0,P|8:241|16:278,1,70,10|0,2:0|1:2,2:0:0:0:
90,338,44183,6,0,L|158:318,1,70,6|0,1:2|2:0,2:0:0:0:
209,248,44498,2,0,L|277:268,1,70,10|0,2:0|1:2,2:0:0:0:
340,335,44814,2,0,L|408:315,1,70,10|0,2:0|1:2,2:0:0:0:
446,230,45130,2,0,L|514:250,1,70,2|0,3:2|3:2,2:0:0:0:
512,349,45446,1,10,3:2:0:0:
98,6,46709,6,0,P|88:78|77:151,1,147,14|8,2:0|2:0,2:0:0:0:
135,228,47183,1,2,1:2:0:0:
223,190,47340,2,0,B|304:197|285:227|356:246,1,147,10|8,2:0|2:0,2:0:0:0:
446,277,47814,1,0,1:2:0:0:
502,211,47972,1,8,2:0:0:0:
502,211,48288,2,0,P|493:176|485:135,1,73.5,10|0,2:0|2:0,2:0:0:0:
512,60,48604,1,10,2:0:0:0:
512,60,48761,1,2,1:2:0:0:
438,9,48919,2,0,P|408:20|364:33,1,73.5,10|0,2:0|1:2,2:0:0:0:
302,90,49235,6,0,B|220:84|246:48|168:34,1,147,6|8,1:2|2:0,2:0:0:0:
84,2,49709,1,2,2:0:0:0:
33,83,49867,2,0,P|40:117|46:165,1,73.5,10|0,2:0|1:2,2:0:0:0:
114,215,50183,2,0,P|106:249|101:297,1,73.5,10|0,2:0|1:2,2:0:0:0:
25,310,50498,2,0,B|107:306|92:351|164:348,1,147,10|8,2:0|2:0,2:0:0:0:
377,238,51130,2,0,L|365:312,1,73.5,10|0,2:0|1:2,2:0:0:0:
270,288,51446,2,0,L|282:214,1,73.5,10|0,2:0|2:0,2:0:0:0:
366,141,51761,6,0,P|418:155|480:162,2,110.25,14|2|2,2:0|2:0|2:0,2:0:0:0:
298,79,52393,2,0,P|299:42|305:6,1,73.5,10|0,2:0|1:2,2:0:0:0:
392,44,52709,1,10,2:0:0:0:
215,157,53025,2,0,P|162:141|107:140,2,110.25,10|2|2,2:0|2:0|2:0,2:0:0:0:
286,226,53656,2,0,P|280:262|277:298,1,73.5,10|0,2:0|1:2,2:0:0:0:
344,358,53972,2,0,P|385:361|417:365,1,73.5,10|0,2:0|2:0,2:0:0:0:
504,315,54288,5,6,1:2:0:0:
504,315,54604,2,0,P|509:278|512:242,1,73.5,10|2,2:0|1:2,2:0:0:0:
462,176,54919,2,0,P|426:168|387:166,1,73.5,10|2,2:0|1:2,2:0:0:0:
314,226,55235,1,10,2:0:0:0:
242,170,55393,5,6,1:2:0:0:
389,68,55709,1,2,1:2:0:0:
330,12,55867,2,0,P|301:9|254:-1,1,73.5,10|2,2:0|1:2,2:0:0:0:
203,65,56183,1,10,2:0:0:0:
117,84,56340,1,2,1:2:0:0:
47,47,56498,1,10,2:0:0:0:
47,47,56814,6,0,P|98:95|93:166,1,147,6|8,1:2|2:0,2:0:0:0:
30,227,57288,1,2,2:0:0:0:
93,288,57446,2,0,B|165:297|151:334|227:343,1,147,10|8,2:0|2:0,2:0:0:0:
315,300,57919,1,0,1:2:0:0:
269,229,58077,1,8,2:0:0:0:
269,229,58393,2,0,P|275:187|278:147,1,73.5,10|2,2:0|2:0,2:0:0:0:
343,90,58709,1,10,2:0:0:0:
343,90,58867,1,2,1:2:0:0:
402,148,59025,2,0,P|440:154|484:165,1,73.5,10|0,2:0|1:2,2:0:0:0:
512,259,59340,6,0,P|441:266|406:328,1,147,6|8,1:2|2:0,2:0:0:0:
321,374,59814,1,2,2:0:0:0:
247,312,59972,2,0,P|250:274|259:227,1,73.5,10|0,2:0|1:2,2:0:0:0:
327,179,60288,2,0,P|318:139|310:98,1,73.5,10|0,2:0|1:2,2:0:0:0:
253,30,60604,6,0,P|307:21|364:9,2,110.25,10|2|2,2:0|2:0|2:0,2:0:0:0:
194,98,61235,1,10,2:0:0:0:
116,65,61393,1,4,2:3:0:0:
116,65,61472,1,4,2:3:0:0:
116,65,61551,2,0,P|81:72|31:84,1,73.5,4|2,2:3|1:2,2:0:0:0:
0,162,61867,6,0,P|16:211|21:263,1,105,6|2,1:2|2:0,2:0:0:0:
113,355,62340,1,2,1:2:0:0:
178,300,62498,2,0,B|238:294|252:323|313:328,1,140,10|2,2:0|2:0,2:0:0:0:
408,292,62972,1,0,1:0:0:0:
408,292,63051,1,0,1:0:0:0:
408,292,63130,2,0,P|416:236|429:187,2,105,10|2|2,3:2|2:0|1:2,2:0:0:0:
485,349,63761,1,10,2:0:0:0:
319,233,64077,2,0,P|324:199|334:159,1,70,8|2,2:0|1:2,2:0:0:0:
400,89,64393,6,0,P|437:94|475:106,2,70,6|2|10,1:2|2:0|2:0,2:0:0:0:
351,13,64867,1,2,2:0:0:0:
288,66,65025,2,0,L|239:53,2,46.6666666666667,8|8|8,3:0|3:0|3:0,2:0:0:0:
211,19,65340,2,0,L|162:29,2,46.6666666666667,8|4|4,3:0|3:0|3:0,2:0:0:0:
133,63,65656,6,0,P|148:145|156:229,1,168,6|2,1:2|3:2,2:0:0:0:
11,362,68814,5,8,2:0:0:0:
71,188,69130,1,8,2:0:0:0:
210,299,69446,1,6,1:2:0:0:
210,299,69761,6,0,L|286:282,1,59.5000000000002,10|0,3:2|1:2,2:0:0:0:
323,214,70077,2,0,P|380:231|455:238,1,119,2|10,1:2|3:2,2:0:0:0:
506,189,70551,2,0,P|508:153|516:117,1,59.5000000000002,2|0,1:2|1:2,2:0:0:0:
471,51,70867,1,2,1:2:0:0:
393,90,71025,2,0,P|364:86|324:79,1,59.5000000000002,10|0,3:2|1:2,2:0:0:0:
264,28,71340,2,0,P|207:19|163:56,1,119,0|8,1:2|3:2,2:0:0:0:
85,88,71814,1,2,2:0:0:0:
85,88,71893,1,0,1:2:0:0:
85,88,71972,6,0,P|90:117|96:148,1,59.5000000000002,2|2,1:2|2:0,2:0:0:0:
174,182,72288,2,0,P|168:207|163:244,1,59.5000000000002,10|2,3:2|1:2,2:0:0:0:
89,292,72604,1,2,1:2:0:0:
89,292,72761,2,0,P|94:317|100:354,1,59.5000000000002,2|8,2:0|3:2,2:0:0:0:
186,380,73077,2,0,P|241:358|300:356,1,119,2|2,1:2|1:2,2:0:0:0:
354,295,73551,1,8,3:2:0:0:
417,353,73709,2,0,P|474:346|502:297,1,119,2|2,1:2|2:0,2:0:0:0:
490,208,74183,1,10,3:2:0:0:
490,208,74498,6,0,P|442:197|371:183,1,119,6|10,1:2|3:2,2:0:0:0:
302,226,74972,1,0,1:2:0:0:
246,161,75130,2,0,P|249:128|258:91,2,59.5000000000002,2|0|10,1:2|2:0|3:2,2:0:0:0:
184,229,75604,2,0,P|131:253|78:229,1,119,2|2,1:2|1:2,2:0:0:0:
2,176,76077,2,0,P|7:146|10:113,1,59.5000000000002,10|0,3:2|1:2,2:0:0:0:
60,42,76393,2,0,B|125:49|108:66|172:78,1,119,0|8,1:2|3:2,2:0:0:0:
256,133,76867,1,2,2:0:0:0:
256,133,76946,1,0,1:2:0:0:
256,133,77025,6,0,L|325:112,1,59.5000000000002,2|2,1:2|2:0,2:0:0:0:
352,38,77340,2,0,L|418:47,1,59.5000000000002,10|2,3:2|1:2,2:0:0:0:
490,94,77656,2,0,L|482:162,1,59.5000000000002,2|2,1:2|2:0,2:0:0:0:
411,204,77972,1,10,3:2:0:0:
483,258,78130,5,2,1:2:0:0:
339,357,78446,2,0,L|275:348,1,59.5000000000002,2|8,1:2|3:2,2:0:0:0:
217,290,78761,1,2,1:2:0:0:
217,290,78840,1,0,1:2:0:0:
217,290,78919,2,0,L|231:222,1,59.5000000000002,0|2,1:2|1:2,2:0:0:0:
305,173,79235,1,10,3:2:0:0:
305,173,79393,1,2,1:2:0:0:
243,100,79551,6,0,P|210:94|169:84,1,70,6|0,1:2|2:0,2:0:0:0:
90,127,79867,2,0,B|90:200|47:184|42:255,1,140,10|0,2:0|1:2,2:0:0:0:
98,332,80340,2,0,P|133:337|169:350,1,70,2|8,2:0|2:0,2:0:0:0:
268,340,80656,2,0,B|268:267|225:283|220:211,1,140,2|2,1:2|1:2,2:0:0:0:
288,143,81130,2,0,P|322:149|364:158,1,70,10|2,2:0|1:2,2:0:0:0:
434,108,81446,2,0,P|439:71|442:34,2,70,2|2|10,1:2|2:0|2:0,2:0:0:0:
494,178,81919,6,0,P|475:245|473:315,1,140,2|2,2:0|2:0,2:0:0:0:
407,373,82393,2,0,P|373:364|338:361,1,70,10|2,2:0|1:2,2:0:0:0:
275,298,82709,1,2,1:2:0:0:
275,298,82867,1,2,2:0:0:0:
198,351,83025,2,0,P|166:357|127:367,1,70,10|2,2:0|1:2,2:0:0:0:
52,330,83340,2,0,P|46:295|35:253,1,70,2|2,2:0|1:2,2:0:0:0:
112,211,83656,2,0,P|118:176|129:134,1,70,10|2,2:0|1:2,2:0:0:0:
63,84,83972,2,0,P|131:100|200:110,1,140,2|10,1:2|2:0,2:0:0:0:
275,66,84446,1,2,2:0:0:0:
348,132,84604,5,6,1:2:0:0:
348,132,84919,2,0,P|340:167|335:209,1,70,10|0,2:0|1:2,2:0:0:0:
268,259,85235,2,0,B|215:212|215:212|154:246,1,140,2|8,1:2|2:0,2:0:0:0:
94,190,85709,2,0,P|110:258|122:327,1,140,2|2,1:2|1:2,2:0:0:0:
205,373,86183,1,8,2:0:0:0:
205,373,86340,1,2,1:2:0:0:
282,336,86498,2,0,P|316:340|363:351,1,70,2|2,1:2|2:0,2:0:0:0:
424,295,86814,1,10,2:0:0:0:
424,295,87130,6,0,P|452:233|422:172,1,140,2|8,1:2|2:0,2:0:0:0:
468,92,87604,1,2,1:2:0:0:
395,56,87761,2,0,B|330:64|346:91|268:111,1,140,2|8,1:2|2:0,2:0:0:0:
186,73,88235,5,4,1:2:0:0:
305,220,88551,1,8,2:0:0:0:
143,305,88867,1,0,3:2:0:0:
143,305,88946,1,0,3:0:0:0:
143,305,89025,2,0,L|68:285,1,70,8|0,3:2|3:2,2:0:0:0:
26,207,89340,1,0,3:2:0:0:
26,207,89656,6,0,P|52:151|38:91,2,126,6|2|2,3:2|3:2|3:2,2:0:0:0:
144,362,90604,2,0,P|177:352|211:344,1,63.0000000000001,10|0,3:2|2:0,2:0:0:0:
258,284,90919,2,0,P|320:293|380:310,1,126,0|0,3:2|3:2,2:0:0:0:
464,281,91393,2,0,P|498:230|484:170,1,126,2|2,3:2|2:0,2:0:0:0:
420,110,91867,1,10,3:2:0:0:
420,110,92183,6,0,P|358:123|295:130,2,126,2|2|2,3:2|3:2|3:2,2:0:0:0:
388,289,93130,2,0,P|357:279|326:274,1,63.0000000000001,10|0,3:2|2:0,2:0:0:0:
255,223,93446,2,0,B|191:233|210:257|142:274,1,126,2|0,3:2|3:2,2:0:0:0:
71,315,93919,1,0,3:2:0:0:
8,255,94077,2,0,L|21:190,1,63.0000000000001,2|0,3:2|2:0,2:0:0:0:
98,131,94393,2,0,L|91:88,3,31.5,10|8|8|8,3:2|3:2|3:2|3:2,2:0:0:0:
63,61,94709,6,0,P|128:83|189:47,1,140,6|8,1:2|2:0,2:0:0:0:
373,164,95340,1,8,2:0:0:0:
392,85,95498,1,0,1:2:0:0:
392,85,95814,2,0,P|324:82|281:134,1,140,6|2,1:2|1:2,2:0:0:0:
201,158,96288,2,0,P|207:190|212:229,1,70,10|2,2:0|2:0,2:0:0:0:
296,262,96604,2,0,P|290:293|286:335,1,70,10|0,2:0|1:2,2:0:0:0:
214,378,96919,2,0,P|183:370|143:364,1,70,10|0,2:0|1:2,2:0:0:0:
46,334,97235,6,0,P|113:334|159:284,2,140,6|10|10,1:2|2:0|2:0,2:0:0:0:
8,261,98025,1,0,1:2:0:0:
63,200,98183,2,0,P|52:166|46:130,1,70,2|0,3:2|3:2,2:0:0:0:
87,57,98498,1,10,3:2:0:0:
182,350,99761,6,0,P|231:299|300:309,1,147,14|8,2:0|2:0,2:0:0:0:
378,352,100235,1,2,1:2:0:0:
425,284,100393,2,0,P|407:207|393:121,1,147,10|8,2:0|2:0,2:0:0:0:
431,59,100867,1,0,1:2:0:0:
352,8,101025,1,8,2:0:0:0:
352,8,101340,2,0,P|315:18|273:29,1,73.5,10|0,2:0|2:0,2:0:0:0:
231,102,101656,1,10,2:0:0:0:
231,102,101814,1,2,1:2:0:0:
144,73,101972,2,0,P|134:35|126:-6,1,73.5,10|0,2:0|1:0,2:0:0:0:
85,141,102288,6,0,P|19:167|6:236,1,147,6|8,1:2|2:0,2:0:0:0:
20,331,102761,1,2,2:0:0:0:
99,299,102919,2,0,P|137:307|173:312,1,73.5,10|0,2:0|1:2,2:0:0:0:
240,368,103235,2,0,P|279:356|315:349,1,73.5,10|0,2:0|1:2,2:0:0:0:
369,281,103551,2,0,B|358:203|327:234|317:145,1,147,10|8,2:0|2:0,2:0:0:0:
487,3,104183,2,0,P|480:39|477:75,1,73.5,10|0,2:0|1:2,2:0:0:0:
488,169,104498,2,0,P|456:161|412:154,1,73.5,10|0,2:0|1:2,2:0:0:0:
317,145,104814,6,0,P|326:80|338:32,2,110.25,14|2|2,2:0|2:0|2:0,2:0:0:0:
234,187,105446,2,0,P|200:176|160:168,1,73.5,10|0,2:0|1:2,2:0:0:0:
116,97,105761,1,10,2:0:0:0:
0,244,106077,1,10,2:0:0:0:
64,295,106235,2,0,P|59:326|51:371,2,73.5,2|8|2,2:0|2:0|2:0,2:0:0:0:
148,260,106709,2,0,P|182:266|219:273,1,73.5,10|0,2:0|1:2,2:0:0:0:
293,327,107025,2,0,P|326:316|370:310,1,73.5,10|0,2:0|1:2,2:0:0:0:
421,227,107340,5,6,1:2:0:0:
421,227,107656,2,0,P|414:190|406:148,1,73.5,10|2,2:0|1:2,2:0:0:0:
333,108,107972,2,0,P|296:113|260:121,1,73.5,10|2,2:0|1:2,2:0:0:0:
198,194,108288,1,10,2:0:0:0:
144,130,108446,5,6,1:2:0:0:
318,255,108761,1,2,1:2:0:0:
285,337,108919,2,0,P|248:344|203:353,1,73.5,10|2,2:0|1:2,2:0:0:0:
140,304,109235,1,10,2:0:0:0:
74,364,109393,1,2,1:2:0:0:
0,317,109551,1,10,2:0:0:0:
9,159,109867,6,0,P|78:144|130:192,1,147,6|8,1:2|2:0,2:0:0:0:
176,270,110340,1,2,2:0:0:0:
256,230,110498,2,0,B|332:232|311:268|390:282,1,147,10|8,2:0|2:0,2:0:0:0:
476,304,110972,1,0,1:2:0:0:
496,217,111130,1,8,2:0:0:0:
496,217,111446,2,0,P|483:181|476:143,1,73.5,10|2,2:0|2:0,2:0:0:0:
399,103,111761,1,10,2:0:0:0:
399,103,111919,1,2,1:2:0:0:
342,171,112077,2,0,P|307:177|261:196,1,73.5,10|0,2:0|1:2,2:0:0:0:
161,194,112393,6,0,P|114:143|131:74,1,147,6|8,1:2|2:0,2:0:0:0:
194,16,112867,1,2,2:0:0:0:
269,62,113025,2,0,P|304:56|349:47,1,73.5,10|0,2:0|1:2,2:0:0:0:
423,87,113340,2,0,P|431:124|437:166,1,73.5,10|0,2:0|1:2,2:0:0:0:
493,234,113656,6,0,P|476:276|461:347,2,110.25,10|2|2,2:0|2:0|2:0,2:0:0:0:
436,159,114288,1,10,2:0:0:0:
357,208,114446,1,4,2:3:0:0:
357,208,114525,1,4,2:3:0:0:
357,208,114604,2,0,P|324:198|278:187,1,73.5,4|2,2:3|1:2,2:0:0:0:
224,115,114919,6,0,P|163:128|110:142,1,110.25,6|2,1:2|2:0,2:0:0:0:
36,238,115393,1,0,1:2:0:0:
85,308,115551,2,0,B|149:315|136:353|213:368,1,140,10|2,2:0|2:0,2:0:0:0:
373,283,116183,2,0,P|382:236|398:157,2,105,10|2|2,3:2|2:0|1:2,2:0:0:0:
414,361,116814,1,10,2:0:0:0:
246,257,117130,1,8,2:0:0:0:
393,180,117446,6,0,P|431:189|468:198,1,70,6|2,1:2|2:0,2:0:0:0:
483,110,117761,2,0,P|445:101|408:92,1,70,10|2,2:0|2:0,2:0:0:0:
338,24,118077,2,0,L|290:33,2,46.6666666666667,8|8|8,3:0|3:0|3:0,3:0:0:0:
256,73,118393,2,0,L|206:61,2,46.6666666666667,8|4|4,3:0|3:0|3:0,3:0:0:0:
168,34,118709,6,0,P|96:96|106:189,1,196,6|2,1:2|3:2,2:0:0:0:
453,327,119972,6,0,P|390:336|329:351,1,126,6|8,1:2|2:0,2:0:0:0:
329,351,121077,1,2,1:2:0:0:
268,299,121235,2,0,P|259:234|243:169,1,126,2|8,1:2|2:0,2:0:0:0:
245,175,122340,1,2,1:2:0:0:
298,113,122498,2,0,P|359:100|418:78,1,126,2|8,1:2|2:0,2:0:0:0:
489,126,122972,1,2,1:2:0:0:
463,206,123130,2,0,P|401:218|342:240,1,126,2|8,1:2|2:0,2:0:0:0:
291,305,123604,1,2,1:2:0:0:
374,322,123761,5,6,1:2:0:0:
273,180,124077,1,2,1:2:0:0:
150,323,124393,1,2,1:2:0:0:
26,176,124709,1,2,1:2:0:0:
26,176,125656,6,0,B|67:160|99:177|99:177|116:212|154:219,1,147,6|8,1:2|2:0,2:0:0:0:
230,174,126129,1,2,1:2:0:0:
312,216,126287,2,0,B|365:265|365:265|334:332,1,147,2|10,1:2|2:0,2:0:0:0:
260,378,126761,2,0,B|180:380|194:343|119:342,1,147,2|2,1:2|1:2,2:0:0:0:
38,360,127234,1,8,2:0:0:0:
122,200,127550,6,0,P|117:167|108:126,1,73.5,2|2,1:2|2:0,2:0:0:0:
152,52,127866,2,0,B|195:16|195:16|243:40,1,110.25,10|0,2:0|2:0,2:0:0:0:
243,40,128182,1,2,1:2:0:0:
340,68,128340,2,0,P|381:59|422:43,1,73.5,2|8,2:0|2:0,2:0:0:0:
320,166,128656,2,0,P|329:238|350:309,1,147,2|2,1:2|2:0,2:0:0:0:
438,334,129129,1,8,2:0:0:0:
512,279,129287,2,0,P|500:206|479:136,1,147,2|2,1:2|1:2,2:0:0:0:
397,108,129761,1,10,2:0:0:0:
397,108,129919,1,2,1:2:0:0:
406,203,130077,5,2,1:2:0:0:
241,67,130392,1,10,2:0:0:0:
241,67,130708,2,0,P|211:75|159:89,1,73.5,0|0,1:2|2:0,2:0:0:0:
119,162,131024,2,0,P|129:193|137:237,1,73.5,10|2,2:0|1:2,2:0:0:0:
104,316,131340,1,2,1:2:0:0:
104,316,131498,2,0,P|65:327|19:338,1,73.5,2|8,2:0|2:0,2:0:0:0:
194,342,131813,6,0,B|276:339|253:378|333:382,1,147,2|2,1:2|1:2,2:0:0:0:
406,322,132287,1,8,2:0:0:0:
476,371,132445,1,2,1:2:0:0:
406,322,132603,2,0,B|373:256|373:256|425:197,1,147,2|10,1:2|3:2,2:0:0:0:
421,201,133234,6,0,P|350:208|298:159,1,147,6|10,1:2|2:0,2:0:0:0:
258,86,133708,1,2,2:0:0:0:
179,122,133866,2,0,P|143:115|108:104,2,73.5,6|0|10,1:2|2:0|2:0,2:0:0:0:
218,202,134340,1,2,2:0:0:0:
157,266,134498,1,6,1:2:0:0:
157,266,134656,1,0,1:2:0:0:
220,330,134813,2,0,P|258:317|301:310,1,73.5,14|0,2:0|1:2,2:0:0:0:
347,244,135129,2,0,P|381:254|436:264,1,73.5,14|2,2:0|2:0,2:0:0:0:
491,205,135445,2,0,L|499:164,3,36.75,10|8|8|8,2:0|2:0|2:0|2:0,2:0:0:0:
483,128,135761,6,0,P|433:77|363:85,1,147,14|8,2:0|2:0,2:0:0:0:
290,137,136234,1,2,1:2:0:0:
228,82,136392,2,0,P|156:66|86:42,1,147,10|8,2:0|2:0,2:0:0:0:
2,78,136866,1,0,1:2:0:0:
49,152,137024,1,8,2:0:0:0:
49,152,137340,2,0,P|37:190|28:227,1,73.5,10|0,2:0|2:0,2:0:0:0:
75,303,137656,1,10,2:0:0:0:
75,303,137813,1,2,1:2:0:0:
153,275,137971,2,0,P|188:285|225:298,1,73.5,10|0,2:0|1:2,2:0:0:0:
294,354,138287,6,0,P|364:359|410:305,1,147,6|8,1:2|2:0,2:0:0:0:
492,274,138761,1,2,2:0:0:0:
442,204,138919,2,0,P|448:163|459:127,1,73.5,10|0,2:0|1:2,2:0:0:0:
385,87,139234,2,0,P|379:46|368:10,1,73.5,10|0,2:0|1:2,2:0:0:0:
287,69,139550,2,0,B|205:84|240:108|156:133,1,147,10|8,2:0|2:0,2:0:0:0:
19,289,140182,2,0,P|8:253|-1:218,1,73.5,10|0,2:0|1:2,2:0:0:0:
81,198,140498,2,0,P|91:233|100:268,1,73.5,10|0,2:0|1:2,2:0:0:0:
180,338,140813,6,0,P|127:350|68:377,2,110.25,14|2|2,2:0|2:0|2:0,2:0:0:0:
254,279,141445,2,0,P|293:291|329:301,1,73.5,10|0,2:0|1:2,2:0:0:0:
363,382,141761,1,10,2:0:0:0:
322,201,142077,1,10,2:0:0:0:
397,168,142234,2,0,P|404:128|413:86,2,73.5,2|8|2,2:0|2:0|2:0,2:0:0:0:
493,196,142708,2,0,P|500:159|506:123,1,73.5,10|0,2:0|1:2,2:0:0:0:
504,27,143024,2,0,P|470:23|432:12,1,73.5,10|0,2:0|1:2,2:0:0:0:
326,39,143340,5,6,1:2:0:0:
326,39,143656,2,0,P|317:70|307:127,1,73.5,10|2,2:0|1:2,2:0:0:0:
270,195,143971,2,0,P|277:227|283:271,1,73.5,10|2,2:0|1:2,2:0:0:0:
364,302,144287,1,10,2:0:0:0:
299,365,144445,6,0,P|226:378|153:372,1,147,6|2,1:2|1:2,2:0:0:0:
66,384,144919,2,0,P|60:344|55:308,1,73.5,10|2,2:0|1:2,2:0:0:0:
114,246,145234,1,10,2:0:0:0:
59,176,145392,1,2,1:2:0:0:
116,102,145550,1,10,2:0:0:0:
116,102,145866,6,0,B|194:108|172:142|247:161,1,147,6|8,1:2|2:0,2:0:0:0:
317,110,146340,1,2,2:0:0:0:
366,183,146498,2,0,P|351:247|342:328,1,147,10|8,2:0|2:0,2:0:0:0:
412,384,146971,1,0,1:2:0:0:
495,352,147129,1,8,2:0:0:0:
495,352,147445,2,0,P|501:317|505:276,1,73.5,10|2,2:0|2:0,2:0:0:0:
444,218,147761,1,10,2:0:0:0:
444,218,147919,1,2,1:2:0:0:
502,148,148077,2,0,P|504:111|512:75,1,73.5,10|0,2:0|1:2,2:0:0:0:
407,103,148392,6,0,P|336:93|288:145,1,147,6|8,1:2|2:0,2:0:0:0:
292,231,148866,1,2,2:0:0:0:
212,263,149024,2,0,P|177:249|141:241,1,73.5,10|0,2:0|1:2,2:0:0:0:
44,250,149340,2,0,P|57:215|65:179,1,73.5,10|0,2:0|1:2,2:0:0:0:
148,107,149656,6,0,P|99:101|35:75,2,110.25,10|2|2,2:0|2:0|2:0,2:0:0:0:
223,58,150287,1,10,2:0:0:0:
300,128,150445,1,4,2:3:0:0:
300,128,150524,1,4,2:3:0:0:
300,128,150603,2,0,P|340:132|386:143,1,73.5,4|2,2:3|1:2,2:0:0:0:
456,108,150919,6,0,P|490:149|479:202,1,99.7499999999998,6|2,1:2|2:0,2:0:0:0:
478,341,151392,1,2,1:2:0:0:
401,304,151550,2,0,P|328:315|265:339,1,133,10|2,2:0|2:0,2:0:0:0:
138,251,152182,2,0,P|122:197|117:144,2,99.7499999999998,10|2|2,3:2|2:0|1:2,2:0:0:0:
116,330,152813,1,10,2:0:0:0:
0,195,153129,1,8,2:0:0:0:
206,136,153445,6,0,L|295:149,1,66.4999999999999,6|2,1:2|2:0,2:0:0:0:
337,223,153761,2,0,L|426:210,1,66.4999999999999,6|2,1:2|2:0,2:0:0:0:
493,161,154077,2,0,P|490:128|478:81,1,66.4999999999999,4|2,1:2|1:2,2:0:0:0:
400,45,154392,2,0,P|391:75|385:109,1,66.4999999999999,12|2,2:0|2:0,2:0:0:0:
402,213,154708,5,2,3:2:0:0:
500,372,155024,1,2,3:2:0:0:
251,354,155340,2,0,L|260:311,2,33.2499999999999,10|8|8,3:2|3:2|3:2,2:0:0:0:
336,278,155656,1,14,3:2:0:0:
336,278,155971,6,0,P|266:293|209:250,1,147,6|8,1:2|2:0,2:0:0:0:
153,181,156445,1,2,2:0:0:0:
85,228,156603,2,0,P|109:158|123:86,1,147,10|8,2:0|2:0,2:0:0:0:
183,23,157077,1,0,1:2:0:0:
248,88,157234,1,8,2:0:0:0:
248,88,157550,2,0,L|330:107,1,73.5,10|0,2:0|2:0,2:0:0:0:
397,52,157866,1,10,2:0:0:0:
397,52,158024,1,2,1:2:0:0:
461,116,158182,2,0,L|448:196,1,73.5,10|0,2:0|1:2,2:0:0:0:
512,252,158498,6,0,P|441:232|368:221,1,147,6|8,1:2|2:0,2:0:0:0:
292,185,158971,1,2,2:0:0:0:
242,259,159129,2,0,P|236:289|234:339,1,73.5,10|0,2:0|1:2,2:0:0:0:
139,317,159445,2,0,P|144:286|147:237,1,73.5,10|0,2:0|1:2,2:0:0:0:
139,147,159761,2,0,B|61:154|78:193|5:203,1,147,10|8,2:0|2:0,2:0:0:0:
183,0,160392,2,0,P|193:31|202:71,1,73.5,10|0,2:0|1:2,2:0:0:0:
294,97,160708,2,0,P|283:128|275:168,1,73.5,10|0,2:0|2:0,2:0:0:0:
340,250,161024,6,0,P|396:261|455:279,2,110.25,6|2|2,1:2|2:0|2:0,2:0:0:0:
250,281,161656,2,0,P|240:316|239:353,1,73.5,10|0,2:0|1:2,2:0:0:0:
322,371,161971,1,10,2:0:0:0:
171,226,162287,2,0,P|116:233|63:249,2,110.25,10|2|2,2:0|2:0|2:0,2:0:0:0:
218,148,162919,2,0,P|214:113|206:74,1,73.5,10|0,2:0|1:2,2:0:0:0:
275,11,163234,2,0,P|314:7|353:-3,1,73.5,10|0,2:0|1:2,2:0:0:0:
447,49,163550,5,6,1:2:0:0:
447,49,163866,2,0,P|450:83|459:123,1,73.5,10|2,2:0|1:2,2:0:0:0:
408,192,164182,2,0,P|374:196|333:211,1,73.5,10|2,2:0|1:2,2:0:0:0:
271,263,164498,1,10,2:0:0:0:
197,215,164656,6,0,B|173:144|221:148|202:71,1,147,6|2,1:2|1:2,2:0:0:0:
127,21,165129,2,0,P|100:28|54:39,1,73.5,14|2,2:0|1:2,2:0:0:0:
5,113,165445,1,10,2:0:0:0:
67,168,165603,1,2,1:2:0:0:
11,233,165761,1,2,1:2:0:0:
209,371,166077,6,0,P|262:325|251:256,1,147,6|8,1:2|2:0,2:0:0:0:
176,203,166550,1,2,2:0:0:0:
242,138,166708,2,0,B|317:134|306:170|380:179,1,147,10|8,2:0|2:0,2:0:0:0:
444,123,167182,1,0,1:2:0:0:
512,186,167340,1,8,2:0:0:0:
512,186,167656,2,0,P|504:222|499:267,1,73.5,10|0,2:0|2:0,2:0:0:0:
427,318,167971,2,0,P|391:308|355:304,1,73.5,10|0,2:0|1:2,2:0:0:0:
290,234,168287,1,10,2:0:0:0:
290,234,168603,6,0,B|215:242|238:277|161:300,1,147,6|8,1:2|2:0,2:0:0:0:
87,348,169077,1,2,2:0:0:0:
20,282,169234,2,0,P|29:209|44:137,1,147,10|10,2:0|2:0,2:0:0:0:
113,83,169708,1,0,1:2:0:0:
206,111,169866,6,0,P|264:119|312:81,2,110.25,10|2|2,2:0|2:0|2:0,2:0:0:0:
113,83,170498,1,10,2:0:0:0:
134,179,170656,1,4,2:3:0:0:
134,179,170734,1,6,2:3:0:0:
134,179,170813,2,0,P|141:217|146:261,1,73.5,4|2,2:3|2:0,2:0:0:0:
100,355,171129,6,0,P|153:340|205:331,1,99.7499999999998,6|2,1:2|2:0,2:0:0:0:
296,245,171603,1,2,1:2:0:0:
340,312,171761,2,0,P|404:341|464:309,1,133,10|2,2:0|2:0,2:0:0:0:
512,189,172392,2,0,P|498:145|485:83,2,99.7499999999998,2|2|2,1:2|2:0|1:2,2:0:0:0:
421,201,173024,2,0,P|410:164|397:119,1,66.4999999999999,10|0,2:0|1:2,2:0:0:0:
336,77,173340,2,0,P|305:82|259:97,1,66.4999999999999,10|2,2:0|2:0,2:0:0:0:
196,148,173656,6,0,B|127:141|139:113|71:106,1,133,6|10,1:2|2:0,2:0:0:0:
2,149,174129,1,2,2:0:0:0:
44,218,174287,2,0,L|38:272,2,44.3333333333333,8|8|8,3:0|3:0|3:0,3:0:0:0:
82,282,174603,2,0,L|90:341,2,44.3333333333333,8|4|4,3:0|3:0|3:0,3:0:0:0:
66,370,174919,6,0,P|163:331|271:341,2,209.999999999999,6|2|4,1:2|3:2|1:2,2:0:0:0:
66,370,176498,6,0,L|51:302,1,70,10|2,2:0|1:2,2:0:0:0:
93,220,176813,1,2,1:2:0:0:
179,262,176971,2,0,P|213:251|252:245,1,70,2|8,2:0|2:0,2:0:0:0:
335,282,177287,2,0,P|381:232|377:164,1,140,2|2,1:2|1:2,2:0:0:0:
316,103,177761,1,8,2:0:0:0:
377,42,177919,1,2,1:2:0:0:
299,0,178077,2,0,L|224:12,1,70,2|2,1:2|2:0,2:0:0:0:
159,66,178392,1,10,2:0:0:0:
1,24,178708,5,2,1:2:0:0:
1,24,179024,2,0,L|11:97,1,70,10|2,2:0|1:2,2:0:0:0:
89,144,179340,1,2,1:2:0:0:
27,213,179498,2,0,L|41:292,1,70,2|8,2:0|2:0,2:0:0:0:
119,330,179813,2,0,B|188:325|180:354|255:356,1,140,2|2,1:2|1:2,2:0:0:0:
342,325,180287,2,0,P|344:287|355:241,1,70,10|2,2:0|1:2,2:0:0:0:
286,194,180603,1,2,1:2:0:0:
436,73,180919,1,10,2:0:0:0:
512,248,181234,5,6,1:2:0:0:
512,248,181550,2,0,P|508:281|503:336,1,70,10|2,2:0|1:2,2:0:0:0:
433,372,181866,1,2,1:2:0:0:
354,324,182024,2,0,P|321:327|272:342,1,70,2|8,2:0|2:0,2:0:0:0:
201,365,182340,2,0,P|134:366|99:309,1,140,2|2,1:2|1:2,2:0:0:0:
36,252,182813,1,8,2:0:0:0:
93,186,182971,1,2,1:2:0:0:
17,142,183129,2,0,P|11:105|2:70,1,70,2|2,1:2|2:0,2:0:0:0:
56,8,183445,1,10,2:0:0:0:
189,98,183761,5,6,1:2:0:0:
189,98,184077,2,0,P|227:90|261:79,1,70,10|0,2:0|1:2,2:0:0:0:
310,15,184392,1,2,1:2:0:0:
385,54,184550,2,0,P|393:84|399:126,1,70,2|8,1:2|2:0,2:0:0:0:
336,179,184866,1,2,1:3:0:0:
512,347,185182,2,0,P|507:312|498:278,1,70,2|0,1:3|2:0,2:0:0:0:
427,234,185498,1,2,1:2:0:0:
352,295,185656,5,10,2:0:0:0:
203,155,185971,1,10,2:0:0:0:
107,338,186287,1,6,1:2:0:0:
256,192,186445,12,4,187550,2:3:0:0:
