osu file format v14

[General]
AudioFilename: TOKIO-Ding-Dong.mp3
AudioLeadIn: 0
PreviewTime: 178906
Countdown: 0
SampleSet: Normal
StackLeniency: 0.7
Mode: 1
LetterboxInBreaks: 0
WidescreenStoryboard: 0

[Editor]
DistanceSpacing: 1.3
BeatDivisor: 12
GridSize: 4
TimelineZoom: 1.9

[Metadata]
Title:ding-dong
TitleUnicode:ding-dong
Artist:TOKIO
ArtistUnicode:TOKIO
Creator:Volta
Version:Oni
Source:
Tags:glider BARGAINS KAM 城島 茂 Jōshima Joushima Shigeru 長瀬 智也 Nagase Tomoya 松岡 昌宏 Matsuoka Masahiro 国分 太一 Kokubun Taichi 山口 達也 Yamaguchi Tatsuya
BeatmapID:822284
BeatmapSetID:375452

[Difficulty]
HPDrainRate:5
CircleSize:2
OverallDifficulty:5
ApproachRate:6
SliderMultiplier:1.4
SliderTickRate:1

[Events]
//Background and Video events
0,0,"choir.png",0,-50
//Break Periods
//Storyboard Layer 0 (Background)
//Storyboard Layer 1 (Fail)
//Storyboard Layer 2 (Pass)
//Storyboard Layer 3 (Foreground)
//Storyboard Sound Samples

[TimingPoints]
1283,666.666666666667,4,1,0,40,1,0
19949,499.870866692771,4,1,0,60,1,0
23947,-100,4,1,0,80,0,1
38944,499.870866692771,4,1,0,80,1,0
74934,-100,4,1,0,80,0,1
89930,499.870866692771,4,1,0,80,1,0
125920,-100,4,1,0,80,0,1
140916,499.870866692771,4,1,0,80,1,0
156911,-100,4,1,0,50,0,0
164909,-100,4,1,0,65,0,0
178906,-100,4,1,0,80,0,1
193902,499.870866692771,4,1,0,80,1,0
193902,-100,4,1,0,80,0,1
208898,499.870866692771,4,1,0,80,1,0
227893,499.870866692771,4,1,0,80,1,0
233891,-100,4,1,0,60,0,0
235890,-100,4,1,0,40,0,0
237890,-100,4,1,0,25,0,0

[HitObjects]
240,292,1283,5,0,0:0:0:0:
280,200,2616,1,8,0:0:0:0:
252,196,3949,1,0,0:0:0:0:
252,196,5283,1,0,0:0:0:0:
252,196,6616,1,8,0:0:0:0:
252,196,7949,1,8,0:0:0:0:
252,196,9283,1,0,0:0:0:0:
252,196,10616,1,8,0:0:0:0:
252,196,11949,1,0,0:0:0:0:
256,184,13283,1,8,0:0:0:0:
256,184,13949,1,0,0:0:0:0:
132,176,14616,1,8,0:0:0:0:
168,180,15949,1,8,0:0:0:0:
168,180,16616,1,0,0:0:0:0:
168,180,17283,1,0,0:0:0:0:
168,180,18616,1,8,0:0:0:0:
120,152,19283,1,0,0:0:0:0:
256,192,19949,5,4,0:0:0:0:
256,192,20448,1,8,0:0:0:0:
180,184,20948,1,0,0:0:0:0:
168,172,21198,1,0,0:0:0:0:
180,184,21448,1,8,0:0:0:0:
228,184,21948,1,8,0:0:0:0:
228,184,22198,1,8,0:0:0:0:
228,184,22448,1,8,0:0:0:0:
228,184,22698,1,8,0:0:0:0:
220,176,22948,1,8,0:0:0:0:
220,176,23073,1,8,0:0:0:0:
220,176,23198,1,8,0:0:0:0:
220,176,23323,1,8,0:0:0:0:
220,176,23448,1,0,0:0:0:0:
220,176,23573,1,0,0:0:0:0:
220,176,23698,1,0,0:0:0:0:
220,176,23822,1,0,0:0:0:0:
192,184,23947,5,0,0:0:0:0:
116,92,24447,1,8,0:0:0:0:
144,120,24697,1,0,0:0:0:0:
144,120,24822,1,0,0:0:0:0:
144,120,24947,1,0,0:0:0:0:
144,120,25197,1,0,0:0:0:0:
144,120,25447,1,8,0:0:0:0:
152,164,25947,1,0,0:0:0:0:
104,188,26197,1,0,0:0:0:0:
104,188,26322,1,0,0:0:0:0:
104,188,26447,1,8,0:0:0:0:
104,188,26697,1,8,0:0:0:0:
156,120,26947,1,0,0:0:0:0:
156,120,27197,1,0,0:0:0:0:
156,120,27447,1,8,0:0:0:0:
196,188,27946,1,0,0:0:0:0:
196,188,28071,1,0,0:0:0:0:
196,188,28196,1,0,0:0:0:0:
196,188,28446,1,8,0:0:0:0:
196,188,28821,1,0,0:0:0:0:
196,188,28946,1,0,0:0:0:0:
196,188,29196,1,0,0:0:0:0:
196,188,29446,1,8,0:0:0:0:
192,196,29946,1,0,0:0:0:0:
192,196,30196,1,0,0:0:0:0:
192,196,30321,1,0,0:0:0:0:
192,196,30446,1,8,0:0:0:0:
192,196,30696,1,0,0:0:0:0:
192,196,30821,1,8,0:0:0:0:
192,196,30946,1,0,0:0:0:0:
192,196,31196,1,0,0:0:0:0:
192,196,31446,1,8,0:0:0:0:
192,196,31695,1,8,0:0:0:0:
148,124,31945,1,4,0:0:0:0:
196,188,32445,1,8,0:0:0:0:
204,204,32695,1,0,0:0:0:0:
204,204,32820,1,0,0:0:0:0:
204,204,32945,1,0,0:0:0:0:
204,204,33195,1,0,0:0:0:0:
204,204,33445,1,8,0:0:0:0:
204,204,33945,1,0,0:0:0:0:
204,204,34195,1,0,0:0:0:0:
204,204,34320,1,0,0:0:0:0:
204,204,34445,1,8,0:0:0:0:
204,204,34695,1,0,0:0:0:0:
204,204,34945,1,8,0:0:0:0:
204,204,35195,1,0,0:0:0:0:
204,204,35444,1,8,0:0:0:0:
192,176,35944,1,4,0:0:0:0:
212,192,36444,1,8,0:0:0:0:
212,192,36694,1,0,0:0:0:0:
212,192,36819,1,8,0:0:0:0:
212,192,36944,1,0,0:0:0:0:
240,196,37194,1,0,0:0:0:0:
200,164,37444,1,8,0:0:0:0:
200,172,37569,1,8,0:0:0:0:
200,172,37694,1,0,0:0:0:0:
196,176,37944,1,12,0:0:0:0:
196,176,38194,1,0,0:0:0:0:
196,176,38444,1,12,0:0:0:0:
196,176,38694,1,0,0:0:0:0:
196,176,38944,1,12,0:0:0:0:
208,184,39443,1,8,0:0:0:0:
208,184,39693,1,0,0:0:0:0:
208,184,39818,1,0,0:0:0:0:
208,184,39943,1,8,0:0:0:0:
208,184,40193,1,0,0:0:0:0:
208,184,40443,1,8,0:0:0:0:
208,184,40568,1,0,0:0:0:0:
208,184,40693,1,0,0:0:0:0:
220,168,40943,1,8,0:0:0:0:
220,168,41193,1,8,0:0:0:0:
220,168,41443,1,8,0:0:0:0:
220,168,41568,1,8,0:0:0:0:
220,168,41693,1,0,0:0:0:0:
220,168,41943,1,12,0:0:0:0:
220,168,42443,1,12,0:0:0:0:
256,204,42942,1,4,0:0:0:0:
252,196,43192,1,0,0:0:0:0:
252,196,43442,1,8,0:0:0:0:
260,184,43942,1,0,0:0:0:0:
228,184,44192,1,0,0:0:0:0:
228,184,44442,1,8,0:0:0:0:
228,184,44692,1,8,0:0:0:0:
220,180,44942,1,0,0:0:0:0:
160,160,45442,1,8,0:0:0:0:
160,160,45692,1,0,0:0:0:0:
160,160,45942,1,0,0:0:0:0:
272,184,46442,1,8,0:0:0:0:
236,164,46691,1,0,0:0:0:0:
236,164,46941,1,4,0:0:0:0:
236,164,47191,1,0,0:0:0:0:
236,164,47441,1,8,0:0:0:0:
368,168,47941,1,0,0:0:0:0:
200,180,48191,1,0,0:0:0:0:
128,180,48441,1,8,0:0:0:0:
128,180,48691,1,0,0:0:0:0:
128,180,48941,1,8,0:0:0:0:
128,180,49441,1,8,0:0:0:0:
128,180,49691,1,0,0:0:0:0:
128,180,49941,1,0,0:0:0:0:
144,188,50441,1,8,0:0:0:0:
144,188,50690,1,8,0:0:0:0:
144,188,50815,1,8,0:0:0:0:
144,188,50940,1,0,0:0:0:0:
144,188,51190,1,0,0:0:0:0:
152,188,51440,1,8,0:0:0:0:
152,188,51690,1,0,0:0:0:0:
152,188,51940,1,0,0:0:0:0:
152,188,52440,1,8,0:0:0:0:
152,188,52690,1,0,0:0:0:0:
152,188,52815,1,0,0:0:0:0:
152,188,52940,1,0,0:0:0:0:
152,188,53190,1,0,0:0:0:0:
152,188,53440,1,8,0:0:0:0:
152,188,53690,1,0,0:0:0:0:
152,188,53940,1,0,0:0:0:0:
152,188,54439,1,8,0:0:0:0:
152,188,54689,1,0,0:0:0:0:
152,188,54814,1,0,0:0:0:0:
152,188,54939,1,0,0:0:0:0:
152,188,55189,1,0,0:0:0:0:
152,188,55439,1,8,0:0:0:0:
152,188,55939,1,0,0:0:0:0:
152,188,56189,1,0,0:0:0:0:
152,188,56439,1,8,0:0:0:0:
152,188,56939,1,0,0:0:0:0:
144,108,57439,1,8,0:0:0:0:
136,132,57689,1,0,0:0:0:0:
136,136,57814,1,0,0:0:0:0:
136,136,57939,1,0,0:0:0:0:
136,152,58189,1,0,0:0:0:0:
128,176,58438,1,8,0:0:0:0:
128,176,58563,1,8,0:0:0:0:
128,176,58688,1,0,0:0:0:0:
256,204,58938,1,4,0:0:0:0:
252,196,59188,1,0,0:0:0:0:
252,196,59438,1,8,0:0:0:0:
260,184,59938,1,0,0:0:0:0:
228,184,60188,1,0,0:0:0:0:
180,184,60313,1,0,0:0:0:0:
228,184,60438,1,8,0:0:0:0:
228,184,60688,1,8,0:0:0:0:
220,180,60938,1,0,0:0:0:0:
160,160,61438,1,8,0:0:0:0:
160,160,61688,1,0,0:0:0:0:
144,160,61813,1,0,0:0:0:0:
160,160,61938,1,0,0:0:0:0:
272,176,62187,1,0,0:0:0:0:
272,184,62437,1,8,0:0:0:0:
180,184,62562,1,0,0:0:0:0:
236,164,62687,1,0,0:0:0:0:
236,164,62937,1,4,0:0:0:0:
236,164,63187,1,0,0:0:0:0:
236,164,63437,1,8,0:0:0:0:
368,168,63937,1,0,0:0:0:0:
200,180,64187,1,0,0:0:0:0:
140,184,64312,1,0,0:0:0:0:
128,180,64437,1,8,0:0:0:0:
128,180,64687,1,0,0:0:0:0:
128,180,64937,1,8,0:0:0:0:
128,180,65437,1,8,0:0:0:0:
128,180,65687,1,0,0:0:0:0:
72,192,65812,1,0,0:0:0:0:
128,180,65937,1,0,0:0:0:0:
20,172,66186,1,0,0:0:0:0:
144,188,66436,1,8,0:0:0:0:
144,188,66686,1,0,0:0:0:0:
144,188,66811,1,8,0:0:0:0:
144,188,66936,1,0,0:0:0:0:
152,188,67436,1,8,0:0:0:0:
152,188,67686,1,0,0:0:0:0:
152,188,67936,1,0,0:0:0:0:
152,188,68186,1,0,0:0:0:0:
168,176,68311,1,0,0:0:0:0:
152,188,68436,1,8,0:0:0:0:
152,188,68936,1,0,0:0:0:0:
152,188,69436,1,8,0:0:0:0:
152,188,69686,1,0,0:0:0:0:
152,188,69935,1,0,0:0:0:0:
180,144,70185,1,8,0:0:0:0:
180,144,70310,1,0,0:0:0:0:
152,188,70435,1,8,0:0:0:0:
152,188,70935,1,0,0:0:0:0:
152,188,71185,1,0,0:0:0:0:
152,188,71435,1,8,0:0:0:0:
152,188,71935,1,0,0:0:0:0:
152,188,72185,1,0,0:0:0:0:
152,188,72435,1,8,0:0:0:0:
152,188,72935,1,0,0:0:0:0:
204,112,73185,1,0,0:0:0:0:
128,176,73435,1,8,0:0:0:0:
160,196,73685,1,0,0:0:0:0:
132,248,73934,1,8,0:0:0:0:
132,248,74059,1,8,0:0:0:0:
132,248,74184,1,8,0:0:0:0:
132,248,74434,1,0,0:0:0:0:
132,248,74559,1,0,0:0:0:0:
132,248,74684,1,0,0:0:0:0:
132,248,74934,1,4,0:0:0:0:
112,88,75434,1,8,0:0:0:0:
140,116,75684,1,0,0:0:0:0:
140,116,75809,1,0,0:0:0:0:
140,116,75934,1,0,0:0:0:0:
140,116,76184,1,0,0:0:0:0:
140,116,76434,1,8,0:0:0:0:
248,132,76684,1,0,0:0:0:0:
248,132,76809,1,0,0:0:0:0:
148,160,76934,1,0,0:0:0:0:
100,184,77184,1,0,0:0:0:0:
100,184,77309,1,0,0:0:0:0:
100,184,77434,1,8,0:0:0:0:
100,184,77683,1,8,0:0:0:0:
152,116,77933,1,0,0:0:0:0:
224,140,78058,1,8,0:0:0:0:
152,116,78183,1,0,0:0:0:0:
152,116,78433,1,8,0:0:0:0:
192,184,78933,1,0,0:0:0:0:
192,184,79058,1,0,0:0:0:0:
192,184,79183,1,0,0:0:0:0:
192,184,79433,1,8,0:0:0:0:
192,184,79808,1,0,0:0:0:0:
192,184,79933,1,0,0:0:0:0:
192,184,80183,1,0,0:0:0:0:
192,184,80433,1,8,0:0:0:0:
224,140,80683,1,0,0:0:0:0:
300,152,80808,1,0,0:0:0:0:
188,192,80933,1,0,0:0:0:0:
188,192,81183,1,0,0:0:0:0:
188,192,81433,1,8,0:0:0:0:
188,192,81682,1,0,0:0:0:0:
188,192,81807,1,8,0:0:0:0:
188,192,81932,1,0,0:0:0:0:
188,192,82182,1,0,0:0:0:0:
188,192,82432,1,8,0:0:0:0:
188,192,82682,1,8,0:0:0:0:
144,120,82932,1,4,0:0:0:0:
192,184,83432,1,8,0:0:0:0:
200,200,83682,1,0,0:0:0:0:
200,200,83807,1,0,0:0:0:0:
200,200,83932,1,0,0:0:0:0:
200,200,84182,1,0,0:0:0:0:
200,200,84432,1,8,0:0:0:0:
256,184,84682,1,0,0:0:0:0:
232,188,84807,1,0,0:0:0:0:
200,200,84932,1,0,0:0:0:0:
200,200,85182,1,0,0:0:0:0:
200,200,85307,1,0,0:0:0:0:
200,200,85431,1,8,0:0:0:0:
200,200,85681,1,0,0:0:0:0:
200,200,85931,1,8,0:0:0:0:
276,192,86056,1,8,0:0:0:0:
200,200,86181,1,0,0:0:0:0:
200,200,86431,1,8,0:0:0:0:
188,172,86931,1,4,0:0:0:0:
208,188,87431,1,8,0:0:0:0:
208,188,87681,1,0,0:0:0:0:
208,188,87806,1,8,0:0:0:0:
208,188,87931,1,0,0:0:0:0:
236,192,88181,1,0,0:0:0:0:
196,160,88431,1,8,0:0:0:0:
196,168,88556,1,8,0:0:0:0:
196,168,88681,1,0,0:0:0:0:
192,172,88931,1,12,0:0:0:0:
192,172,89181,1,0,0:0:0:0:
192,172,89430,1,12,0:0:0:0:
192,172,89680,1,0,0:0:0:0:
192,172,89930,1,12,0:0:0:0:
192,216,90429,1,8,0:0:0:0:
192,216,90679,1,0,0:0:0:0:
192,216,90804,1,0,0:0:0:0:
192,216,90929,1,8,0:0:0:0:
192,216,91179,1,0,0:0:0:0:
192,216,91429,1,8,0:0:0:0:
192,216,91554,1,8,0:0:0:0:
192,216,91679,1,0,0:0:0:0:
160,176,91929,1,8,0:0:0:0:
160,176,92054,1,8,0:0:0:0:
160,176,92179,1,8,0:0:0:0:
160,176,92429,1,0,0:0:0:0:
160,176,92554,1,0,0:0:0:0:
160,176,92679,1,0,0:0:0:0:
160,176,92929,1,12,0:0:0:0:
160,176,93429,1,12,0:0:0:0:
256,204,93928,1,4,0:0:0:0:
252,196,94428,1,8,0:0:0:0:
252,196,94678,1,0,0:0:0:0:
228,184,94803,1,0,0:0:0:0:
260,184,94928,1,8,0:0:0:0:
240,168,95178,1,0,0:0:0:0:
228,184,95428,1,8,0:0:0:0:
228,184,95678,1,0,0:0:0:0:
220,180,95928,1,0,0:0:0:0:
160,160,96428,1,8,0:0:0:0:
268,144,96678,1,0,0:0:0:0:
160,160,96928,1,0,0:0:0:0:
160,160,97178,1,0,0:0:0:0:
284,188,97303,1,0,0:0:0:0:
272,184,97428,1,8,0:0:0:0:
236,164,97677,1,0,0:0:0:0:
236,164,97927,1,0,0:0:0:0:
236,164,98427,1,8,0:0:0:0:
368,168,98927,1,0,0:0:0:0:
200,180,99177,1,0,0:0:0:0:
120,176,99302,1,0,0:0:0:0:
128,180,99427,1,8,0:0:0:0:
128,180,99677,1,0,0:0:0:0:
128,180,99927,1,8,0:0:0:0:
128,180,100427,1,8,0:0:0:0:
228,132,100677,1,0,0:0:0:0:
128,180,100927,1,0,0:0:0:0:
160,152,101177,1,0,0:0:0:0:
144,188,101427,1,8,0:0:0:0:
144,188,101676,1,8,0:0:0:0:
144,188,101801,1,8,0:0:0:0:
144,188,101926,1,0,0:0:0:0:
152,188,102426,1,8,0:0:0:0:
152,188,102926,1,0,0:0:0:0:
144,188,103176,1,0,0:0:0:0:
152,188,103426,1,8,0:0:0:0:
152,188,103676,1,0,0:0:0:0:
152,188,103801,1,0,0:0:0:0:
152,188,103926,1,0,0:0:0:0:
152,188,104426,1,8,0:0:0:0:
152,188,104926,1,0,0:0:0:0:
152,188,105176,1,0,0:0:0:0:
152,188,105425,1,8,0:0:0:0:
176,168,105675,1,0,0:0:0:0:
176,168,105800,1,0,0:0:0:0:
152,188,105925,1,8,0:0:0:0:
152,188,106425,1,8,0:0:0:0:
152,188,106925,1,0,0:0:0:0:
152,188,107175,1,0,0:0:0:0:
152,188,107425,1,8,0:0:0:0:
152,188,107925,1,0,0:0:0:0:
144,108,108425,1,8,0:0:0:0:
136,132,108675,1,0,0:0:0:0:
136,136,108800,1,0,0:0:0:0:
136,136,108925,1,0,0:0:0:0:
136,152,109175,1,0,0:0:0:0:
128,176,109424,1,8,0:0:0:0:
128,176,109549,1,8,0:0:0:0:
128,176,109674,1,0,0:0:0:0:
256,204,109924,1,4,0:0:0:0:
252,196,110174,1,0,0:0:0:0:
252,196,110424,1,8,0:0:0:0:
260,184,110924,1,0,0:0:0:0:
228,184,111174,1,0,0:0:0:0:
180,184,111299,1,0,0:0:0:0:
228,184,111424,1,8,0:0:0:0:
228,184,111674,1,8,0:0:0:0:
220,180,111924,1,0,0:0:0:0:
160,160,112424,1,8,0:0:0:0:
160,160,112674,1,0,0:0:0:0:
144,160,112799,1,0,0:0:0:0:
160,160,112924,1,0,0:0:0:0:
272,176,113173,1,0,0:0:0:0:
272,184,113423,1,8,0:0:0:0:
180,184,113548,1,0,0:0:0:0:
236,164,113673,1,0,0:0:0:0:
236,164,113923,1,4,0:0:0:0:
236,164,114173,1,0,0:0:0:0:
236,164,114423,1,8,0:0:0:0:
368,168,114923,1,0,0:0:0:0:
200,180,115173,1,0,0:0:0:0:
140,184,115298,1,0,0:0:0:0:
128,180,115423,1,8,0:0:0:0:
128,180,115673,1,0,0:0:0:0:
128,180,115923,1,8,0:0:0:0:
128,180,116423,1,8,0:0:0:0:
128,180,116673,1,0,0:0:0:0:
72,192,116798,1,0,0:0:0:0:
128,180,116923,1,0,0:0:0:0:
20,172,117172,1,0,0:0:0:0:
144,188,117422,1,8,0:0:0:0:
144,188,117672,1,0,0:0:0:0:
144,188,117797,1,8,0:0:0:0:
144,188,117922,1,0,0:0:0:0:
132,128,118172,5,0,0:0:0:0:
152,188,118422,5,8,0:0:0:0:
168,160,118547,1,8,0:0:0:0:
152,188,118672,1,0,0:0:0:0:
152,188,118922,1,0,0:0:0:0:
76,156,119047,1,8,0:0:0:0:
152,188,119172,1,0,0:0:0:0:
168,176,119297,1,0,0:0:0:0:
152,188,119422,1,8,0:0:0:0:
152,188,119922,1,0,0:0:0:0:
128,120,120172,1,8,0:0:0:0:
152,188,120422,1,8,0:0:0:0:
184,176,120547,1,0,0:0:0:0:
152,188,120672,1,0,0:0:0:0:
152,188,120921,1,0,0:0:0:0:
168,152,121046,1,0,0:0:0:0:
180,144,121171,1,8,0:0:0:0:
180,144,121296,1,0,0:0:0:0:
152,188,121421,1,8,0:0:0:0:
152,188,121921,1,0,0:0:0:0:
152,188,122171,1,0,0:0:0:0:
152,188,122421,1,8,0:0:0:0:
152,188,122921,1,0,0:0:0:0:
152,188,123171,1,0,0:0:0:0:
152,188,123421,1,8,0:0:0:0:
152,188,123921,1,0,0:0:0:0:
204,112,124171,1,0,0:0:0:0:
128,176,124421,1,8,0:0:0:0:
160,196,124671,1,0,0:0:0:0:
104,120,124920,1,8,0:0:0:0:
104,120,125045,1,8,0:0:0:0:
192,152,125170,1,8,0:0:0:0:
176,180,125420,1,0,0:0:0:0:
176,180,125545,1,0,0:0:0:0:
176,180,125670,1,0,0:0:0:0:
192,176,125920,1,4,0:0:0:0:
112,88,126420,1,8,0:0:0:0:
140,116,126670,1,0,0:0:0:0:
140,116,126795,1,0,0:0:0:0:
140,116,126920,1,0,0:0:0:0:
140,116,127170,1,0,0:0:0:0:
140,116,127420,1,8,0:0:0:0:
184,176,127670,1,0,0:0:0:0:
148,160,127920,1,0,0:0:0:0:
268,196,128045,1,0,0:0:0:0:
100,184,128170,1,0,0:0:0:0:
100,184,128295,1,0,0:0:0:0:
100,184,128420,1,8,0:0:0:0:
100,184,128669,1,8,0:0:0:0:
248,176,128794,1,8,0:0:0:0:
152,116,128919,1,0,0:0:0:0:
152,116,129169,1,0,0:0:0:0:
152,116,129419,1,8,0:0:0:0:
192,184,129919,1,0,0:0:0:0:
192,184,130044,1,0,0:0:0:0:
192,184,130169,1,0,0:0:0:0:
192,184,130419,1,8,0:0:0:0:
192,184,130794,1,0,0:0:0:0:
192,184,130919,1,0,0:0:0:0:
192,184,131169,1,0,0:0:0:0:
192,184,131419,1,8,0:0:0:0:
148,180,131669,1,0,0:0:0:0:
148,180,131794,1,0,0:0:0:0:
188,192,131919,1,0,0:0:0:0:
188,192,132169,1,0,0:0:0:0:
188,192,132419,1,8,0:0:0:0:
188,192,132668,1,0,0:0:0:0:
188,192,132793,1,8,0:0:0:0:
188,192,132918,1,0,0:0:0:0:
236,148,133043,1,0,0:0:0:0:
188,192,133168,1,0,0:0:0:0:
188,192,133418,1,8,0:0:0:0:
188,192,133668,1,8,0:0:0:0:
144,120,133918,1,4,0:0:0:0:
192,184,134418,1,8,0:0:0:0:
200,200,134668,1,0,0:0:0:0:
200,200,134793,1,0,0:0:0:0:
200,200,134918,1,0,0:0:0:0:
200,200,135168,1,0,0:0:0:0:
200,200,135418,1,8,0:0:0:0:
220,176,135668,1,0,0:0:0:0:
200,200,135918,1,8,0:0:0:0:
180,180,136043,1,0,0:0:0:0:
200,200,136168,1,0,0:0:0:0:
200,200,136293,1,0,0:0:0:0:
200,200,136417,1,8,0:0:0:0:
200,200,136667,1,0,0:0:0:0:
136,176,136792,1,0,0:0:0:0:
200,200,136917,1,8,0:0:0:0:
200,200,137167,1,0,0:0:0:0:
200,200,137417,1,8,0:0:0:0:
188,172,137917,1,4,0:0:0:0:
208,188,138417,1,8,0:0:0:0:
208,188,138667,1,0,0:0:0:0:
208,188,138792,1,8,0:0:0:0:
208,188,138917,1,0,0:0:0:0:
236,192,139167,1,0,0:0:0:0:
196,160,139417,1,8,0:0:0:0:
196,168,139542,1,8,0:0:0:0:
196,168,139667,1,0,0:0:0:0:
192,172,139917,1,12,0:0:0:0:
192,172,140167,1,0,0:0:0:0:
192,172,140416,1,12,0:0:0:0:
192,172,140666,1,0,0:0:0:0:
192,172,140916,1,12,0:0:0:0:
216,160,141415,1,8,0:0:0:0:
216,160,141915,1,0,0:0:0:0:
216,160,142165,1,0,0:0:0:0:
216,160,142415,1,8,0:0:0:0:
136,168,142915,1,0,0:0:0:0:
136,168,143165,1,0,0:0:0:0:
136,168,143290,1,0,0:0:0:0:
136,168,143415,1,8,0:0:0:0:
136,168,143665,1,0,0:0:0:0:
156,164,143915,5,8,0:0:0:0:
164,168,144040,1,8,0:0:0:0:
164,168,144165,1,8,0:0:0:0:
164,168,144290,1,8,0:0:0:0:
164,168,144415,1,0,0:0:0:0:
164,168,144540,1,0,0:0:0:0:
164,168,144665,1,0,0:0:0:0:
164,168,144789,1,0,0:0:0:0:
164,168,144914,1,8,0:0:0:0:
192,104,145414,1,8,0:0:0:0:
228,156,145914,1,0,0:0:0:0:
228,156,146164,1,0,0:0:0:0:
228,156,146414,1,8,0:0:0:0:
176,200,146914,1,0,0:0:0:0:
176,200,147164,1,0,0:0:0:0:
176,200,147289,1,0,0:0:0:0:
176,200,147414,1,8,0:0:0:0:
84,164,147664,1,0,0:0:0:0:
160,176,147789,1,8,0:0:0:0:
172,184,147914,1,8,0:0:0:0:
232,176,148164,1,0,0:0:0:0:
232,176,148414,1,8,0:0:0:0:
232,176,148539,1,8,0:0:0:0:
232,176,148663,1,0,0:0:0:0:
232,176,148788,1,8,0:0:0:0:
232,176,148913,1,0,0:0:0:0:
136,140,149163,1,0,0:0:0:0:
208,208,149413,1,8,0:0:0:0:
152,184,149788,1,8,0:0:0:0:
152,184,149913,1,0,0:0:0:0:
144,200,150163,1,0,0:0:0:0:
144,204,150413,1,8,0:0:0:0:
144,208,150663,1,0,0:0:0:0:
208,208,150913,1,8,0:0:0:0:
208,208,151038,1,0,0:0:0:0:
320,264,151288,1,0,0:0:0:0:
320,264,151413,1,0,0:0:0:0:
184,184,151663,1,8,0:0:0:0:
184,184,151788,1,8,0:0:0:0:
184,184,152038,1,0,0:0:0:0:
196,168,152163,1,8,0:0:0:0:
216,184,152288,1,0,0:0:0:0:
364,276,152413,1,8,0:0:0:0:
364,276,152537,1,8,0:0:0:0:
364,276,152662,1,8,0:0:0:0:
364,276,152787,1,8,0:0:0:0:
364,276,152912,1,0,0:0:0:0:
200,216,153412,1,8,0:0:0:0:
324,232,153912,5,0,0:0:0:0:
372,268,154162,1,0,0:0:0:0:
280,192,154412,1,8,0:0:0:0:
120,196,154662,5,8,0:0:0:0:
120,196,154787,1,8,0:0:0:0:
120,196,154912,1,0,0:0:0:0:
360,256,155162,1,0,0:0:0:0:
360,256,155412,1,8,0:0:0:0:
360,256,155662,1,0,0:0:0:0:
224,204,155912,1,8,0:0:0:0:
224,204,156037,1,8,0:0:0:0:
224,204,156162,1,8,0:0:0:0:
224,204,156287,1,8,0:0:0:0:
224,204,156411,1,0,0:0:0:0:
224,204,156536,1,0,0:0:0:0:
224,204,156661,1,0,0:0:0:0:
224,204,156786,1,0,0:0:0:0:
284,184,156911,5,0,0:0:0:0:
268,228,157911,1,0,0:0:0:0:
260,220,158911,1,8,0:0:0:0:
260,220,159411,1,0,0:0:0:0:
260,220,159911,1,0,0:0:0:0:
260,220,160910,1,0,0:0:0:0:
260,220,161910,1,0,0:0:0:0:
260,220,162910,1,8,0:0:0:0:
260,220,163410,1,0,0:0:0:0:
260,220,163910,1,8,0:0:0:0:
260,220,164909,1,4,0:0:0:0:
260,220,165409,1,0,0:0:0:0:
260,220,165909,1,8,0:0:0:0:
260,220,166409,1,0,0:0:0:0:
260,220,166909,1,12,0:0:0:0:
260,220,167409,1,8,0:0:0:0:
240,192,167909,1,0,0:0:0:0:
240,192,168408,1,8,0:0:0:0:
200,160,168908,1,4,0:0:0:0:
200,160,169408,1,12,0:0:0:0:
200,160,169908,1,4,0:0:0:0:
200,160,170408,1,4,0:0:0:0:
200,160,170908,1,12,0:0:0:0:
256,192,171158,12,0,173657,0:0:0:0:
188,152,173907,5,0,0:0:0:0:
192,136,174157,1,0,0:0:0:0:
208,144,174282,1,0,0:0:0:0:
188,152,174407,1,8,0:0:0:0:
228,212,174657,1,0,0:0:0:0:
228,212,174782,1,0,0:0:0:0:
192,144,174907,1,0,0:0:0:0:
192,144,175407,1,0,0:0:0:0:
192,144,175657,1,0,0:0:0:0:
192,144,175906,1,0,0:0:0:0:
192,144,176156,1,0,0:0:0:0:
192,144,176406,1,0,0:0:0:0:
192,144,176656,1,0,0:0:0:0:
192,144,176906,1,8,0:0:0:0:
192,144,177156,1,8,0:0:0:0:
192,144,177406,1,0,0:0:0:0:
192,144,177656,1,0,0:0:0:0:
288,132,177906,1,8,0:0:0:0:
192,144,178031,1,8,0:0:0:0:
192,144,178156,1,8,0:0:0:0:
192,144,178281,1,8,0:0:0:0:
192,144,178406,1,0,0:0:0:0:
192,144,178531,1,0,0:0:0:0:
192,144,178656,1,0,0:0:0:0:
192,144,178781,1,0,0:0:0:0:
192,144,178906,1,0,0:0:0:0:
168,140,179406,1,8,0:0:0:0:
172,148,179655,1,0,0:0:0:0:
172,148,179780,1,0,0:0:0:0:
172,148,179905,1,0,0:0:0:0:
172,148,180155,1,0,0:0:0:0:
76,172,180280,1,0,0:0:0:0:
172,148,180405,1,8,0:0:0:0:
172,148,180655,1,0,0:0:0:0:
172,148,180905,1,0,0:0:0:0:
172,148,181030,1,0,0:0:0:0:
172,148,181155,1,8,0:0:0:0:
264,180,181280,1,0,0:0:0:0:
264,180,181405,1,8,0:0:0:0:
264,180,181655,1,8,0:0:0:0:
212,148,181905,1,0,0:0:0:0:
212,148,182155,1,0,0:0:0:0:
212,148,182280,1,8,0:0:0:0:
212,148,182405,1,0,0:0:0:0:
212,148,182530,1,0,0:0:0:0:
212,148,182655,1,8,0:0:0:0:
212,148,182905,1,0,0:0:0:0:
96,188,183030,1,0,0:0:0:0:
212,148,183155,1,0,0:0:0:0:
212,148,183405,1,8,0:0:0:0:
40,128,183779,1,8,0:0:0:0:
312,244,183904,1,0,0:0:0:0:
312,244,184154,1,0,0:0:0:0:
312,244,184404,1,8,0:0:0:0:
312,244,184654,1,8,0:0:0:0:
148,136,184779,1,8,0:0:0:0:
148,136,184904,1,0,0:0:0:0:
156,232,185154,1,0,0:0:0:0:
156,232,185404,1,8,0:0:0:0:
80,176,185654,1,0,0:0:0:0:
80,176,185779,1,8,0:0:0:0:
80,176,185904,1,0,0:0:0:0:
80,176,186154,1,0,0:0:0:0:
84,188,186279,1,0,0:0:0:0:
84,184,186404,1,8,0:0:0:0:
84,184,186529,1,8,0:0:0:0:
84,184,186654,1,8,0:0:0:0:
160,196,186904,1,4,0:0:0:0:
200,176,187403,1,8,0:0:0:0:
128,168,187653,1,0,0:0:0:0:
128,168,187778,1,0,0:0:0:0:
128,168,187903,1,0,0:0:0:0:
128,168,188153,1,0,0:0:0:0:
128,168,188278,1,0,0:0:0:0:
128,168,188403,1,8,0:0:0:0:
128,168,188653,1,0,0:0:0:0:
128,168,188903,5,8,0:0:0:0:
128,168,189028,1,8,0:0:0:0:
128,168,189153,1,0,0:0:0:0:
128,168,189278,1,0,0:0:0:0:
128,168,189403,1,8,0:0:0:0:
136,164,189653,1,0,0:0:0:0:
204,144,189903,5,8,0:0:0:0:
204,144,190028,1,0,0:0:0:0:
204,144,190153,1,8,0:0:0:0:
204,144,190278,1,8,0:0:0:0:
204,144,190403,1,8,0:0:0:0:
236,176,190903,1,4,0:0:0:0:
224,200,191402,1,8,0:0:0:0:
224,200,191652,1,0,0:0:0:0:
224,200,191777,1,0,0:0:0:0:
224,200,191902,1,0,0:0:0:0:
224,200,192152,1,0,0:0:0:0:
224,200,192402,1,8,0:0:0:0:
224,200,192527,1,0,0:0:0:0:
224,200,192652,1,0,0:0:0:0:
224,200,192777,1,0,0:0:0:0:
224,200,192902,1,8,0:0:0:0:
224,200,193152,1,0,0:0:0:0:
184,168,193277,1,0,0:0:0:0:
224,200,193402,1,8,0:0:0:0:
224,200,193652,1,0,0:0:0:0:
224,200,193777,1,0,0:0:0:0:
224,200,193902,1,0,0:0:0:0:
140,184,194401,1,8,0:0:0:0:
52,176,194651,1,0,0:0:0:0:
164,164,194901,1,0,0:0:0:0:
156,164,195026,1,0,0:0:0:0:
160,160,195151,1,0,0:0:0:0:
168,160,195401,1,8,0:0:0:0:
164,164,195651,1,0,0:0:0:0:
164,164,195901,1,0,0:0:0:0:
164,168,196026,1,8,0:0:0:0:
164,168,196151,1,0,0:0:0:0:
164,164,196276,1,0,0:0:0:0:
164,168,196401,5,8,0:0:0:0:
164,164,196651,1,8,0:0:0:0:
272,140,196901,5,0,0:0:0:0:
288,220,197151,1,8,0:0:0:0:
288,220,197276,1,0,0:0:0:0:
288,220,197401,1,8,0:0:0:0:
288,220,197526,1,8,0:0:0:0:
288,220,197651,1,0,0:0:0:0:
288,220,197775,1,8,0:0:0:0:
288,220,197900,1,0,0:0:0:0:
152,196,198150,1,0,0:0:0:0:
152,196,198275,1,0,0:0:0:0:
152,196,198400,1,8,0:0:0:0:
232,160,198650,1,0,0:0:0:0:
188,144,198900,1,8,0:0:0:0:
188,144,199150,1,8,0:0:0:0:
188,144,199275,1,0,0:0:0:0:
188,144,199400,1,8,0:0:0:0:
216,144,199650,1,0,0:0:0:0:
120,144,199900,1,0,0:0:0:0:
168,164,200025,1,0,0:0:0:0:
168,168,200150,1,0,0:0:0:0:
168,168,200275,1,0,0:0:0:0:
168,168,200400,1,8,0:0:0:0:
168,164,200650,1,0,0:0:0:0:
168,164,200775,1,8,0:0:0:0:
168,164,200900,1,0,0:0:0:0:
168,168,201150,1,0,0:0:0:0:
168,168,201400,1,8,0:0:0:0:
168,164,201525,1,8,0:0:0:0:
168,164,201649,1,0,0:0:0:0:
168,164,201774,1,0,0:0:0:0:
168,164,201899,1,0,0:0:0:0:
252,272,202399,1,8,0:0:0:0:
232,240,202649,1,0,0:0:0:0:
232,240,202774,1,8,0:0:0:0:
232,240,202899,1,0,0:0:0:0:
232,240,203149,1,0,0:0:0:0:
232,240,203274,1,0,0:0:0:0:
232,240,203399,1,8,0:0:0:0:
232,240,203649,1,0,0:0:0:0:
256,208,203899,1,8,0:0:0:0:
280,188,204149,1,8,0:0:0:0:
272,208,204274,1,0,0:0:0:0:
280,188,204399,1,8,0:0:0:0:
280,188,204649,1,0,0:0:0:0:
280,188,204899,1,8,0:0:0:0:
240,180,205024,1,8,0:0:0:0:
240,180,205149,1,0,0:0:0:0:
240,180,205274,1,0,0:0:0:0:
240,180,205399,1,8,0:0:0:0:
272,192,205898,1,4,0:0:0:0:
204,136,206398,1,8,0:0:0:0:
224,176,206648,1,0,0:0:0:0:
224,176,206773,1,0,0:0:0:0:
224,176,206898,1,0,0:0:0:0:
224,176,207148,1,0,0:0:0:0:
224,176,207398,1,8,0:0:0:0:
224,176,207648,1,0,0:0:0:0:
224,176,207773,1,8,0:0:0:0:
200,176,207898,1,0,0:0:0:0:
216,216,208148,1,0,0:0:0:0:
208,212,208398,1,8,0:0:0:0:
216,216,208648,1,0,0:0:0:0:
180,204,208898,1,4,0:0:0:0:
208,188,209147,1,0,0:0:0:0:
224,152,209272,1,0,0:0:0:0:
244,172,209397,1,8,0:0:0:0:
208,188,209647,1,0,0:0:0:0:
208,188,209772,1,8,0:0:0:0:
208,188,209897,1,0,0:0:0:0:
228,172,210147,1,0,0:0:0:0:
228,172,210397,1,8,0:0:0:0:
232,176,210897,1,0,0:0:0:0:
228,172,211147,1,0,0:0:0:0:
228,172,211272,1,8,0:0:0:0:
228,172,211397,1,8,0:0:0:0:
200,172,211647,1,0,0:0:0:0:
236,160,211897,1,8,0:0:0:0:
236,160,212022,1,0,0:0:0:0:
236,160,212147,1,8,0:0:0:0:
236,160,212272,1,8,0:0:0:0:
236,160,212397,1,0,0:0:0:0:
236,160,212522,1,0,0:0:0:0:
236,160,212647,1,8,0:0:0:0:
236,160,212771,1,8,0:0:0:0:
236,160,212896,1,0,0:0:0:0:
248,172,213396,1,8,0:0:0:0:
252,176,213646,1,0,0:0:0:0:
256,180,213771,1,0,0:0:0:0:
256,180,213896,1,0,0:0:0:0:
252,180,214146,1,0,0:0:0:0:
252,180,214271,1,8,0:0:0:0:
252,180,214396,1,0,0:0:0:0:
252,176,214646,1,0,0:0:0:0:
256,180,214896,1,8,0:0:0:0:
252,180,215396,1,8,0:0:0:0:
252,176,215521,1,0,0:0:0:0:
252,176,215646,1,8,0:0:0:0:
256,180,215771,1,8,0:0:0:0:
256,180,215896,1,0,0:0:0:0:
252,180,216146,1,0,0:0:0:0:
252,180,216396,1,8,0:0:0:0:
252,176,216645,1,0,0:0:0:0:
236,160,217145,1,8,0:0:0:0:
236,160,217270,1,8,0:0:0:0:
236,160,217395,1,8,0:0:0:0:
236,160,217645,1,8,0:0:0:0:
236,160,217895,1,8,0:0:0:0:
236,160,218145,1,0,0:0:0:0:
236,160,218270,1,0,0:0:0:0:
236,160,218395,1,0,0:0:0:0:
236,160,218645,1,0,0:0:0:0:
236,160,218895,1,0,0:0:0:0:
236,160,219145,1,0,0:0:0:0:
236,160,219270,1,8,0:0:0:0:
236,160,219395,1,8,0:0:0:0:
244,168,219645,1,8,0:0:0:0:
244,168,219895,1,8,0:0:0:0:
244,168,220020,1,0,0:0:0:0:
244,168,220145,1,8,0:0:0:0:
244,168,220270,1,8,0:0:0:0:
244,168,220395,1,8,0:0:0:0:
244,168,220894,1,4,0:0:0:0:
248,160,221144,1,0,0:0:0:0:
224,112,221394,1,8,0:0:0:0:
224,112,221519,1,8,0:0:0:0:
224,112,221644,1,8,0:0:0:0:
224,112,221769,1,8,0:0:0:0:
224,112,221894,1,0,0:0:0:0:
224,112,222144,1,0,0:0:0:0:
228,128,222394,1,8,0:0:0:0:
221,244,222519,1,0,0:0:0:0:
256,156,222644,1,0,0:0:0:0:
256,156,222769,1,0,0:0:0:0:
264,144,222894,1,0,0:0:0:0:
252,152,223144,1,0,0:0:0:0:
256,156,223394,1,8,0:0:0:0:
256,156,223519,1,8,0:0:0:0:
256,156,223644,1,8,0:0:0:0:
256,156,223769,1,8,0:0:0:0:
256,156,223894,1,0,0:0:0:0:
252,152,224144,1,0,0:0:0:0:
256,156,224393,1,0,0:0:0:0:
256,144,224518,1,0,0:0:0:0:
248,156,224643,1,0,0:0:0:0:
317,212,224768,1,0,0:0:0:0:
256,156,224893,1,8,0:0:0:0:
312,160,225143,1,0,0:0:0:0:
268,144,225393,1,8,0:0:0:0:
288,156,225518,1,8,0:0:0:0:
288,156,225643,1,8,0:0:0:0:
292,156,225768,1,8,0:0:0:0:
292,156,225893,1,0,0:0:0:0:
292,156,226143,1,0,0:0:0:0:
292,156,226393,1,0,0:0:0:0:
127,177,226518,1,0,0:0:0:0:
288,180,226643,1,0,0:0:0:0:
264,188,226893,1,12,0:0:0:0:
248,144,227143,1,0,0:0:0:0:
256,180,227393,1,12,0:0:0:0:
248,144,227643,1,0,0:0:0:0:
256,180,227893,1,4,0:0:0:0:
264,132,228392,1,8,0:0:0:0:
248,140,228642,1,0,0:0:0:0:
248,140,228767,1,0,0:0:0:0:
248,140,228892,1,0,0:0:0:0:
240,144,229392,5,8,0:0:0:0:
248,140,229642,1,0,0:0:0:0:
164,156,229892,5,8,0:0:0:0:
240,176,230142,1,8,0:0:0:0:
224,168,230267,1,0,0:0:0:0:
240,184,230392,1,8,0:0:0:0:
240,184,230517,1,8,0:0:0:0:
336,208,230642,1,0,0:0:0:0:
248,196,230892,5,12,0:0:0:0:
248,196,231392,1,12,0:0:0:0:
196,152,231684,1,0,0:0:0:0:
196,152,231767,1,8,0:0:0:0:
248,208,231850,1,0,0:0:0:0:
248,196,231933,1,0,0:0:0:0:
248,196,232391,1,12,0:0:0:0:
256,192,232641,12,2,239889,0:0:0:0:
