osu file format v14

[General]
AudioFilename: TOKIO-Ding-Dong.mp3
AudioLeadIn: 0
PreviewTime: 178906
Countdown: 0
SampleSet: Normal
StackLeniency: 0.7
Mode: 1
LetterboxInBreaks: 0
WidescreenStoryboard: 0

[Editor]
DistanceSpacing: 1.3
BeatDivisor: 4
GridSize: 4
TimelineZoom: 0.9999999

[Metadata]
Title:ding-dong
TitleUnicode:ding-dong
Artist:TOKIO
ArtistUnicode:TOKIO
Creator:Volta
Version:Muzukashii
Source:
Tags:glider BARGAINS KAM 城島 茂 Jōshima Joushima Shigeru 長瀬 智也 Nagase Tomoya 松岡 昌宏 Matsuoka Masahiro 国分 太一 Kokubun Taichi 山口 達也 Yamaguchi Tatsuya
BeatmapID:822283
BeatmapSetID:375452

[Difficulty]
HPDrainRate:5.5
CircleSize:2
OverallDifficulty:5
ApproachRate:6
SliderMultiplier:1.4
SliderTickRate:1

[Events]
//Background and Video events
0,0,"choir.png",0,-50
//Break Periods
//Storyboard Layer 0 (Background)
//Storyboard Layer 1 (Fail)
//Storyboard Layer 2 (Pass)
//Storyboard Layer 3 (Foreground)
//Storyboard Sound Samples

[TimingPoints]
1283,666.666666666667,4,1,0,40,1,0
19949,499.870866692771,4,1,0,60,1,0
23947,-100,4,1,0,80,0,1
38944,499.870866692771,4,1,0,80,1,0
74934,-100,4,1,0,80,0,1
89930,499.870866692771,4,1,0,80,1,0
125920,-100,4,1,0,80,0,1
140916,499.870866692771,4,1,0,80,1,0
156911,-100,4,1,0,50,0,0
164909,-100,4,1,0,65,0,0
178906,-100,4,1,0,80,0,1
193902,499.870866692771,4,1,0,80,1,0
193902,-100,4,1,0,80,0,1
208898,499.870866692771,4,1,0,80,1,0
227893,499.870866692771,4,1,0,80,1,0
233891,-100,4,1,0,60,0,0
235890,-100,4,1,0,40,0,0
237890,-100,4,1,0,25,0,0

[HitObjects]
240,292,1283,5,0,0:0:0:0:
280,200,2616,1,8,0:0:0:0:
252,196,3949,1,0,0:0:0:0:
252,196,5283,1,0,0:0:0:0:
252,196,6616,1,8,0:0:0:0:
252,196,7949,1,8,0:0:0:0:
252,196,9283,1,0,0:0:0:0:
252,196,10616,1,8,0:0:0:0:
252,196,11949,1,0,0:0:0:0:
256,184,13283,1,8,0:0:0:0:
256,184,13949,1,0,0:0:0:0:
132,176,14616,1,8,0:0:0:0:
168,180,15949,1,8,0:0:0:0:
168,180,16616,1,0,0:0:0:0:
168,180,17283,1,0,0:0:0:0:
168,180,18616,1,8,0:0:0:0:
256,192,19949,5,4,0:0:0:0:
256,192,20448,1,8,0:0:0:0:
180,184,20948,1,0,0:0:0:0:
180,184,21448,1,8,0:0:0:0:
228,184,21948,1,8,0:0:0:0:
160,176,22198,1,8,0:0:0:0:
228,184,22448,1,8,0:0:0:0:
220,176,22948,1,8,0:0:0:0:
220,176,23198,1,8,0:0:0:0:
220,176,23448,1,0,0:0:0:0:
220,176,23573,1,0,0:0:0:0:
220,176,23698,1,0,0:0:0:0:
192,184,23947,5,4,0:0:0:0:
116,92,24447,1,8,0:0:0:0:
144,120,24947,1,0,0:0:0:0:
144,120,25197,1,0,0:0:0:0:
144,120,25447,1,8,0:0:0:0:
152,164,25947,1,0,0:0:0:0:
104,188,26197,1,0,0:0:0:0:
104,188,26447,1,8,0:0:0:0:
104,188,26697,1,8,0:0:0:0:
156,120,26947,1,0,0:0:0:0:
156,120,27447,1,8,0:0:0:0:
196,188,27946,1,0,0:0:0:0:
196,188,28196,1,0,0:0:0:0:
196,188,28446,1,8,0:0:0:0:
196,188,28946,1,0,0:0:0:0:
196,188,29196,1,0,0:0:0:0:
196,188,29446,1,8,0:0:0:0:
192,196,29946,1,0,0:0:0:0:
192,196,30446,1,8,0:0:0:0:
192,196,30946,1,0,0:0:0:0:
192,196,31196,1,0,0:0:0:0:
192,196,31446,1,8,0:0:0:0:
192,196,31695,1,8,0:0:0:0:
148,124,31945,1,4,0:0:0:0:
196,188,32445,1,8,0:0:0:0:
204,204,32945,1,0,0:0:0:0:
204,204,33195,1,0,0:0:0:0:
204,204,33445,1,8,0:0:0:0:
204,204,33945,1,0,0:0:0:0:
204,204,34445,1,8,0:0:0:0:
204,204,34695,1,0,0:0:0:0:
204,204,34945,1,8,0:0:0:0:
204,204,35444,1,8,0:0:0:0:
192,176,35944,1,4,0:0:0:0:
212,192,36444,1,8,0:0:0:0:
212,192,36694,1,0,0:0:0:0:
212,192,36944,1,0,0:0:0:0:
200,164,37444,1,8,0:0:0:0:
196,176,37944,1,12,0:0:0:0:
196,176,38194,1,0,0:0:0:0:
196,176,38444,1,12,0:0:0:0:
196,176,38694,1,0,0:0:0:0:
196,176,38944,1,12,0:0:0:0:
208,184,39443,1,8,0:0:0:0:
208,184,39943,1,0,0:0:0:0:
208,184,40193,1,0,0:0:0:0:
208,184,40443,1,8,0:0:0:0:
220,168,40943,1,8,0:0:0:0:
220,168,41193,1,8,0:0:0:0:
220,168,41443,1,0,0:0:0:0:
220,168,41568,1,0,0:0:0:0:
220,168,41693,1,0,0:0:0:0:
220,168,41943,1,12,0:0:0:0:
220,168,42443,1,12,0:0:0:0:
256,204,42942,5,4,0:0:0:0:
252,196,43442,1,8,0:0:0:0:
104,184,44192,1,0,0:0:0:0:
228,184,44442,1,8,0:0:0:0:
220,180,44942,1,0,0:0:0:0:
160,160,45442,1,8,0:0:0:0:
208,196,45692,1,0,0:0:0:0:
160,160,45942,1,0,0:0:0:0:
272,184,46442,1,8,0:0:0:0:
236,164,46941,1,4,0:0:0:0:
236,164,47441,1,8,0:0:0:0:
200,180,48191,1,0,0:0:0:0:
128,180,48441,1,8,0:0:0:0:
128,180,48941,1,0,0:0:0:0:
128,180,49441,1,8,0:0:0:0:
128,180,49691,1,8,0:0:0:0:
128,180,49941,1,0,0:0:0:0:
144,188,50441,1,8,0:0:0:0:
144,188,50940,1,0,0:0:0:0:
248,275,51440,1,8,0:0:0:0:
152,188,51690,1,0,0:0:0:0:
152,188,51940,1,0,0:0:0:0:
152,188,52440,1,8,0:0:0:0:
152,188,52940,1,0,0:0:0:0:
244,132,53440,1,8,0:0:0:0:
152,188,53690,1,0,0:0:0:0:
152,188,53940,1,0,0:0:0:0:
152,188,54439,1,8,0:0:0:0:
152,188,54939,1,0,0:0:0:0:
152,188,55939,1,8,0:0:0:0:
152,188,56439,1,8,0:0:0:0:
152,188,56939,1,0,0:0:0:0:
144,108,57439,1,8,0:0:0:0:
136,132,57689,1,0,0:0:0:0:
136,136,57939,1,0,0:0:0:0:
136,152,58189,1,0,0:0:0:0:
128,176,58438,1,8,0:0:0:0:
256,204,58938,5,4,0:0:0:0:
252,196,59188,1,0,0:0:0:0:
252,196,59438,1,8,0:0:0:0:
260,184,60188,1,0,0:0:0:0:
228,184,60438,1,8,0:0:0:0:
228,184,60688,1,8,0:0:0:0:
220,180,60938,1,0,0:0:0:0:
160,160,61438,1,8,0:0:0:0:
160,160,61688,1,0,0:0:0:0:
160,160,61938,1,0,0:0:0:0:
272,184,62437,1,8,0:0:0:0:
236,164,62937,1,4,0:0:0:0:
236,164,63187,1,0,0:0:0:0:
236,164,63437,1,8,0:0:0:0:
200,180,64187,1,0,0:0:0:0:
128,180,64437,1,8,0:0:0:0:
128,180,64687,1,0,0:0:0:0:
128,180,64937,1,8,0:0:0:0:
128,180,65437,1,8,0:0:0:0:
128,180,65687,1,0,0:0:0:0:
128,180,65937,1,0,0:0:0:0:
144,188,66436,1,8,0:0:0:0:
144,188,66936,1,0,0:0:0:0:
152,188,67436,1,8,0:0:0:0:
152,188,67936,1,0,0:0:0:0:
152,188,68186,1,0,0:0:0:0:
152,188,68436,1,8,0:0:0:0:
152,188,68936,1,0,0:0:0:0:
152,188,69436,1,8,0:0:0:0:
152,188,69935,1,0,0:0:0:0:
180,144,70185,1,8,0:0:0:0:
152,188,70435,1,8,0:0:0:0:
152,188,70935,1,0,0:0:0:0:
152,188,71935,1,0,0:0:0:0:
152,188,72435,1,8,0:0:0:0:
116,160,72685,1,0,0:0:0:0:
152,188,72935,1,0,0:0:0:0:
280,160,73435,1,8,0:0:0:0:
132,248,73934,1,0,0:0:0:0:
132,248,74184,1,8,0:0:0:0:
132,248,74434,1,0,0:0:0:0:
132,248,74559,1,0,0:0:0:0:
132,248,74684,1,0,0:0:0:0:
132,248,74934,5,4,0:0:0:0:
112,88,75434,1,8,0:0:0:0:
140,116,75934,1,0,0:0:0:0:
140,116,76184,1,0,0:0:0:0:
140,116,76434,1,8,0:0:0:0:
148,160,76934,1,0,0:0:0:0:
100,184,77184,1,0,0:0:0:0:
100,184,77309,1,0,0:0:0:0:
100,184,77434,1,0,0:0:0:0:
100,184,77683,1,8,0:0:0:0:
152,116,77933,1,0,0:0:0:0:
152,116,78433,1,8,0:0:0:0:
192,184,78933,1,0,0:0:0:0:
192,184,79183,1,0,0:0:0:0:
192,184,79433,1,8,0:0:0:0:
192,184,79933,1,0,0:0:0:0:
192,184,80183,1,0,0:0:0:0:
192,184,80433,1,8,0:0:0:0:
188,192,80933,1,0,0:0:0:0:
188,192,81433,1,8,0:0:0:0:
188,192,81682,1,0,0:0:0:0:
188,192,81807,1,0,0:0:0:0:
188,192,81932,1,0,0:0:0:0:
24,156,82182,1,0,0:0:0:0:
188,192,82432,1,8,0:0:0:0:
144,120,82932,1,4,0:0:0:0:
192,184,83432,1,8,0:0:0:0:
200,200,83932,1,0,0:0:0:0:
200,200,84182,1,0,0:0:0:0:
200,200,84432,1,8,0:0:0:0:
200,200,84932,1,0,0:0:0:0:
200,200,85182,1,8,0:0:0:0:
252,160,85307,1,8,0:0:0:0:
200,200,85431,1,8,0:0:0:0:
200,200,85681,1,0,0:0:0:0:
200,200,85931,1,8,0:0:0:0:
200,200,86431,1,8,0:0:0:0:
188,172,86931,1,4,0:0:0:0:
208,188,87431,1,8,0:0:0:0:
208,188,87681,1,0,0:0:0:0:
208,188,87931,1,8,0:0:0:0:
196,160,88431,1,0,0:0:0:0:
196,168,88556,1,0,0:0:0:0:
196,168,88681,1,0,0:0:0:0:
192,172,88931,1,12,0:0:0:0:
192,172,89181,1,0,0:0:0:0:
192,172,89430,1,12,0:0:0:0:
192,172,89680,1,0,0:0:0:0:
192,172,89930,1,12,0:0:0:0:
192,216,90429,1,8,0:0:0:0:
192,216,90929,1,8,0:0:0:0:
192,216,91179,1,0,0:0:0:0:
192,216,91429,1,8,0:0:0:0:
160,176,91929,1,8,0:0:0:0:
160,176,92179,1,8,0:0:0:0:
160,176,92429,1,0,0:0:0:0:
160,176,92554,1,0,0:0:0:0:
160,176,92679,1,0,0:0:0:0:
160,176,92929,1,12,0:0:0:0:
160,176,93429,1,12,0:0:0:0:
256,204,93928,5,4,0:0:0:0:
252,196,94428,1,8,0:0:0:0:
240,168,95178,1,0,0:0:0:0:
228,184,95428,1,8,0:0:0:0:
228,184,95678,1,0,0:0:0:0:
220,180,95928,1,0,0:0:0:0:
160,160,96428,1,8,0:0:0:0:
268,144,96678,1,0,0:0:0:0:
160,160,96928,1,0,0:0:0:0:
272,184,97428,1,8,0:0:0:0:
236,164,97927,1,4,0:0:0:0:
236,164,98427,1,8,0:0:0:0:
200,180,99177,1,0,0:0:0:0:
128,180,99427,1,8,0:0:0:0:
128,180,99677,1,0,0:0:0:0:
128,180,99927,1,8,0:0:0:0:
128,180,100427,1,8,0:0:0:0:
228,132,100677,1,0,0:0:0:0:
128,180,100927,1,0,0:0:0:0:
144,188,101427,1,8,0:0:0:0:
144,188,101926,1,0,0:0:0:0:
152,188,102426,1,8,0:0:0:0:
152,188,102926,1,0,0:0:0:0:
144,188,103176,1,0,0:0:0:0:
152,188,103426,1,8,0:0:0:0:
152,188,103926,1,0,0:0:0:0:
152,188,104426,1,8,0:0:0:0:
152,188,104926,1,0,0:0:0:0:
152,188,105176,1,0,0:0:0:0:
152,188,105425,1,8,0:0:0:0:
152,188,105925,1,0,0:0:0:0:
152,188,106925,1,8,0:0:0:0:
152,188,107425,1,8,0:0:0:0:
152,188,107925,1,0,0:0:0:0:
144,108,108425,1,8,0:0:0:0:
36,188,108675,1,0,0:0:0:0:
136,136,108925,1,0,0:0:0:0:
184,120,109175,1,0,0:0:0:0:
128,176,109424,1,8,0:0:0:0:
256,204,109924,5,4,0:0:0:0:
168,148,110174,1,0,0:0:0:0:
252,196,110424,1,8,0:0:0:0:
228,184,111174,1,0,0:0:0:0:
228,184,111424,1,8,0:0:0:0:
228,184,111674,1,8,0:0:0:0:
220,180,111924,1,0,0:0:0:0:
160,160,112424,1,8,0:0:0:0:
160,160,112674,1,0,0:0:0:0:
160,160,112924,1,0,0:0:0:0:
128,160,113173,1,8,0:0:0:0:
272,184,113423,1,8,0:0:0:0:
236,164,113923,1,4,0:0:0:0:
176,152,114173,1,0,0:0:0:0:
236,164,114423,1,8,0:0:0:0:
200,180,115173,1,0,0:0:0:0:
128,180,115423,1,8,0:0:0:0:
128,180,115673,1,0,0:0:0:0:
128,180,115923,1,8,0:0:0:0:
128,180,116423,1,8,0:0:0:0:
128,180,116673,1,0,0:0:0:0:
128,180,116923,1,0,0:0:0:0:
20,172,117172,1,8,0:0:0:0:
144,188,117422,1,8,0:0:0:0:
144,188,117922,1,0,0:0:0:0:
152,188,118422,1,8,0:0:0:0:
152,188,118922,1,0,0:0:0:0:
152,188,119172,1,8,0:0:0:0:
168,176,119297,1,8,0:0:0:0:
152,188,119422,1,8,0:0:0:0:
152,188,119922,1,0,0:0:0:0:
152,188,120422,1,8,0:0:0:0:
152,188,120921,1,0,0:0:0:0:
180,144,121171,1,8,0:0:0:0:
180,144,121296,1,8,0:0:0:0:
152,188,121421,1,8,0:0:0:0:
152,188,121921,1,0,0:0:0:0:
152,188,122421,1,8,0:0:0:0:
152,188,122921,1,0,0:0:0:0:
152,188,123171,1,0,0:0:0:0:
152,188,123421,1,8,0:0:0:0:
152,188,123921,1,0,0:0:0:0:
128,176,124421,1,8,0:0:0:0:
104,120,124920,1,0,0:0:0:0:
192,152,125170,1,8,0:0:0:0:
176,180,125420,1,0,0:0:0:0:
176,180,125545,1,0,0:0:0:0:
176,180,125670,1,0,0:0:0:0:
192,176,125920,5,4,0:0:0:0:
112,88,126420,1,8,0:0:0:0:
140,116,126920,1,0,0:0:0:0:
140,116,127170,1,0,0:0:0:0:
140,116,127420,1,8,0:0:0:0:
148,160,127920,1,0,0:0:0:0:
268,196,128045,1,0,0:0:0:0:
100,184,128170,1,0,0:0:0:0:
100,184,128420,1,8,0:0:0:0:
100,184,128669,1,8,0:0:0:0:
152,116,128919,1,0,0:0:0:0:
152,116,129419,1,8,0:0:0:0:
192,184,129919,1,0,0:0:0:0:
192,184,130169,1,0,0:0:0:0:
192,184,130419,1,8,0:0:0:0:
192,184,130919,1,0,0:0:0:0:
192,184,131169,1,0,0:0:0:0:
192,184,131419,1,8,0:0:0:0:
176,160,131669,1,8,0:0:0:0:
188,192,131919,1,0,0:0:0:0:
188,192,132419,1,8,0:0:0:0:
188,192,132668,1,0,0:0:0:0:
188,192,132793,1,0,0:0:0:0:
188,192,132918,1,0,0:0:0:0:
188,192,133168,1,0,0:0:0:0:
188,192,133418,1,8,0:0:0:0:
188,192,133668,1,8,0:0:0:0:
144,120,133918,1,4,0:0:0:0:
192,184,134418,1,8,0:0:0:0:
200,200,134918,1,0,0:0:0:0:
200,200,135168,1,0,0:0:0:0:
200,200,135418,1,8,0:0:0:0:
200,200,135918,1,8,0:0:0:0:
200,200,136168,1,0,0:0:0:0:
200,200,136417,1,8,0:0:0:0:
200,200,136667,1,0,0:0:0:0:
200,200,136917,1,8,0:0:0:0:
200,200,137417,1,8,0:0:0:0:
188,172,137917,1,4,0:0:0:0:
208,188,138417,1,8,0:0:0:0:
208,188,138667,1,0,0:0:0:0:
208,188,138917,1,8,0:0:0:0:
196,160,139417,1,0,0:0:0:0:
196,156,139542,1,0,0:0:0:0:
196,168,139667,1,0,0:0:0:0:
192,172,139917,1,12,0:0:0:0:
192,172,140167,1,0,0:0:0:0:
192,172,140416,1,12,0:0:0:0:
192,172,140666,1,0,0:0:0:0:
192,172,140916,5,12,0:0:0:0:
216,160,141915,1,0,0:0:0:0:
216,160,142415,1,8,0:0:0:0:
136,168,142915,1,0,0:0:0:0:
136,168,143415,1,8,0:0:0:0:
136,168,143665,1,0,0:0:0:0:
156,164,143915,1,8,0:0:0:0:
164,168,144040,1,8,0:0:0:0:
164,168,144165,1,8,0:0:0:0:
164,168,144415,1,0,0:0:0:0:
164,168,144540,1,0,0:0:0:0:
164,168,144665,1,0,0:0:0:0:
164,168,144914,1,12,0:0:0:0:
228,156,145914,1,0,0:0:0:0:
228,156,146164,1,0,0:0:0:0:
228,156,146414,1,8,0:0:0:0:
176,200,146914,1,0,0:0:0:0:
176,200,147414,1,8,0:0:0:0:
84,164,147664,1,0,0:0:0:0:
172,184,147914,1,8,0:0:0:0:
208,148,148039,1,8,0:0:0:0:
200,148,148164,1,8,0:0:0:0:
232,176,148414,1,8,0:0:0:0:
148,152,148663,1,0,0:0:0:0:
232,176,148913,1,4,0:0:0:0:
208,208,149413,1,8,0:0:0:0:
152,184,149913,1,0,0:0:0:0:
144,200,150163,1,0,0:0:0:0:
144,204,150413,1,8,0:0:0:0:
208,208,150913,1,0,0:0:0:0:
184,176,151288,1,0,0:0:0:0:
320,264,151663,1,0,0:0:0:0:
184,176,151788,1,0,0:0:0:0:
284,184,151913,1,0,0:0:0:0:
184,184,152163,1,0,0:0:0:0:
364,276,152413,1,8,0:0:0:0:
364,276,152662,1,8,0:0:0:0:
364,276,152912,1,4,0:0:0:0:
200,176,153412,1,8,0:0:0:0:
324,232,153912,1,0,0:0:0:0:
372,268,154162,1,0,0:0:0:0:
280,192,154412,1,8,0:0:0:0:
120,196,154912,1,0,0:0:0:0:
360,256,155412,1,8,0:0:0:0:
360,256,155662,1,0,0:0:0:0:
224,204,155912,1,8,0:0:0:0:
224,204,156162,1,8,0:0:0:0:
224,204,156411,1,0,0:0:0:0:
224,204,156536,1,0,0:0:0:0:
224,204,156661,1,0,0:0:0:0:
284,184,156911,5,0,0:0:0:0:
256,184,158411,1,0,0:0:0:0:
260,220,158911,1,8,0:0:0:0:
260,220,159911,1,0,0:0:0:0:
260,220,160910,1,0,0:0:0:0:
152,180,162410,1,0,0:0:0:0:
260,220,162910,1,8,0:0:0:0:
260,220,163910,1,8,0:0:0:0:
260,220,164909,1,4,0:0:0:0:
260,220,165909,1,8,0:0:0:0:
260,220,166409,1,0,0:0:0:0:
260,220,166909,1,12,0:0:0:0:
240,192,167909,1,0,0:0:0:0:
240,192,168408,1,8,0:0:0:0:
200,160,168908,1,4,0:0:0:0:
200,160,169408,1,12,0:0:0:0:
200,160,169908,1,4,0:0:0:0:
200,160,170408,1,4,0:0:0:0:
200,160,170908,1,12,0:0:0:0:
256,192,171158,12,0,173657,0:0:0:0:
188,152,173907,5,0,0:0:0:0:
188,152,174407,1,8,0:0:0:0:
228,212,174657,1,0,0:0:0:0:
228,164,174782,1,0,0:0:0:0:
192,144,174907,1,0,0:0:0:0:
192,144,175407,1,0,0:0:0:0:
192,144,175657,1,0,0:0:0:0:
192,144,175906,1,0,0:0:0:0:
192,144,176156,1,0,0:0:0:0:
192,144,176406,1,0,0:0:0:0:
192,144,176656,1,0,0:0:0:0:
192,144,176906,1,8,0:0:0:0:
192,144,177406,1,8,0:0:0:0:
192,144,177656,1,8,0:0:0:0:
288,132,177906,1,8,0:0:0:0:
192,144,178031,1,8,0:0:0:0:
192,144,178156,1,8,0:0:0:0:
192,144,178406,1,0,0:0:0:0:
192,144,178531,1,0,0:0:0:0:
192,144,178656,1,0,0:0:0:0:
192,144,178906,5,4,0:0:0:0:
168,140,179406,1,8,0:0:0:0:
172,148,179655,1,0,0:0:0:0:
172,148,179780,1,0,0:0:0:0:
172,148,179905,1,0,0:0:0:0:
172,148,180155,1,0,0:0:0:0:
172,148,180405,1,8,0:0:0:0:
172,148,180905,1,0,0:0:0:0:
172,148,181155,1,0,0:0:0:0:
264,180,181405,1,8,0:0:0:0:
264,180,181655,1,8,0:0:0:0:
212,148,181905,1,0,0:0:0:0:
212,148,182405,1,8,0:0:0:0:
212,148,182530,1,8,0:0:0:0:
212,148,182655,1,8,0:0:0:0:
212,148,182905,1,0,0:0:0:0:
212,148,183155,1,0,0:0:0:0:
212,148,183405,1,8,0:0:0:0:
312,244,183904,1,0,0:0:0:0:
312,244,184154,1,0,0:0:0:0:
312,244,184404,1,8,0:0:0:0:
312,244,184654,1,0,0:0:0:0:
148,136,184779,1,0,0:0:0:0:
148,136,184904,1,0,0:0:0:0:
156,232,185404,1,8,0:0:0:0:
156,232,185654,1,0,0:0:0:0:
60,180,185779,1,0,0:0:0:0:
80,176,185904,1,0,0:0:0:0:
56,156,186154,1,0,0:0:0:0:
160,196,186404,1,8,0:0:0:0:
160,196,186654,1,8,0:0:0:0:
160,196,186904,1,4,0:0:0:0:
200,176,187403,1,8,0:0:0:0:
128,168,187653,1,0,0:0:0:0:
128,168,187778,1,0,0:0:0:0:
128,168,187903,1,0,0:0:0:0:
128,168,188153,1,0,0:0:0:0:
128,168,188403,1,8,0:0:0:0:
128,168,188903,1,0,0:0:0:0:
128,168,189153,1,0,0:0:0:0:
128,168,189403,1,8,0:0:0:0:
136,164,189653,1,0,0:0:0:0:
204,144,189903,1,8,0:0:0:0:
184,200,190153,1,0,0:0:0:0:
184,208,190278,1,0,0:0:0:0:
112,152,190403,1,8,0:0:0:0:
236,176,190903,1,4,0:0:0:0:
224,200,191902,1,0,0:0:0:0:
224,200,192402,1,8,0:0:0:0:
224,200,192652,1,0,0:0:0:0:
224,200,192902,1,8,0:0:0:0:
288,212,193027,1,8,0:0:0:0:
224,200,193152,1,8,0:0:0:0:
224,200,193402,1,0,0:0:0:0:
224,200,193527,1,0,0:0:0:0:
224,200,193652,1,0,0:0:0:0:
224,200,193902,5,4,0:0:0:0:
140,184,194401,1,8,0:0:0:0:
116,180,194651,1,0,0:0:0:0:
168,180,194776,1,0,0:0:0:0:
164,164,194901,1,0,0:0:0:0:
160,160,195151,1,0,0:0:0:0:
168,160,195401,1,8,0:0:0:0:
164,164,195901,1,0,0:0:0:0:
164,168,196151,1,0,0:0:0:0:
164,168,196401,1,8,0:0:0:0:
164,164,196651,1,8,0:0:0:0:
272,140,196901,1,0,0:0:0:0:
300,88,197401,1,8,0:0:0:0:
160,144,197651,1,0,0:0:0:0:
288,220,197900,1,0,0:0:0:0:
152,196,198150,1,0,0:0:0:0:
168,168,198275,1,0,0:0:0:0:
152,196,198400,1,0,0:0:0:0:
188,144,198900,1,8,0:0:0:0:
188,144,199150,1,8,0:0:0:0:
188,144,199275,1,8,0:0:0:0:
188,144,199400,1,8,0:0:0:0:
120,144,199900,1,0,0:0:0:0:
168,168,200150,1,0,0:0:0:0:
168,164,200275,1,0,0:0:0:0:
168,168,200400,1,0,0:0:0:0:
168,164,200650,1,0,0:0:0:0:
168,164,200900,1,8,0:0:0:0:
168,168,201400,1,8,0:0:0:0:
168,164,201649,1,8,0:0:0:0:
168,164,201899,1,4,0:0:0:0:
252,272,202399,1,8,0:0:0:0:
232,240,202649,1,0,0:0:0:0:
232,240,202774,1,0,0:0:0:0:
232,240,202899,1,0,0:0:0:0:
232,240,203149,1,0,0:0:0:0:
232,240,203399,1,8,0:0:0:0:
256,208,203899,1,8,0:0:0:0:
140,192,204149,1,0,0:0:0:0:
280,188,204399,1,8,0:0:0:0:
280,188,204649,1,8,0:0:0:0:
280,188,204899,1,0,0:0:0:0:
444,132,205024,1,0,0:0:0:0:
176,168,205149,1,0,0:0:0:0:
240,180,205399,1,8,0:0:0:0:
272,192,205898,1,4,0:0:0:0:
204,136,206398,1,8,0:0:0:0:
224,176,206648,1,0,0:0:0:0:
224,176,206773,1,0,0:0:0:0:
224,176,206898,1,0,0:0:0:0:
224,176,207398,1,8,0:0:0:0:
224,176,207648,1,0,0:0:0:0:
200,176,207898,1,12,0:0:0:0:
216,216,208148,1,0,0:0:0:0:
208,212,208398,1,12,0:0:0:0:
216,216,208648,1,0,0:0:0:0:
180,204,208898,5,12,0:0:0:0:
244,172,209397,1,8,0:0:0:0:
208,188,209647,1,0,0:0:0:0:
208,188,209897,1,8,0:0:0:0:
228,172,210397,1,8,0:0:0:0:
232,176,210897,1,0,0:0:0:0:
228,172,211147,1,0,0:0:0:0:
228,172,211397,1,8,0:0:0:0:
236,160,211897,1,8,0:0:0:0:
236,160,212147,1,8,0:0:0:0:
236,160,212272,1,8,0:0:0:0:
236,160,212397,1,8,0:0:0:0:
236,160,212647,1,8,0:0:0:0:
236,160,212896,1,0,0:0:0:0:
256,180,213896,1,0,0:0:0:0:
108,176,214146,1,0,0:0:0:0:
72,160,214271,1,0,0:0:0:0:
252,180,214396,1,0,0:0:0:0:
252,176,214646,1,0,0:0:0:0:
256,180,214896,1,8,0:0:0:0:
252,180,215396,1,8,0:0:0:0:
256,180,215896,1,0,0:0:0:0:
252,180,216146,1,0,0:0:0:0:
252,180,216396,1,8,0:0:0:0:
252,176,216645,1,0,0:0:0:0:
236,160,217145,1,8,0:0:0:0:
328,136,217270,1,8,0:0:0:0:
236,160,217395,1,8,0:0:0:0:
236,160,217645,1,8,0:0:0:0:
236,160,217895,1,8,0:0:0:0:
236,160,218395,1,0,0:0:0:0:
236,160,218645,1,0,0:0:0:0:
236,160,218895,1,0,0:0:0:0:
236,160,219395,1,8,0:0:0:0:
176,200,219645,1,8,0:0:0:0:
244,168,219895,1,0,0:0:0:0:
244,168,220145,1,8,0:0:0:0:
244,168,220270,1,8,0:0:0:0:
244,168,220395,1,8,0:0:0:0:
244,168,220894,1,4,0:0:0:0:
224,112,221394,1,8,0:0:0:0:
180,148,221644,1,0,0:0:0:0:
224,112,221894,1,4,0:0:0:0:
168,140,222144,1,0,0:0:0:0:
168,144,222269,1,0,0:0:0:0:
228,128,222394,1,0,0:0:0:0:
264,144,222894,1,12,0:0:0:0:
256,156,223394,1,8,0:0:0:0:
312,160,223644,1,0,0:0:0:0:
256,156,223894,1,4,0:0:0:0:
256,156,224393,1,0,0:0:0:0:
256,156,224893,1,12,0:0:0:0:
268,144,225393,1,8,0:0:0:0:
236,120,225643,1,0,0:0:0:0:
292,156,225893,1,4,0:0:0:0:
88,176,226143,1,0,0:0:0:0:
120,160,226268,1,0,0:0:0:0:
292,156,226393,1,0,0:0:0:0:
264,188,226893,1,12,0:0:0:0:
256,180,227393,1,12,0:0:0:0:
256,180,227893,1,4,0:0:0:0:
248,140,228892,1,0,0:0:0:0:
240,144,229392,1,8,0:0:0:0:
164,156,229892,1,0,0:0:0:0:
240,176,230142,1,8,0:0:0:0:
240,184,230392,1,0,0:0:0:0:
56,160,230517,1,0,0:0:0:0:
336,208,230642,1,0,0:0:0:0:
248,196,230892,1,12,0:0:0:0:
248,196,231392,1,12,0:0:0:0:
48,152,231642,1,0,0:0:0:0:
204,160,231766,1,0,0:0:0:0:
248,196,231891,1,0,0:0:0:0:
248,196,232391,1,12,0:0:0:0:
256,192,232641,12,2,239889,0:0:0:0:
