osu file format v14

[General]
AudioFilename: audio.mp3
AudioLeadIn: 0
PreviewTime: 61255
Countdown: 1
SampleSet: None
StackLeniency: 0.3
Mode: 0
LetterboxInBreaks: 0
WidescreenStoryboard: 0

[Editor]
Bookmarks: 37723
DistanceSpacing: 3
BeatDivisor: 4
GridSize: 8
TimelineZoom: 2.8

[Metadata]
Title:CANDYYYLAND (feat. LIZ)
TitleUnicode:CANDYYYLAND (feat. LIZ)
Artist:TOFUBEATS
ArtistUnicode:TOFUBEATS
Creator:Leonlxrd
Version:C A N D YYY
Source:
Tags:
BeatmapID:1764733
BeatmapSetID:843484

[Difficulty]
HPDrainRate:4.8
CircleSize:3.8
OverallDifficulty:7.5
ApproachRate:9.4
SliderMultiplier:1.7
SliderTickRate:1

[Events]
//Background and Video events
0,0,"[Qualifier] - CANDYYYLAND (feat. LIZ)-bg.jpg",0,0
//Break Periods
2,7267,13090
2,97830,109090
//Storyboard Layer 0 (Background)
//Storyboard Layer 1 (Fail)
//Storyboard Layer 2 (Pass)
//Storyboard Layer 3 (Foreground)
//Storyboard Sound Samples

[TimingPoints]
2380.22645213849,375,4,1,0,40,1,0
37723,-100,4,1,0,40,0,1
49630,-100,4,1,0,40,0,0
61630,-200,4,2,0,40,0,1
62098,-100,4,2,0,40,0,1
62473,-200,4,2,0,40,0,1
62755,-100,4,2,0,40,0,1
66880,-200,4,1,0,40,0,1
67630,-100,4,1,0,40,0,1
73255,-100,4,1,0,40,0,0
74005,-100,4,3,0,50,0,0
86755,-100,4,2,0,50,0,0
88255,-100,4,3,0,50,0,0
89473,-100,4,3,0,50,0,0
92098,-100,4,2,0,50,0,0
115255,-50,4,3,0,50,0,0
116380,-100,4,3,0,50,0,0
121255,-50,4,3,0,50,0,0
145630,-100,4,3,0,50,0,0
157630,-50,4,3,0,50,0,0
183880,-33.3333333333333,4,3,0,40,0,1
185005,-25,4,2,0,40,0,1
186880,-100,4,2,0,40,0,1
187255,-25,4,2,0,40,0,1
192880,-100,4,2,0,40,0,1
193255,-25,4,2,0,40,0,1
196255,-33.3333333333333,4,2,0,40,0,1
198130,-100,4,2,0,40,0,1
198317,-50,4,2,0,40,0,1
198505,-33.3333333333333,4,2,0,40,0,1
207130,-33.3333333333333,4,2,0,40,0,0

[HitObjects]
152,248,1630,6,0,B|104:148|104:64|104:64|180:124|248:120,2,340
324,268,3505,1,0,0:0:0:0:
328,96,3880,1,0,0:0:0:0:
136,112,4255,5,2,0:0:0:0:
168,128,4348,2,0,L|192:176,2,42.5
264,56,4630,6,2,L|264:112,1,42.5
288,240,4817,1,4,0:0:0:0:
384,56,5005,2,2,L|368:112,1,42.5
288,240,5192,1,4,0:0:0:0:
464,152,5380,2,2,L|424:200,1,42.5
288,240,5567,1,4,0:0:0:0:
448,288,5755,2,2,L|400:272,1,42.5
104,64,6130,5,4,0:0:0:0:
104,160,6317,1,2,0:0:0:0:
248,64,6505,5,4,0:0:0:0:
248,160,6692,1,2,0:0:0:0:
104,64,6880,2,4,L|104:160,1,85
96,80,13630,6,8,L|192:88,1,85
304,96,14005,1,0,0:0:0:0:
304,96,14380,1,0,0:0:0:0:
112,64,14755,6,0,L|128:136,1,42.5
176,192,14942,1,0,0:0:0:0:
288,192,15130,2,8,L|272:80,1,85
208,48,15505,1,0,0:0:0:0:
208,48,15880,1,0,0:0:0:0:
208,48,16255,1,0,0:0:0:0:
352,80,16630,6,8,L|256:152,1,85
128,104,17380,2,8,L|184:192,1,85
368,120,18130,2,0,L|336:216,1,85
224,240,18505,1,0,0:0:0:0:
224,240,18880,1,0,0:0:0:0:
224,240,19255,1,0,0:0:0:0:
104,80,19630,6,8,L|216:112,1,85
296,128,20005,1,0,0:0:0:0:
104,80,20380,6,8,L|216:112,1,85
296,128,20755,1,0,0:0:0:0:
104,80,21130,6,8,L|216:112,1,85
296,128,21505,1,0,0:0:0:0:
296,128,21880,1,4,0:0:0:0:
138,339,22630,6,8,L|174:229,1,85
193,149,23005,1,0,0:0:0:0:
138,339,23380,6,8,L|174:229,1,85
193,149,23755,1,0,0:0:0:0:
138,339,24130,6,8,L|174:229,1,85
193,149,24505,1,0,0:0:0:0:
312,200,24880,6,0,L|320:128,2,42.5
304,72,25161,2,0,L|192:72,2,85
104,112,25630,5,0,0:0:0:0:
160,176,25817,2,0,L|184:280,1,85
320,240,26192,2,0,L|320:128,1,85
312,64,26567,1,0,0:0:0:0:
204,76,26755,5,2,0:2:0:0:
170,67,26849,1,2,0:2:0:0:
125,75,26943,1,2,0:1:0:0:
89,120,27037,1,2,0:0:0:0:
79,190,27130,2,2,P|91:240|144:296,1,127.5
160,296,27505,2,4,P|200:240|264:224,1,127.5
272,224,27880,2,8,P|296:264|376:304,1,127.5
424,192,28255,5,2,2:0:0:0:
387,124,28348,1,2,2:0:0:0:
340,90,28442,1,2,2:1:0:0:
294,93,28536,1,2,2:2:0:0:
264,112,28630,2,2,L|216:128,1,42.5
112,168,28817,5,4,0:0:0:0:
264,136,29005,2,2,L|192:152,1,42.5
112,168,29192,1,4,0:0:0:0:
56,80,29380,2,2,L|128:80,1,42.5
184,80,29567,1,4,0:0:0:0:
312,80,29755,2,2,L|240:80,1,42.5
184,80,29942,1,4,0:0:0:0:
120,184,30130,6,0,P|128:224|168:264,1,85
352,224,30505,2,0,P|352:168|336:112,1,85
88,72,30880,6,2,L|104:144,1,42.5
120,208,31067,1,4,0:0:0:0:
165,76,31255,6,2,L|140:145,1,42.5
120,208,31442,1,4,0:0:0:0:
416,184,31630,6,4,L|352:96,1,85
256,72,32005,1,2,0:0:0:0:
128,112,32192,1,2,0:0:0:0:
104,240,32380,2,4,L|200:272,1,85
336,248,32755,5,2,0:2:0:0:
332,212,32849,1,2,0:2:0:0:
307,174,32943,1,2,0:1:0:0:
252,157,33037,1,2,0:0:0:0:
179,173,33130,2,2,L|115:191,1,42.5
64,88,33505,2,0,L|72:152,1,42.5
80,280,33880,2,0,L|72:216,1,42.5
168,224,34255,5,2,0:0:0:0:
236,243,34348,1,2,0:0:0:0:
291,226,34442,1,2,0:1:0:0:
316,188,34536,1,2,0:2:0:0:
320,144,34630,2,2,L|376:160,1,42.5
464,184,34817,1,0,0:0:0:0:
456,72,35005,2,2,L|376:80,1,42.5
328,80,35192,1,4,0:0:0:0:
248,64,35380,6,2,L|264:136,1,42.5
280,200,35567,1,4,0:0:0:0:
104,48,35755,6,2,P|104:88|144:152,1,85
144,240,36130,5,0,0:0:0:0:
248,176,36317,1,0,0:0:0:0:
384,168,36692,1,0,0:0:0:0:
88,88,36880,6,0,L|160:80,1,42.5
208,64,37067,2,0,L|240:96,1,42.5
120,200,37255,5,0,0:0:0:0:
139,200,37348,1,0,0:0:0:0:
159,200,37442,1,0,0:0:0:0:
178,200,37536,1,0,0:0:0:0:
198,200,37630,1,0,0:0:0:0:
224,200,37723,2,2,L|248:136,2,42.5
248,312,38005,5,2,0:0:0:0:
272,312,38192,2,2,L|312:264,1,42.5
335,137,38379,1,2,0:0:0:0:
326,105,38473,2,2,L|278:86,1,42.5
168,48,38661,2,2,L|160:104,1,42.5
104,208,38848,1,2,0:0:0:0:
136,232,38942,5,2,0:0:0:0:
165,226,39035,1,2,0:0:0:0:
194,224,39129,1,2,0:0:0:0:
224,225,39223,1,2,0:0:0:0:
253,229,39317,1,2,0:0:0:0:
312,272,39411,5,2,0:0:0:0:
344,272,39598,2,2,L|360:200,1,42.5
328,88,39787,1,2,0:0:0:0:
296,72,39880,2,4,L|224:80,1,42.5
112,88,40067,6,4,L|128:160,1,42.5
160,256,40255,2,4,L|224:232,1,42.5
280,128,40442,2,4,L|288:192,1,42.5
96,80,40630,5,2,0:0:0:0:
124,80,40723,1,2,0:0:0:0:
152,80,40817,1,2,0:0:0:0:
184,80,40911,1,2,0:0:0:0:
216,80,41005,2,2,L|264:96,3,42.5
280,184,41380,5,2,0:0:0:0:
237,182,41473,1,2,0:0:0:0:
195,180,41567,1,2,0:0:0:0:
152,178,41661,1,2,0:0:0:0:
112,176,41755,2,2,P|104:128|112:80,1,85
232,72,42036,5,2,0:0:0:0:
259,40,42129,1,2,0:0:0:0:
300,32,42223,1,2,0:0:0:0:
336,53,42317,1,2,0:0:0:0:
344,104,42411,5,2,0:0:0:0:
316,135,42504,1,2,0:0:0:0:
275,143,42598,1,2,0:0:0:0:
239,122,42692,1,2,0:0:0:0:
112,72,42786,6,2,L|128:144,1,42.5
136,216,42973,1,2,0:0:0:0:
136,216,43067,2,2,L|232:216,1,85
288,216,43348,1,6,0:0:0:0:
288,216,43442,2,2,L|288:104,1,85
80,56,43723,5,2,0:0:0:0:
122,56,43816,1,2,0:0:0:0:
168,56,43911,2,2,L|256:56,1,85
368,88,44192,5,2,0:0:0:0:
368,116,44285,1,2,0:0:0:0:
368,144,44379,1,2,0:0:0:0:
368,173,44473,1,2,0:0:0:0:
280,168,44567,5,2,0:0:0:0:
280,139,44661,1,2,0:0:0:0:
280,111,44755,1,2,0:0:0:0:
280,80,44848,2,2,L|216:80,1,42.5
112,88,45036,5,2,0:2:0:0:
139,111,45130,1,2,0:2:0:0:
157,153,45224,1,2,0:1:0:0:
140,208,45318,1,2,0:0:0:0:
88,264,45411,1,2,0:0:0:0:
88,264,45505,6,2,L|144:248,1,42.5
200,152,45692,2,2,L|176:208,1,42.5
240,312,45880,2,2,L|192:256,1,42.5
168,240,46067,1,2,0:0:0:0:
272,160,46161,6,2,L|272:232,2,42.5
272,104,46442,1,2,0:0:0:0:
96,128,46630,5,2,0:2:0:0:
100,164,46724,1,2,0:2:0:0:
125,202,46818,1,2,0:1:0:0:
180,219,46912,1,2,0:0:0:0:
253,203,47005,2,2,L|317:184,1,42.5
360,112,47192,5,2,0:0:0:0:
336,80,47286,2,2,L|256:80,1,42.5
152,72,47473,2,2,L|168:120,1,42.5
208,232,47661,2,2,L|272:224,1,42.5
88,264,47848,5,2,0:0:0:0:
140,208,47941,1,2,0:0:0:0:
157,153,48035,1,2,0:1:0:0:
139,111,48129,1,2,0:2:0:0:
112,88,48223,1,2,0:2:0:0:
112,88,48317,2,2,L|176:72,1,42.5
296,144,48505,2,2,L|248:88,1,42.5
72,144,48692,2,2,L|88:192,1,42.5
136,304,48880,5,2,0:0:0:0:
161,308,48973,1,2,0:0:0:0:
188,309,49067,1,2,0:0:0:0:
214,309,49161,1,2,0:0:0:0:
312,272,49255,2,2,L|296:208,1,42.5
24,80,49630,6,4,L|24:200,1,85
256,80,50005,2,4,L|256:192,1,85
488,80,50380,2,4,L|488:176,1,85
488,304,50755,6,4,L|488:184,1,85
256,304,51130,2,4,L|256:192,1,85
24,304,51505,2,4,L|24:208,1,85
144,192,51880,6,4,L|256:192,1,85
368,192,52255,2,4,L|283:192,1,85
256,80,52630,2,4,L|256:165,1,85
255,304,53005,2,4,L|256:219,1,85
168,72,53380,6,4,P|160:112|168:176,1,85
344,312,53755,2,4,P|352:272|344:208,1,85
168,312,54130,6,4,P|159:270|162:228,1,85
343,71,54505,2,4,P|352:113|349:155,1,85
256,72,54880,6,4,L|256:160,1,85
256,312,55255,2,4,L|256:224,1,85
144,72,55630,5,4,0:0:0:0:
200,216,55817,1,0,0:0:0:0:
296,72,56005,5,4,0:0:0:0:
200,216,56192,1,0,0:0:0:0:
136,72,56380,1,4,0:0:0:0:
120,216,56567,5,0,0:0:0:0:
216,72,56755,1,4,0:0:0:0:
296,208,56942,1,0,0:0:0:0:
192,279,57130,1,4,0:0:0:0:
360,160,57317,1,0,0:0:0:0:
152,158,57505,1,4,0:0:0:0:
319,279,57692,1,0,0:0:0:0:
256,83,57880,1,4,0:0:0:0:
112,256,58067,5,0,0:0:0:0:
240,168,58255,1,4,0:0:0:0:
112,256,58442,5,0,0:0:0:0:
336,104,58630,2,0,L|288:128,1,42.5
144,72,58817,2,0,L|184:128,1,42.5
200,272,59005,2,0,L|216:224,1,42.5
304,88,59192,2,0,L|320:160,1,42.5
344,264,59380,2,0,L|288:232,1,42.5
152,40,59567,2,0,L|160:96,1,42.5
152,168,59755,2,0,L|144:216,1,42.5
152,304,59942,2,0,L|168:352,1,42.5
296,328,60130,6,0,L|312:280,1,42.5
296,184,60317,2,0,L|280:112,1,42.5
304,56,60505,2,0,L|328:8,1,42.5
192,56,60692,2,0,L|152:104,1,42.5
88,232,60880,2,0,L|112:184,1,42.5
232,96,61067,2,0,L|208:152,1,42.5
304,304,61255,6,0,B|328:248|288:208|320:160,1,127.5
368,88,61630,2,0,P|328:72|288:88,1,85
64,72,62098,2,2,L|72:144,1,42.5
112,208,62286,2,2,L|104:264,1,42.5
72,328,62473,2,2,L|91:388,1,42.5
288,272,62755,6,2,L|304:200,1,42.5
224,96,62942,2,2,L|216:176,1,42.5
136,272,63130,2,2,L|136:192,1,42.5
56,88,63317,2,2,L|56:152,2,42.5
192,160,63598,1,0,0:0:0:0:
216,192,63692,2,2,L|256:160,2,42.5
368,120,63973,6,2,L|296:104,1,42.5
104,184,64161,2,2,L|128:120,1,42.5
200,32,64348,2,2,L|216:96,1,42.5
216,176,64536,2,2,B|200:224|232:256|224:296,1,85
232,352,64817,1,4,0:0:0:0:
344,136,65005,2,2,L|344:208,1,42.5
344,280,65192,1,4,0:0:0:0:
96,136,65380,2,2,L|96:208,1,42.5
96,256,65567,1,4,0:0:0:0:
222,259,65755,2,0,B|232:200|192:160|224:112,1,127.5
152,48,66130,6,2,L|128:112,1,42.5
104,168,66317,1,4,0:0:0:0:
192,296,66505,2,2,L|232:232,1,42.5
272,184,66692,1,4,0:0:0:0:
344,88,66880,6,0,B|296:104|272:88|248:96,1,85
160,88,67348,2,0,L|160:144,1,42.5
152,264,67630,6,0,L|264:264,1,85
328,216,68005,1,0,0:0:0:0:
272,128,68098,2,0,L|216:160,2,42.5
144,152,68380,1,0,0:0:0:0:
88,32,68567,6,2,L|88:104,1,42.5
144,136,68755,2,2,L|144:192,1,42.5
80,224,68942,2,2,L|80:280,1,42.5
144,320,69130,2,2,L|144:376,1,42.5
280,336,69317,6,2,L|280:272,1,42.5
280,224,69505,2,2,L|280:168,1,42.5
280,336,69692,2,2,L|280:272,1,42.5
280,112,69880,2,2,B|232:128|176:96|136:112,1,127.5
56,160,70255,6,2,L|80:224,1,42.5
160,264,70442,2,2,L|160:320,1,42.5
176,96,70630,6,2,L|256:96,1,42.5
288,96,70817,1,4,0:0:0:0:
128,96,71005,6,2,L|208:96,1,42.5
304,96,71192,1,4,0:0:0:0:
80,96,71380,6,2,L|160:96,1,42.5
320,96,71567,1,4,0:0:0:0:
32,96,71755,2,2,B|13:135|56:176|40:240,1,127.5
160,112,72130,6,2,L|168:168,1,42.5
184,280,72317,1,4,0:0:0:0:
288,112,72505,2,2,L|264:176,1,42.5
184,280,72692,1,4,0:0:0:0:
480,256,72880,2,2,L|432:264,1,42.5
184,280,73067,1,4,0:0:0:0:
112,88,73255,6,0,L|200:88,1,85
272,88,73536,1,0,0:0:0:0:
280,96,73630,2,0,B|320:128|288:176|336:232,1,127.5
136,80,74005,6,0,L|176:184,1,85
192,256,74380,1,0,0:0:0:0:
192,256,74473,1,0,0:0:0:0:
192,256,74567,1,0,0:0:0:0:
312,248,74755,6,0,L|328:192,1,42.5
344,104,74942,1,0,0:0:0:0:
344,104,75036,2,0,L|288:96,3,42.5
208,72,75411,6,0,L|152:88,1,42.5
80,88,75598,2,0,L|40:136,1,42.5
112,200,75786,2,0,L|136:248,1,42.5
224,264,75973,1,0,0:0:0:0:
256,256,76067,2,0,L|272:208,1,42.5
256,96,76255,6,0,L|288:88,4,21.25
192,56,76536,1,0,0:0:0:0:
167,65,76629,1,0,0:0:0:0:
142,74,76723,1,0,0:0:0:0:
117,83,76817,1,0,0:0:0:0:
56,144,76911,2,0,L|88:192,3,42.5
160,224,77286,1,0,0:0:0:0:
376,112,77755,6,0,L|272:96,1,85
168,88,78036,1,0,0:0:0:0:
80,128,78223,2,0,L|96:152,4,21.25
160,256,78505,5,8,0:0:0:0:
224,232,78630,1,8,0:0:0:0:
264,176,78755,1,8,0:0:0:0:
280,112,78880,1,8,0:0:0:0:
200,48,79067,2,0,L|120:88,1,85
80,176,79380,1,4,0:0:0:0:
128,256,79505,1,4,0:0:0:0:
224,272,79630,1,4,0:0:0:0:
304,224,79755,2,0,L|312:168,3,42.5
264,64,80192,5,0,0:0:0:0:
235,64,80285,1,0,0:0:0:0:
207,64,80379,1,0,0:0:0:0:
178,64,80473,1,0,0:0:0:0:
150,64,80567,1,0,0:0:0:0:
112,64,80661,2,0,L|104:184,1,85
112,248,80942,6,0,L|160:248,2,42.5
232,224,81223,1,0,0:0:0:0:
304,128,81411,1,0,0:0:0:0:
304,128,81505,1,0,0:0:0:0:
304,128,81598,1,0,0:0:0:0:
304,128,81692,2,0,L|344:96,1,42.5
304,128,81880,2,0,L|240:96,1,42.5
152,64,82067,6,0,L|136:96,2,21.25
112,160,82255,2,0,L|152:168,2,21.25
224,200,82442,2,0,L|224:160,4,21.25
256,88,82723,1,0,0:0:0:0:
152,72,82817,2,0,L|88:80,1,42.5
72,160,83005,1,0,0:0:0:0:
78,178,83098,1,0,0:0:0:0:
84,197,83192,1,0,0:0:0:0:
176,232,83380,1,0,0:0:0:0:
304,232,83755,6,0,L|328:96,1,127.5
216,56,84130,2,0,L|184:64,4,21.25
80,80,84505,5,8,0:0:0:0:
82,143,84630,1,8,0:0:0:0:
96,206,84755,1,8,0:0:0:0:
120,265,84880,1,8,0:0:0:0:
176,296,85005,2,8,P|224:304|272:264,1,85
352,240,85255,2,0,L|336:192,3,42.5
352,104,85630,2,0,L|248:88,1,85
168,72,86005,5,0,0:0:0:0:
96,144,86192,1,0,0:0:0:0:
100,160,86285,1,0,0:0:0:0:
105,177,86379,1,0,0:0:0:0:
248,72,86755,6,2,L|240:144,1,42.5
336,168,86942,2,2,L|328:232,1,42.5
152,216,87130,2,2,L|152:288,1,42.5
240,312,87317,2,2,L|240:360,1,42.5
464,280,87505,2,2,L|456:216,1,42.5
360,128,87692,2,2,L|336:192,1,42.5
240,288,87880,2,2,L|216:224,1,42.5
144,104,88067,2,2,L|128:168,1,42.5
224,128,88255,6,0,L|264:136,2,21.25
344,216,88442,2,0,L|344:248,2,21.25
200,280,88630,2,0,P|152:264|120:240,1,56.6666666666667
80,152,88880,1,8,0:0:0:0:
129,126,89005,1,8,0:0:0:0:
178,100,89130,1,8,0:0:0:0:
232,72,89255,2,8,L|304:80,1,56.6666666666667
392,88,89473,2,0,B|376:152|408:176|392:232,1,127.5
360,248,89848,2,0,P|304:240|256:192,1,127.5
168,80,90223,6,0,L|144:144,1,42.5
32,152,90380,1,4,0:0:0:0:
90,201,90505,1,4,0:0:0:0:
148,251,90630,1,4,0:0:0:0:
207,303,90755,1,4,0:0:0:0:
368,256,90880,6,0,L|352:136,1,85
296,104,91161,2,0,L|232:120,3,42.5
120,96,91536,6,0,L|104:152,1,42.5
96,240,91723,2,0,L|160:240,3,42.5
304,312,92098,2,2,L|280:240,1,42.5
200,200,92286,2,2,L|232:144,1,42.5
320,128,92473,2,2,L|296:80,1,42.5
96,72,92661,2,2,L|96:136,1,42.5
88,264,92848,2,2,L|88:216,1,42.5
192,80,93036,2,2,L|192:144,1,42.5
192,288,93223,2,2,L|192:224,1,42.5
304,80,93411,2,2,L|304:160,1,42.5
296,296,93598,2,2,L|296:232,1,42.5
128,136,93786,2,2,L|136:184,1,42.5
216,296,93973,2,2,L|216:240,1,42.5
136,64,94161,2,2,L|168:120,1,42.5
280,264,94348,2,2,L|272:208,1,42.5
256,88,94630,5,0,0:0:0:0:
184,120,94817,2,0,L|128:192,1,85
112,280,95192,1,0,0:0:0:0:
232,248,95380,1,0,0:0:0:0:
112,168,95567,1,0,0:0:0:0:
112,168,95755,2,0,L|224:160,1,85
312,128,96130,5,0,0:0:0:0:
312,128,96223,1,0,0:0:0:0:
312,128,96317,1,0,0:0:0:0:
232,152,96411,6,0,L|208:96,1,42.5
128,192,96598,2,0,L|136:144,1,42.5
80,64,96786,2,0,L|80:128,1,42.5
184,272,96973,5,0,0:0:0:0:
184,272,97067,2,0,P|272:232|352:176,1,170
304,80,97630,1,0,0:0:0:0:
104,56,109630,6,0,L|120:120,1,42.5
104,224,109817,1,0,0:0:0:0:
131,218,109910,1,0,0:0:0:0:
159,212,110004,1,0,0:0:0:0:
224,112,110098,2,0,L|240:168,2,42.5
344,216,110380,2,0,L|304:256,1,42.5
200,304,110567,2,0,L|200:248,1,42.5
120,104,110755,5,0,0:0:0:0:
116,134,110848,1,0,0:0:0:0:
112,164,110942,1,0,0:0:0:0:
109,195,111036,1,0,0:0:0:0:
104,224,111130,1,0,0:0:0:0:
104,256,111223,2,2,P|116:306|169:362,1,127.5
185,362,111598,2,4,P|225:306|289:290,1,127.5
297,290,111973,2,8,P|321:330|401:370,1,127.5
176,104,112348,5,0,0:0:0:0:
134,99,112442,1,0,0:0:0:0:
92,107,112536,1,0,0:0:0:0:
64,128,112630,6,2,L|96:200,1,42.5
128,240,112817,1,4,0:0:0:0:
192,128,113005,2,2,L|176:176,1,42.5
128,240,113192,1,4,0:0:0:0:
296,128,113380,2,2,L|304:184,1,42.5
320,264,113567,1,4,0:0:0:0:
392,120,113755,2,2,L|400:176,1,42.5
400,256,113942,1,4,0:0:0:0:
80,104,114130,6,2,L|152:104,1,42.5
240,96,114317,1,4,0:0:0:0:
80,104,114505,6,2,L|152:104,1,42.5
240,96,114692,1,4,0:0:0:0:
240,96,114880,2,0,B|224:136|264:192|240:256,1,127.5
247,222,115255,2,8,B|264:192|224:136|240:96,1,127.5
80,112,115630,5,0,0:0:0:0:
80,216,115817,1,0,0:0:0:0:
168,216,116005,5,0,0:0:0:0:
168,112,116192,1,0,0:0:0:0:
304,224,116380,2,0,L|304:96,1,85
208,136,116755,2,0,L|208:221,1,85
296,272,117130,1,0,0:0:0:0:
460,147,117317,1,0,0:0:0:0:
254,151,117505,1,0,0:0:0:0:
423,269,117692,1,0,0:0:0:0:
356,74,117880,1,0,0:0:0:0:
184,80,118067,6,0,L|184:184,1,85
88,264,118442,1,0,0:0:0:0:
256,272,118630,1,0,0:0:0:0:
256,272,118817,1,0,0:0:0:0:
256,272,119005,1,0,0:0:0:0:
256,272,119192,1,0,0:0:0:0:
256,272,119380,1,0,0:0:0:0:
256,272,119567,1,0,0:0:0:0:
256,272,119755,1,8,0:0:0:0:
256,272,120130,5,0,0:0:0:0:
256,272,120317,1,0,0:0:0:0:
256,272,120505,1,0,0:0:0:0:
256,272,120692,1,0,0:0:0:0:
256,272,120880,1,8,0:0:0:0:
256,24,121255,6,0,L|256:197,1,170
96,256,121630,5,0,0:0:0:0:
96,128,121817,1,0,0:0:0:0:
416,128,122380,5,0,0:0:0:0:
416,256,122567,1,0,0:0:0:0:
32,160,123130,5,0,0:0:0:0:
480,160,123505,1,0,0:0:0:0:
32,160,123880,1,0,0:0:0:0:
128,112,124255,5,0,0:0:0:0:
162,108,124348,1,0,0:0:0:0:
197,113,124442,1,0,0:0:0:0:
231,120,124536,1,0,0:0:0:0:
265,123,124630,1,0,0:0:0:0:
304,120,124817,5,0,0:0:0:0:
304,120,125005,1,0,0:0:0:0:
304,120,125192,1,0,0:0:0:0:
304,120,125380,1,0,0:0:0:0:
304,120,125567,1,0,0:0:0:0:
304,120,125755,1,8,0:0:0:0:
160,160,126130,5,0,0:0:0:0:
160,160,126317,1,0,0:0:0:0:
160,160,126505,1,0,0:0:0:0:
160,160,126692,1,0,0:0:0:0:
160,160,126880,1,8,0:0:0:0:
306,207,127255,6,0,P|337:141|286:202,1,170
96,80,127630,5,2,0:0:0:0:
96,232,127817,1,4,0:0:0:0:
168,232,128005,5,2,0:0:0:0:
168,80,128192,1,4,0:0:0:0:
240,80,128380,5,2,0:0:0:0:
240,232,128567,1,4,0:0:0:0:
304,232,128755,5,2,0:0:0:0:
304,80,128942,1,4,0:0:0:0:
144,136,129130,5,0,0:0:0:0:
144,136,129317,1,0,0:0:0:0:
144,136,129505,1,0,0:0:0:0:
144,136,129692,1,0,0:0:0:0:
144,136,129880,1,0,0:0:0:0:
144,136,130067,1,0,0:0:0:0:
144,136,130255,1,0,0:0:0:0:
144,136,130442,1,8,0:0:0:0:
360,48,130630,6,0,P|368:88|360:144,1,85
240,168,130817,2,0,P|232:208|240:288,1,85
352,304,131005,2,0,P|336:248|344:200,1,85
256,48,131192,2,0,P|200:48|136:80,1,85
112,168,131380,2,0,P|112:216|160:264,1,85
176,192,131567,2,0,P|264:224|272:256,1,85
253,209,131755,2,0,P|217:188|176:192,1,85
96,64,131942,6,0,L|88:160,1,85
88,148,132130,6,0,L|96:64,1,85
224,96,132317,5,0,0:0:0:0:
296,96,132505,2,0,L|384:80,2,85
368,176,132786,2,0,L|328:264,1,85
248,240,132973,2,0,L|192:160,1,85
120,152,133161,2,0,L|72:248,1,85
144,64,133348,2,0,L|256:64,1,85
432,72,133630,6,0,P|440:152|408:240,1,170
288,272,134005,1,0,0:0:0:0:
176,224,134192,1,0,0:0:0:0:
144,80,134380,2,0,P|240:80|360:112,1,170
368,188,134755,5,2,2:2:0:0:
363,223,134849,1,2,2:2:0:0:
335,260,134943,1,2,2:1:0:0:
280,274,135037,1,2,2:0:0:0:
208,248,135130,2,2,L|160:144,1,85
80,48,135505,2,0,L|80:144,1,85
112,312,135880,2,0,L|160:240,1,85
176,168,136255,5,2,0:0:0:0:
252,157,136348,1,2,0:0:0:0:
307,174,136442,1,2,0:1:0:0:
332,212,136536,1,2,0:2:0:0:
336,248,136630,2,2,P|368:288|424:304,1,85
496,312,136817,5,4,0:0:0:0:
464,200,137005,2,2,L|384:128,1,85
320,80,137192,1,4,0:0:0:0:
136,200,137380,2,2,L|192:128,1,85
320,88,137567,1,4,0:0:0:0:
296,248,137755,2,2,L|312:160,1,85
320,88,137942,1,4,0:0:0:0:
112,72,138130,6,2,L|120:176,1,85
128,256,138317,1,4,0:0:0:0:
248,64,138505,2,2,L|248:168,1,85
248,272,138692,1,4,0:0:0:0:
72,88,138880,6,0,P|176:80|256:112,1,170
312,176,139255,1,0,0:0:0:0:
304,288,139442,1,0,0:0:0:0:
128,264,139630,6,0,L|128:72,1,170
256,56,140005,1,0,0:0:0:0:
256,56,140192,1,0,0:0:0:0:
384,94,140380,2,0,L|384:264,1,170
264,240,140755,5,2,2:2:0:0:
239,265,140849,1,2,2:2:0:0:
194,278,140943,1,2,2:1:0:0:
142,257,141037,1,2,2:0:0:0:
99,194,141130,2,2,L|121:81,1,85
208,48,141505,2,0,L|208:168,1,85
320,272,141880,2,0,L|320:152,1,85
136,144,142161,5,2,0:0:0:0:
177,132,142254,1,2,0:0:0:0:
220,128,142348,1,2,0:0:0:0:
264,127,142442,1,2,0:0:0:0:
307,125,142536,1,2,0:0:0:0:
352,120,142630,2,2,L|400:200,1,85
440,304,142817,1,4,0:0:0:0:
264,192,143005,2,2,L|336:280,1,85
440,304,143192,1,4,0:0:0:0:
440,304,143380,6,2,L|352:208,1,85
320,176,143567,1,4,0:0:0:0:
440,304,143755,2,2,L|352:208,1,85
320,176,143942,1,4,0:0:0:0:
240,248,144130,5,0,0:0:0:0:
224,112,144317,1,0,0:0:0:0:
112,152,144692,1,0,0:0:0:0:
312,272,144880,6,2,L|320:160,1,85
320,88,145067,1,4,0:0:0:0:
192,208,145255,2,2,L|280:136,1,85
320,88,145442,1,4,0:0:0:0:
288,200,145630,2,0,L|264:136,2,42.5
264,312,145912,5,0,0:0:0:0:
240,312,146099,2,0,L|200:264,1,42.5
177,137,146286,1,0,0:0:0:0:
186,105,146380,2,0,L|234:86,1,42.5
344,48,146568,2,0,L|352:104,1,42.5
408,208,146755,1,0,0:0:0:0:
376,232,146849,5,0,0:0:0:0:
347,226,146942,1,0,0:0:0:0:
318,224,147036,1,0,0:0:0:0:
288,225,147130,1,0,0:0:0:0:
259,229,147224,1,0,0:0:0:0:
200,272,147318,5,0,0:0:0:0:
168,272,147505,2,0,L|152:200,1,42.5
184,88,147692,1,0,0:0:0:0:
216,72,147787,2,0,L|288:80,1,42.5
400,88,147974,6,0,L|384:160,1,42.5
352,256,148162,2,0,L|288:232,1,42.5
232,128,148349,2,0,L|224:192,1,42.5
416,80,148537,5,0,0:0:0:0:
388,80,148630,1,0,0:0:0:0:
360,80,148724,1,0,0:0:0:0:
328,80,148818,1,0,0:0:0:0:
296,80,148912,2,0,L|248:96,3,42.5
232,184,149287,5,0,0:0:0:0:
275,182,149380,1,0,0:0:0:0:
317,180,149474,1,0,0:0:0:0:
360,178,149568,1,0,0:0:0:0:
400,176,149662,2,0,P|408:128|400:80,1,85
280,72,149943,5,0,0:0:0:0:
253,40,150036,1,0,0:0:0:0:
212,32,150130,1,0,0:0:0:0:
176,53,150224,1,0,0:0:0:0:
168,104,150318,5,0,0:0:0:0:
196,135,150411,1,0,0:0:0:0:
237,143,150505,1,0,0:0:0:0:
273,122,150599,1,0,0:0:0:0:
400,72,150693,6,0,L|384:144,1,42.5
376,216,150880,5,0,0:0:0:0:
376,216,150974,2,0,L|280:216,1,85
224,216,151255,1,0,0:0:0:0:
224,216,151349,2,0,L|224:104,1,85
432,56,151630,5,0,0:0:0:0:
390,56,151723,1,0,0:0:0:0:
344,56,151818,2,0,L|256:56,1,85
144,88,152099,5,0,0:0:0:0:
144,116,152192,1,0,0:0:0:0:
144,144,152286,1,0,0:0:0:0:
144,173,152380,1,0,0:0:0:0:
232,168,152474,5,0,0:0:0:0:
232,139,152568,1,0,0:0:0:0:
232,111,152662,1,0,0:0:0:0:
232,80,152755,2,0,L|296:80,1,42.5
400,88,152943,5,2,0:2:0:0:
373,111,153037,1,2,0:2:0:0:
355,153,153131,1,2,0:1:0:0:
372,208,153223,1,0,0:0:0:0:
424,264,153318,1,0,0:0:0:0:
424,264,153412,6,0,L|368:248,1,42.5
312,152,153599,2,0,L|336:208,1,42.5
272,312,153787,2,0,L|320:256,1,42.5
344,240,153974,1,0,0:0:0:0:
240,160,154068,6,0,L|240:232,2,42.5
240,104,154349,1,0,0:0:0:0:
416,128,154537,5,2,0:2:0:0:
412,164,154631,1,2,0:2:0:0:
387,202,154723,1,2,0:1:0:0:
332,219,154817,1,0,0:0:0:0:
259,203,154912,2,0,L|195:184,1,42.5
152,112,155099,5,0,0:0:0:0:
176,80,155193,2,0,L|256:80,1,42.5
360,72,155380,2,0,L|344:120,1,42.5
304,232,155568,2,0,L|240:224,1,42.5
424,264,155755,5,0,0:0:0:0:
372,208,155848,1,0,0:0:0:0:
355,153,155942,1,2,0:1:0:0:
373,111,156036,1,2,0:2:0:0:
400,88,156130,1,2,0:2:0:0:
400,88,156224,2,0,L|336:72,1,42.5
216,144,156412,2,0,L|264:88,1,42.5
440,144,156599,2,0,L|424:192,1,42.5
376,304,156787,5,0,0:0:0:0:
351,308,156880,1,0,0:0:0:0:
324,309,156974,1,0,0:0:0:0:
298,309,157068,1,0,0:0:0:0:
200,272,157162,6,0,L|216:208,1,42.5
136,104,157630,5,8,0:0:0:0:
160,104,157723,1,8,0:0:0:0:
192,104,157817,1,8,0:0:0:0:
224,104,157911,2,8,L|328:112,1,85
384,152,158192,1,8,0:0:0:0:
384,152,158380,1,8,0:0:0:0:
384,152,158567,1,8,0:0:0:0:
240,272,158754,6,8,L|208:160,1,85
136,72,158942,2,8,L|168:176,1,85
136,288,159130,2,8,L|104:176,1,85
240,152,159317,5,8,0:0:0:0:
240,152,159505,1,8,0:0:0:0:
240,152,159692,1,8,0:0:0:0:
64,64,159880,6,8,L|104:176,1,85
160,288,160067,2,8,L|168:168,1,85
256,56,160254,2,8,L|272:176,1,85
320,304,160442,2,8,L|360:208,1,85
408,136,160630,5,8,0:0:0:0:
408,136,160817,1,8,0:0:0:0:
408,136,161005,1,8,0:0:0:0:
408,136,161192,1,8,0:0:0:0:
408,136,161380,1,8,0:0:0:0:
408,136,161567,1,8,0:0:0:0:
408,136,161755,1,8,0:0:0:0:
248,136,162130,5,8,0:0:0:0:
248,136,162317,1,8,0:0:0:0:
248,136,162505,1,8,0:0:0:0:
248,136,162692,1,8,0:0:0:0:
248,136,162880,1,8,0:0:0:0:
72,72,163255,6,8,L|176:64,1,85
336,72,163442,2,8,L|344:192,1,85
320,328,163630,2,8,L|272:248,1,85
184,200,163817,1,8,0:0:0:0:
184,200,164005,1,8,0:0:0:0:
184,200,164192,1,8,0:0:0:0:
327,175,164380,6,8,P|329:218|314:257,1,85
272,88,164567,2,8,P|216:80|136:96,1,85
80,160,164755,2,8,P|80:208|104:248,1,85
224,264,164942,1,8,0:0:0:0:
224,264,165130,1,8,0:0:0:0:
224,264,165317,1,8,0:0:0:0:
224,264,165505,1,8,0:0:0:0:
368,264,165692,6,8,L|336:128,1,85
256,48,165880,2,8,L|160:112,1,85
104,280,166067,2,8,L|216:168,1,85
352,96,166255,2,8,L|328:200,1,85
104,128,166442,2,8,L|192:216,1,85
248,232,166630,5,8,0:0:0:0:
248,232,166817,1,8,0:0:0:0:
248,232,167005,1,8,0:0:0:0:
248,232,167192,1,8,0:0:0:0:
248,232,167380,1,8,0:0:0:0:
248,232,167567,1,8,0:0:0:0:
248,232,167755,1,8,0:0:0:0:
136,232,168130,5,8,0:0:0:0:
136,232,168317,1,8,0:0:0:0:
136,232,168505,1,8,0:0:0:0:
136,232,168692,1,8,0:0:0:0:
136,232,168880,1,8,0:0:0:0:
64,72,169255,5,8,0:0:0:0:
81,72,169348,1,8,0:0:0:0:
98,72,169442,1,8,0:0:0:0:
115,72,169536,1,8,0:0:0:0:
128,72,169630,2,8,L|280:72,1,85
304,152,169817,1,8,0:0:0:0:
304,152,170005,1,8,0:0:0:0:
304,152,170192,1,8,0:0:0:0:
128,256,170380,6,8,L|176:104,1,85
256,48,170567,2,8,L|312:144,1,85
328,280,170755,2,8,L|248:208,1,85
168,144,170942,1,8,0:0:0:0:
168,144,171130,1,8,0:0:0:0:
168,144,171317,1,8,0:0:0:0:
168,144,171505,1,8,0:0:0:0:
344,96,171692,6,8,L|320:216,1,85
208,296,171880,2,8,L|216:184,1,85
56,96,172067,2,8,L|152:144,1,85
224,112,172255,2,8,L|296:232,1,85
184,248,172442,1,8,0:0:0:0:
184,248,172630,1,8,0:0:0:0:
184,248,172817,1,8,0:0:0:0:
184,248,173005,1,8,0:0:0:0:
184,248,173192,1,8,0:0:0:0:
184,248,173380,1,8,0:0:0:0:
184,248,173567,1,8,0:0:0:0:
184,248,173755,1,8,0:0:0:0:
128,136,174130,5,8,0:0:0:0:
128,136,174318,1,8,0:0:0:0:
128,136,174505,1,8,0:0:0:0:
128,136,174693,1,8,0:0:0:0:
128,136,174880,1,8,0:0:0:0:
240,40,175255,2,8,L|368:128,1,85
168,184,175630,2,8,L|288:184,3,113.333333333333
432,296,176380,5,8,0:0:0:0:
312,224,176755,1,8,0:0:0:0:
232,120,177130,1,8,0:0:0:0:
360,32,177505,1,8,0:0:0:0:
192,48,177880,1,8,0:0:0:0:
120,200,178255,1,8,0:0:0:0:
120,120,178630,6,10,L|240:120,1,85
296,120,178817,1,12,0:0:0:0:
120,208,179005,6,10,L|232:208,1,85
296,208,179192,1,12,0:0:0:0:
120,296,179380,6,10,L|232:296,1,85
296,296,179567,1,12,0:0:0:0:
120,32,179755,6,10,L|232:32,1,85
296,32,179942,1,12,0:0:0:0:
120,32,180130,6,10,L|120:128,1,85
120,192,180317,1,12,0:0:0:0:
216,32,180505,6,10,L|216:128,1,85
216,192,180692,1,12,0:0:0:0:
312,32,180880,6,10,L|312:128,1,85
304,192,181067,1,12,0:0:0:0:
104,104,181630,5,0,0:0:0:0:
128,232,181817,1,2,0:0:0:0:
224,80,182192,1,4,0:0:0:0:
328,248,182567,1,8,0:0:0:0:
160,104,183880,5,0,0:0:0:0:
336,88,184067,1,0,0:0:0:0:
336,96,184161,1,0,0:0:0:0:
336,104,184255,2,0,B|400:160|336:248|336:248|328:176|256:168,1,255.000009727478
224,96,184630,1,0,0:0:0:0:
224,96,184817,1,0,0:0:0:0:
352,240,185005,6,0,B|401:201|364:124|335:103|288:120|288:152,1,170,2|0,1:0|0:0,0:0:0:0:
96,216,185192,2,0,B|46:177|83:100|112:79|160:96|160:128,1,170,2|0,1:0|0:0,0:0:0:0:
242,205,185380,6,2,P|251:155|256:216,1,170
96,80,185567,2,0,P|105:29|109:90,1,170
304,112,185755,6,2,B|368:112|368:112|400:120|400:120|432:112|432:112|480:112,1,170
472,112,185942,2,0,B|432:112|432:112|400:104|400:104|368:112|368:112|304:112,1,170
96,136,186130,6,2,B|160:184|144:232|208:288,1,170
304,240,186317,2,0,B|240:191|256:144|192:88,1,170
72,32,186505,2,2,L|72:256,1,170
280,200,186692,2,0,L|280:8,1,170
176,280,186880,2,2,L|176:144,1,127.5
264,32,187255,6,0,P|344:72|400:160,1,170
344,272,187442,1,2,0:0:0:0:
328,288,187536,2,0,P|248:240|184:168,1,170
80,184,187723,2,2,B|64:64|64:64|136:128,1,170
352,192,187911,2,0,B|352:120|352:120|296:96|296:96|304:136,1,170
144,280,188098,2,2,B|152:216|152:216|128:176|128:176|144:144|144:144|144:64,1,170
24,112,188286,6,0,B|48:80|56:32|56:32|64:88|88:136,1,170
288,104,188473,2,2,B|312:72|320:24|320:24|328:80|352:128,1,170
309,263,188661,6,0,B|296:288|288:344|288:344|280:296|256:264,1,170
101,239,188848,2,2,B|88:264|80:320|80:320|72:272|48:240,1,170
240,240,189036,2,0,P|149:191|88:104,1,170
144,64,189224,5,2,0:0:0:0:
152,64,189318,1,0,0:0:0:0:
160,64,189411,2,2,B|200:56|200:56|240:72|240:72|280:56|280:56|368:64,1,170
472,184,189598,5,0,0:0:0:0:
403,184,189691,1,2,0:0:0:0:
337,184,189785,1,0,0:0:0:0:
269,184,189879,1,2,0:0:0:0:
208,184,189973,2,0,B|128:184|128:184|88:160|88:160|0:160,1,170
144,320,190255,6,2,P|140:264|163:320,1,170
256,112,190442,2,0,P|252:56|276:112,1,170
352,264,190630,1,2,0:0:0:0:
368,256,190723,2,0,B|256:200|280:0|424:-8|440:104|496:232,1,340,2|0,1:0|0:0,0:0:0:0:
96,72,191005,6,2,B|125:124|62:168|62:168|74:118|27:96,1,170
368,80,191192,2,0,B|338:132|401:176|401:176|389:126|436:104,1,170
88,264,191380,2,2,B|88:208|88:208|72:168|72:168|88:128|88:128|96:48,1,170
344,104,191567,2,0,B|346:131|346:131|362:171|362:171|346:211|346:211|346:267,1,170
88,64,191755,6,2,B|152:8|120:112|304:64,1,170
248,232,191942,2,0,B|187:179|219:283|93:246,1,170
96,176,192130,2,2,P|64:64|144:56,1,170
416,176,192317,2,0,P|448:64|368:56,1,170
128,32,192505,6,2,L|128:256,1,170
384,32,192692,2,0,L|384:202,1,170
256,248,192880,2,2,L|256:80,1,127.5
96,96,193255,2,0,B|144:72|144:72|184:80|184:80|224:64|224:64|416:96,1,170
256,69,193442,2,2,B|227:84|227:84|184:82|184:82|149:102|149:102|96:95,1,170
24,224,193630,5,0,0:0:0:0:
32,240,193723,2,2,B|96:224|112:304|112:304|216:264,1,170
400,224,193911,2,0,B|360:136|432:120|376:32,1,170
128,32,194098,6,2,B|88:72|104:112|104:112|160:96|168:56,1,170
320,176,194286,2,0,B|280:216|296:256|296:256|352:240|360:200,1,170
112,288,194473,2,2,B|80:232|80:232|96:192|96:192|80:160|80:160|96:72,1,170
400,288,194661,2,0,B|432:232|432:232|416:192|416:192|432:160|432:160|416:72,1,170
165,64,194848,6,2,P|232:80|156:89,1,170
368,136,195036,2,0,P|435:152|359:161,1,170
80,256,195223,2,2,B|40:160|40:160|176:224,1,170
320,256,195411,2,0,B|328:176|328:176|264:160|264:160|280:200,1,170
168,256,195598,2,2,B|184:192|184:192|160:160|160:160|176:128|176:128|144:32,1,170
80,64,195880,5,0,0:0:0:0:
119,47,195973,1,2,0:0:0:0:
161,40,196067,1,0,0:0:0:0:
203,41,196161,1,2,0:0:0:0:
248,56,196255,2,0,B|312:80|320:64|352:152,1,127.500004863739
360,208,196442,1,2,0:0:0:0:
128,264,196630,6,0,P|104:184|120:112,1,127.500004863739
280,128,196817,2,2,P|302:187|298:250,1,127.500004863739
113,137,197005,2,0,L|129:273,1,127.500004863739
294,254,197192,2,2,L|278:110,1,127.500004863739
120,48,197380,5,0,0:0:0:0:
128,64,197473,2,2,L|360:72,1,127.500004863739
376,120,197661,2,0,P|400:184|352:136,1,127.500004863739
240,264,198130,6,2,L|240:192,1,42.5
240,264,198317,2,0,L|240:160,1,85
240,264,198505,2,2,L|240:96,1,127.500004863739
216,48,198692,6,0,L|152:96,3,63.7500024318696
96,88,198880,2,4,L|112:240,1,127.500004863739
216,120,199067,5,0,0:0:0:0:
228,122,199160,1,2,0:0:0:0:
240,125,199254,1,0,0:0:0:0:
256,128,199348,2,2,L|288:264,1,127.500004863739
176,272,199536,2,0,P|96:224|72:144,1,127.500004863739
176,56,199723,2,2,L|272:200,1,127.500004863739
80,104,199911,6,0,L|96:248,1,127.500004863739
264,280,200098,1,2,0:0:0:0:
288,272,200193,2,0,P|256:200|280:112,1,127.500004863739
368,104,200380,2,2,P|416:160|392:256,1,127.500004863739
168,248,200567,6,0,B|152:208|152:208|160:176|160:176|152:144|152:144|168:72,1,127.500004863739
320,224,200755,2,2,B|304:184|304:184|312:152|312:152|304:120|304:120|320:48,1,127.500004863739
192,80,201036,1,0,0:0:0:0:
72,96,201223,2,2,P|72:176|128:232,1,127.500004863739
232,200,201505,6,0,L|344:136,2,127.500004863739
360,72,201880,1,4,0:0:0:0:
331,61,201973,1,0,0:0:0:0:
301,56,202067,1,2,0:0:0:0:
270,57,202161,1,0,0:0:0:0:
240,64,202255,2,2,P|176:96|128:160,1,127.500004863739
128,240,202442,1,0,0:0:0:0:
128,256,202536,2,2,B|184:240|184:240|216:256|216:256|288:256,1,127.500004863739
368,264,203005,6,0,L|336:96,1,127.500004863739
280,48,203192,1,2,0:0:0:0:
240,48,203286,2,0,P|176:72|128:128,1,127.500004863739
16,112,203473,2,2,P|32:184|72:264,1,127.500004863739
192,296,203661,6,2,L|192:152,1,127.500004863739
320,168,203848,2,2,L|320:296,1,127.500004863739
192,296,204036,2,0,L|192:152,1,127.500004863739
320,168,204223,2,2,L|320:296,1,127.500004863739
192,296,204411,2,0,L|192:152,1,127.500004863739
320,168,204599,2,2,L|320:296,1,127.500004863739
288,72,204786,6,0,L|200:96,3,63.7500024318696
184,96,204973,1,4,0:0:0:0:
80,264,205255,2,0,P|72:176|80:88,1,127.500004863739
176,120,205442,2,2,P|208:176|216:264,1,127.500004863739
320,104,205630,2,0,L|320:248,1,127.500004863739
408,232,205817,2,2,L|408:96,1,127.500004863739
106,53,206005,6,0,B|146:46|146:46|178:54|178:54|202:47|202:47|282:48,1,127.500004863739
232,152,206192,2,0,B|203:152|203:152|179:144|179:144|147:153|147:153|107:146,1,127.500004863739
64,328,206380,6,0,L|64:160,1,127.500004863739
160,200,206567,2,2,L|296:200,1,127.500004863739
384,200,206755,2,0,L|384:48,1,127.500004863739
288,72,206942,2,2,L|128:72,1,127.500004863739
256,192,207130,12,0,210411,0:0:0:0:
